#TITLE:luna blu;
#SUBTITLE:;
#ARTIST:WASi303;
#TITLETRANSLIT:;
#SUBTITLETRANSLIT:;
#ARTISTTRANSLIT:;
#CREDIT:SupremeX;
#BANNER:luna blu-bn.png;
#BACKGROUND:luna blu-bg.png;
#LYRICSPATH:;
#CDTITLE:;
#MUSIC:luna blu.ogg;
#OFFSET:-1.660;
#SAMPLESTART:67.640;
#SAMPLELENGTH:12.000;
#SELECTABLE:YES;
#BPMS:0.000=160.000;
#STOPS:;
#BGCHANGES:;

//---------------dance-single - ----------------
#NOTES:
     dance-single:
     :
     Hard:
     9:
     0.601,0.663,0.190,0.058,0.091:
0000
0000
0000
0000
,
0000
0000
0000
0000
,
0000
0000
0000
0000
,
0000
0000
0000
0000
,
1000
0000
0001
0100
0010
0000
1000
0001
,
0100
0010
1000
0001
0100
0000
0010
1000
,
0001
1000
0010
0100
0010
0000
1000
0000
,
0010
1000
0001
1000
0010
0000
0101
0000
,
0010
0100
1000
0100
0010
0000
1001
0000
,
0010
0100
0010
1000
0001
0000
0110
0000
,
1000
0100
0010
0001
1000
0000
1100
0000
,
0010
0001
0010
0100
1000
0000
0110
0000
,
0001
1000
0001
1000
0010
0100
0010
0100
,
0010
1000
0010
1000
0001
0100
0001
0000
,
1000
0100
0010
0100
1000
0100
0010
0001
,
0010
0100
0010
0001
0010
0100
1000
0000
,
0100
1000
0100
0010
0001
1000
1100
0000
,
0001
1000
0100
1000
0010
0100
0110
0000
,
0001
1000
0001
0100
0010
0100
0001
1000
,
0010
0100
0001
1000
0010
0100
0001
0001
,
1000
0010
0100
0100
0100
0010
1000
0000
,
0100
0000
0010
0000
0010
0000
0001
0000
1000
0000
0100
0000
0010
0000
0001
0100
,
0010
1000
0001
1000
0001
0100
0100
0000
,
0010
1000
0010
0100
0001
1000
1000
0000
,
0100
0010
0100
0010
0001
0001
0001
1000
,
0010
0000
0100
0000
0100
0000
0001
0000
1000
0000
0010
0000
0100
0000
0010
1000
,
0100
0000
1000
0001
0010
0100
0100
0000
,
1000
0100
1000
0100
0010
0001
0001
0000
,
0100
0001
0000
1000
0010
0000
0100
0001
,
0000
1000
1000
0000
0100
0010
0001
1000
,
0100
0000
1000
0100
1000
0000
0001
1000
,
0010
0100
0001
1000
0010
0000
0100
0000
,
0001
0001
0000
1000
1000
0000
0010
0010
,
0000
0100
0100
0000
0001
1000
0010
0100
,
0002
0000
0100
0000
0103
0000
0010
1000
,
0010
1000
0010
0100
0020
0000
1000
0000
,
1030
0000
0101
0000
0010
0100
0001
1000
,
0100
0000
1100
0000
0010
0001
1000
0010
,
0100
0000
0110
0000
0001
1000
0100
1000
,
0001
0000
0110
0000
1000
0100
0010
0100
,
1000
0000
0110
0000
0001
0010
0100
1000
,
1100
0000
0110
0000
0001
1000
0100
1000
,
1100
0000
0110
0000
0001
0100
0001
1000
,
1010
0000
0101
0000
0010
1000
0100
0010
,
0001
0000
0000
0000
1000
0010
0100
0000
0010
0000
0100
0000
0001
0000
1000
0000
,
0001
0000
0100
0000
0010
0100
0001
0000
1000
0000
0100
0000
0010
0000
0000
0000
,
0001
0000
0010
0000
0100
0000
1000
0000
0010
1000
0100
0000
1000
0000
0100
0000
,
0010
0000
0100
0000
0010
0000
0001
0000
0100
0010
1000
0000
1000
0000
0000
0000
,
0001
0000
0100
0000
0010
0000
1000
0000
0010
1000
0100
0000
0100
0000
1000
0000
,
0010
0000
0100
0000
0010
0000
0100
0001
0000
0000
1000
0000
0100
0000
1000
0000
,
0001
0000
0100
0000
0010
0000
0100
0000
0001
1000
0010
0000
0100
0000
0001
0000
,
0100
0000
0010
0000
1000
0000
0001
0000
1000
0100
0010
0000
0001
0010
0001
0010
,
0001
1000
0100
0000
0100
1000
1000
0000
,
0100
0010
0010
0000
0001
1000
1000
0000
,
0010
0100
0001
1000
0100
1000
0010
0000
,
0100
0001
1000
0010
1000
0001
0100
0000
,
0010
1000
0010
1000
0001
0100
0010
0100
,
0001
1000
0100
1000
0001
1000
0100
0000
,
0010
0001
0010
0100
1000
0100
0010
0000
,
0001
1000
0001
0100
0001
1000
0001
0000
,
1000
0000
0000
0100
0000
0000
1000
0000
0010
0000
0000
0100
0000
0000
0010
0000
,
1000
0000
0000
0001
0000
0000
1000
0000
0001
0000
0000
0000
0110
0000
0000
0000
,
1000
0000
0000
0010
0000
0000
0100
0000
0010
0000
0000
1000
0000
0000
0001
0000
,
0100
0000
0000
0001
0000
0000
1000
0000
0010
0000
0000
0000
0110
0000
0000
0000
,
0001
0000
0000
0010
0000
0000
0100
0000
1000
0000
0000
0100
0000
0000
0010
0000
,
0001
0000
0000
1000
0000
0000
0100
0000
1000
0000
0000
0000
1001
0000
0000
0000
,
0100
0000
0000
0010
0000
0000
1000
0000
0100
0000
0000
1000
0000
0000
0100
0000
,
0010
0000
0000
0001
0000
0000
1000
0000
0100
0000
0000
0000
1100
0000
0000
0000
,
0010
0001
0010
0100
0010
0001
0010
0000
,
1000
0100
0010
0100
1000
0001
1000
0000
,
0100
1000
0100
1000
0010
0100
0010
0100
,
0001
1000
0001
1000
0010
0100
0010
0000
,
1000
0100
0010
0001
1000
0100
1000
0000
,
0001
0010
0100
1000
0001
1000
0100
0000
,
2000
0000
0000
0000
,
3002
0000
0000
0000
,
1003
0100
0010
0100
0010
0001
1000
0100
,
1000
0100
0010
0001
0010
0001
0100
0000
,
1000
0100
1000
0001
1000
0100
1000
0001
,
0100
0001
0100
0010
1000
0001
1000
0000
,
0010
0100
0010
0100
0001
1000
0001
0000
,
1000
0100
0010
0001
1000
0100
1000
0000
,
0001
0010
0100
1000
0010
0100
0001
1000
,
0100
1000
0001
0100
0010
1000
0010
0100
,
2002
0000
0000
0000
,
0000
0000
0000
3003
,
1001
0000
0000
0110
0000
0000
2002
0000
3003
0000
0000
0000
0000
0000
0000
0000
;

//---------------dance-single - ----------------
#NOTES:
     dance-single:
     :
     Medium:
     5:
     0.423,0.441,0.139,0.058,0.004:
0000
0000
0000
0000
,
0000
0000
0000
0000
,
0000
0000
0000
0000
,
0000
0000
0000
0000
,
0100
0000
0100
0000
0010
1000
0010
0000
,
1000
0000
1000
0000
0010
0100
0010
0000
,
1000
0000
0001
0000
1000
0010
0100
0000
,
0100
0000
0001
0000
1000
0100
0010
0000
,
0001
0010
0001
0000
0010
0100
1000
0000
,
0010
1000
0100
0000
0100
1000
0010
0000
,
0010
0100
0010
0000
1000
0001
0100
0000
,
0100
0001
1000
0000
1000
0010
0100
0000
,
0100
0000
0001
0000
1000
0001
1000
0000
,
0001
0000
0100
0000
0001
1000
0100
0000
,
0100
0000
1000
0000
0010
0001
0100
0000
,
0010
0000
1000
0000
0001
0100
0010
0000
,
0010
1000
0001
0011
,
0100
1000
0100
0110
,
0001
0010
0100
1001
,
0100
0000
0010
0000
1000
0001
1000
0010
,
0100
0100
0001
1000
,
0100
1000
0010
0100
,
0010
1000
0001
1000
,
0001
0000
0100
0000
0010
1000
0010
0000
,
0100
1001
0010
0110
,
1000
0101
0010
1010
,
0001
0100
0010
1000
,
0010
0000
0100
0000
0001
1000
0001
1000
,
0001
0100
0010
1000
,
0010
0110
0001
1000
,
0020
0000
0130
0000
,
0001
0000
1000
0010
0200
0000
0000
0000
,
0301
0000
0000
1000
0100
0000
0010
0001
,
0000
1000
0100
0000
0010
0001
0000
1000
,
0200
0000
1000
0000
,
1300
0000
0002
0000
,
0103
0000
0001
0000
0100
0010
1000
0000
,
1000
0000
0001
0100
0010
0000
0010
0000
,
1000
0010
0100
0000
0100
0010
1000
0000
,
0001
0100
0010
1000
0001
0100
0001
0000
,
1000
0000
0010
0000
1000
0001
0100
0000
,
0100
0000
0010
0000
0010
1000
0100
0000
,
0100
0000
1000
0000
0001
0100
0010
0000
,
0010
0000
1000
0000
0001
0100
0001
0000
,
1000
0010
0100
0000
0100
0010
1000
0000
,
0001
0100
0001
0000
1000
0100
1000
0000
,
0001
0010
0100
1000
,
0001
0100
0001
1000
0010
0100
0010
0000
,
1000
0000
0001
0000
1000
0100
0010
0000
,
0010
0000
0001
0000
0010
0100
1000
0000
,
1000
0001
0100
0010
,
1000
0100
1000
0000
0001
1000
0001
0000
,
1000
0000
0010
0000
0100
0010
0100
0000
,
0010
0000
1000
0000
0001
1000
0100
0000
,
0100
0000
1000
0000
0010
0100
0010
0000
,
1000
0001
0100
0000
0010
0100
0010
0000
,
1000
0000
0001
0000
1000
0100
0010
0000
,
0010
0000
0001
0000
1000
0001
0010
0000
,
0010
0000
0100
0000
1000
0010
1000
0000
,
0001
0000
1000
0000
0010
0100
0001
0100
,
0010
1000
0010
1000
,
0001
1000
0100
1000
,
0001
0100
0010
1000
,
0001
0100
0010
1000
,
1001
0100
0110
0010
,
1010
0100
0101
1010
,
0001
1000
0010
0100
,
0010
1000
1001
0110
,
0001
0000
1000
0000
0100
1000
0100
0000
,
1000
0000
0001
0000
0010
0001
0010
0000
,
0100
0000
1000
0000
0010
0100
0001
0000
,
1000
0000
0001
0000
1000
0010
0100
0000
,
0100
0001
0010
0100
,
1000
0000
0001
0000
0100
0001
1000
0000
,
2000
0000
0000
0000
,
3002
0000
0000
0000
,
1003
0000
0001
0000
0100
0010
1000
0000
,
1000
0000
0001
0000
0100
0010
0100
0000
,
0001
0000
1000
0000
1000
0010
0100
0000
,
0100
0000
0001
0000
1000
0100
0010
0000
,
0010
0000
0001
0000
1000
0001
1000
0000
,
0100
0000
0010
0000
0001
0010
0100
0000
,
0100
0000
1000
0000
0001
0100
0010
0000
,
0010
1000
0001
0100
,
0220
0000
0000
0000
,
0000
0000
0000
0330
,
1001
0000
0000
0110
0000
0000
1001
0000
0000
0000
0000
0000
0000
0000
0000
0000
;

//---------------dance-single - ----------------
#NOTES:
     dance-single:
     :
     Easy:
     3:
     0.266,0.284,0.036,0.080,0.000:
0000
0000
0000
0000
,
0000
0000
0000
0000
,
0000
0000
0000
0000
,
0000
0000
0000
0000
,
0010
0000
0100
0000
,
0001
0000
0100
0000
,
0010
0000
1000
0000
,
0010
0000
0100
0000
,
0001
0000
0100
0000
,
0010
0000
1000
0000
,
0001
0000
0100
0000
,
0010
0000
1000
0000
,
0001
0001
0001
0001
,
0100
0100
0100
0100
,
0010
0010
0010
0010
,
1000
1000
1000
1000
,
0001
0100
0001
0100
,
0010
1000
0010
1000
,
0100
1000
0100
1000
,
0010
0100
0010
0100
,
0001
0001
0001
0001
,
1000
1000
1000
1000
,
0010
0010
0010
0010
,
0100
0010
0100
0010
,
1000
1000
1000
1000
,
0001
0001
0001
0001
,
1000
0010
0100
0001
,
1000
0010
0100
0001
,
2000
0000
0000
0000
,
0000
0000
0000
3000
,
0002
0000
0000
0000
,
0003
0000
0100
0000
,
0010
0000
1000
0001
,
1000
0010
0100
0001
,
2000
0000
0000
0000
,
3000
0000
0000
0000
,
0010
0000
0100
0000
,
0010
0000
0100
0000
,
0001
0000
1000
0000
,
0001
0000
1000
0000
,
0010
0100
0010
0000
,
1000
0001
1000
0000
,
0001
0100
0010
1000
,
0001
0100
0010
1000
,
0001
0100
0010
1000
,
0001
0100
0010
1000
,
0010
0010
0100
0100
,
0001
0001
1000
1000
,
0010
0100
0010
1000
,
0001
0100
0001
1000
,
0010
0100
0010
1000
,
0001
0001
1000
1000
,
0010
0100
0010
0100
,
0001
1000
0001
1000
,
0010
0100
0010
0100
,
0001
1000
0010
0100
,
1000
1000
1000
1000
,
0001
0001
0001
0001
,
0100
0010
0001
0100
,
0010
1000
0010
0100
,
2000
0000
0000
0000
,
0000
0000
0000
3000
,
0002
0000
0000
0000
,
0000
0000
0000
0003
,
2002
0000
0000
0000
,
0000
0000
0000
3003
,
0220
0000
0000
0000
,
0000
0000
0000
0330
,
0010
0000
0100
0000
,
0010
0000
0100
0000
,
0010
0100
0010
0100
,
0010
0100
0010
0100
,
0001
1000
0001
1000
,
0001
1000
0001
1000
,
0020
0000
0000
0000
,
0230
0000
0000
0000
0000
0000
0000
0300
,
0001
1000
0010
0100
,
0001
1000
0010
0100
,
1000
0010
0100
0010
,
1000
0010
0100
0001
,
0001
0010
0100
1000
,
0001
0001
0010
0100
,
0010
0100
0010
0100
,
0010
1000
1000
1000
,
0001
0000
0000
0000
,
1001
0000
0000
0000
,
1001
0000
0000
1001
0000
0000
0000
0000
;

//---------------dance-single - Copied from ----------------
#NOTES:
     dance-single:
     Copied from:
     Beginner:
     2:
     0.093,0.157,0.022,0.029,0.000: // measure 1
0000
0000
0000
0000
,  // measure 2
0000
0000
0000
0000
,  // measure 3
0000
0000
0000
0000
,  // measure 4
0000
0000
0000
0000
,  // measure 5
0010
0000
0000
0000
,  // measure 6
1000
0000
0000
0000
,  // measure 7
0010
0000
0000
0000
,  // measure 8
0100
0000
0000
0000
,  // measure 9
0010
0000
0000
0000
,  // measure 10
1000
0000
0000
0000
,  // measure 11
0010
0000
0000
0000
,  // measure 12
0100
0000
0000
0000
,  // measure 13
0001
0000
0000
0000
,  // measure 14
1000
0000
0000
0000
,  // measure 15
0100
0000
0000
0000
,  // measure 16
1000
0000
0000
0000
,  // measure 17
0010
0000
0000
0000
,  // measure 18
0100
0000
0000
0000
,  // measure 19
0001
0000
0000
0000
,  // measure 20
1000
0000
0000
0000
,  // measure 21
0100
0000
0000
0000
,  // measure 22
0100
0000
0000
0000
,  // measure 23
0200
0000
0000
0000
,  // measure 24
0000
0000
0000
0300
,  // measure 25
0010
0000
0000
0000
,  // measure 26
0010
0000
0000
0000
,  // measure 27
0020
0000
0000
0000
,  // measure 28
0000
0000
0000
0030
,  // measure 29
0001
0000
0000
0000
,  // measure 30
1000
0000
0000
0000
,  // measure 31
0001
0000
0000
0000
,  // measure 32
1000
0000
0000
0000
,  // measure 33
0001
0000
0000
1000
,  // measure 34
0000
0000
0001
0000
,  // measure 35
1000
0000
0001
0000
,  // measure 36
1000
0000
0000
0000
,  // measure 37
0010
0000
0000
0000
,  // measure 38
0010
0000
0000
0000
,  // measure 39
0100
0000
0000
0000
,  // measure 40
0100
0000
0000
0000
,  // measure 41
0001
0000
0000
0000
,  // measure 42
0001
0000
0000
0000
,  // measure 43
1000
0000
0000
0000
,  // measure 44
1000
0000
0000
0000
,  // measure 45
0010
0000
0000
0000
,  // measure 46
0100
0000
0000
0000
,  // measure 47
0010
0000
0000
0000
,  // measure 48
0100
0000
0000
0000
,  // measure 49
0001
0000
0000
0000
,  // measure 50
1000
0000
0000
0000
,  // measure 51
0010
0000
0000
0000
,  // measure 52
1000
0000
0000
0000
,  // measure 53
0001
0000
0000
0000
,  // measure 54
0100
0000
0000
0000
,  // measure 55
0001
0000
0000
0000
,  // measure 56
0100
0000
0000
0000
,  // measure 57
0010
0000
0000
0000
,  // measure 58
1000
0000
0000
0000
,  // measure 59
0010
0000
0000
0000
,  // measure 60
1000
0000
0000
0000
,  // measure 61
0010
0000
0000
0000
,  // measure 62
0100
0000
0000
0000
,  // measure 63
0010
0000
0000
0000
,  // measure 64
0100
0000
0000
0000
,  // measure 65
0001
0000
0000
0000
,  // measure 66
1000
0000
0000
0000
,  // measure 67
0001
0000
0000
0000
,  // measure 68
1000
0000
0000
0000
,  // measure 69
0110
0000
0000
0000
,  // measure 70
0001
0000
0000
0000
,  // measure 71
1000
0000
0000
0000
,  // measure 72
0001
0000
0000
0000
,  // measure 73
1000
0000
0000
0000
,  // measure 74
0001
0000
0000
0000
,  // measure 75
2000
0000
0000
0000
,  // measure 76
3002
0000
0000
0000
,  // measure 77
1003
0000
0000
0000
,  // measure 78
1000
0000
0000
0000
,  // measure 79
0010
0000
0000
0000
,  // measure 80
0010
0000
0000
0000
,  // measure 81
0100
0000
0000
0000
,  // measure 82
0100
0000
0000
0000
,  // measure 83
0010
0000
0000
0000
,  // measure 84
0010
0000
0000
0000
,  // measure 85
1001
0000
0000
0000
,  // measure 86
0000
0000
0000
0000
,  // measure 87
1001
0000
0000
0000
;
