#TITLE:evergreen;
#SUBTITLE:;
#ARTIST:kors k;
#TITLETRANSLIT:;
#SUBTITLETRANSLIT:;
#ARTISTTRANSLIT:;
#CREDIT:SupremeX;
#BANNER:evergreen-bn.png;
#BACKGROUND:evergreen-bg.png;
#LYRICSPATH:;
#CDTITLE:;
#MUSIC:evergreen.ogg;
#OFFSET:-0.416;
#SAMPLESTART:97.423;
#SAMPLELENGTH:14.456;
#SELECTABLE:YES;
#BPMS:0.000=133.000;
#STOPS:;
#BGCHANGES:0.000=evergreen.avi=1.000=0=0=1,
99999=-nosongbg-=1.000=0=0=0 // don't automatically add -songbackground-
;

//---------------dance-single - ----------------
#NOTES:
     dance-single:
     :
     Hard:
     8:
     0.445,0.505,0.244,0.178,0.170: // measure 1
0000
0000
0000
0000
,  // measure 2
0000
0000
0000
0000
,  // measure 3
0000
0001
0000
0000
0000
1000
0000
0000
,  // measure 4
0000
0001
0000
0000
0000
1000
0000
0220
,  // measure 5
0000
0000
0000
0000
0000
0000
0330
2002
,  // measure 6
0000
0000
0000
0000
0000
0000
0000
3003
,  // measure 7
0000
0200
0000
0000
0000
0000
0000
0000
,  // measure 8
0000
0320
0000
0000
0000
0000
0000
2030
,  // measure 9
0000
0000
0000
0000
0000
0000
0000
3001
,  // measure 10
0000
0001
0000
0100
0000
0100
0001
1000
,  // measure 11
0000
0001
0100
0001
0000
1000
0100
1000
,  // measure 12
0000
0001
0100
0010
0000
0010
1000
0001
,  // measure 13
0000
1000
0001
0100
0000
0010
1000
0001
,  // measure 14
0000
1000
0001
0010
0100
1000
0000
0110
,  // measure 15
0000
0001
0100
0010
1000
0010
0100
0000
,  // measure 16
0001
1000
0100
1000
0001
1000
0000
0110
,  // measure 17
0000
0001
1000
0010
0100
0001
0000
1000
,  // measure 18
0100
1000
0001
1000
0100
1000
0000
0001
,  // measure 19
0100
0001
1000
0001
0100
0001
1000
0000
,  // measure 20
0001
0100
0010
1000
0010
0100
0000
1001
,  // measure 21
0000
0010
0100
0010
1000
0001
0100
0001
,  // measure 22
1000
0010
0100
0000
0001
1000
0010
0110
,  // measure 23
0000
0001
0010
0100
1000
0010
0100
0001
,  // measure 24
1000
0001
0100
0010
0000
1001
0000
0110
,  // measure 25
0000
0001
1000
0100
1000
0001
0100
0001
,  // measure 26
0000
1000
0001
0100
0100
0010
0100
0020
,  // measure 27
0000
1000
0000
1000
0000
1000
0000
0230
,  // measure 28
0000
0001
0000
0001
0000
0001
0000
0320
,  // measure 29
0000
1000
0000
1000
0000
1000
0000
2030
,  // measure 30
0000
0000
0000
0000
0000
0000
0000
3002
,  // measure 31
0000
0000
0000
0000
0000
0000
0000
0203
,  // measure 32
0000
0000
0000
0000
0000
0000
0000
0320
,  // measure 33
0000
0000
0000
0000
0000
0000
0000
2030
,  // measure 34
0000
0000
0000
0000
0000
0000
0000
3002
,  // measure 35
0000
0000
0000
0000
0100
0103
0001
0010
,  // measure 36
0100
1000
0100
1000
0001
0100
0000
0001
,  // measure 37
0000
0110
0000
1000
0000
1100
0000
0010
,  // measure 38
0000
0011
0000
1000
0100
1000
0100
0010
,  // measure 39
0000
0001
0000
0000
0011
0000
0000
0000
0000
0000
0000
0000
0100
1000
0100
0000
,  // measure 40
0000
0000
0000
0000
0000
0000
0000
0000
0010
0001
0010
0000
0001
0000
1000
0000
,  // measure 41
0000
0001
0000
0000
1001
0000
0000
0000
0000
0000
0000
0000
0100
0010
0100
0000
,  // measure 42
0000
0000
0001
1000
0100
0010
0001
1000
,  // measure 43
0100
1000
0000
0100
1000
0000
0000
0000
0000
0000
0000
0000
0001
0100
0001
0000
,  // measure 44
0000
0000
0000
0000
0000
0000
0000
0000
1000
0100
1000
0000
0100
0000
0010
0000
,  // measure 45
0000
0001
0000
0000
0101
0000
0000
0000
0000
0010
1000
0010
0000
0000
0100
0000
,  // measure 46
0000
0101
0000
0000
1001
0000
0000
0000
0010
0000
0000
0000
1000
0000
0001
0000
,  // measure 47
0100
0001
0000
0100
0001
0000
0000
0000
0000
0000
0000
0000
1000
0001
1000
0000
,  // measure 48
0000
0000
0000
0000
0000
0000
0000
0000
0010
0100
0010
0000
0100
0000
0010
0000
,  // measure 49
0000
1001
0000
0000
1001
0000
0000
0000
0000
0000
0000
0000
0100
0010
0100
0000
,  // measure 50
0000
0000
0001
0010
0100
1000
0000
0001
,  // measure 51
0100
0001
0000
0100
0001
0000
0000
0000
0000
0000
0000
0000
1000
0010
1000
0000
,  // measure 52
0000
0000
0000
0000
0000
0000
0000
0000
0001
0010
0100
0000
1000
0000
1000
0000
,  // measure 53
0000
0100
0000
0000
1100
0000
0000
0000
0000
0000
0010
0001
0010
0000
0001
0000
,  // measure 54
0000
0011
0000
0000
0011
0000
0000
0000
0100
0000
0100
0000
0100
0000
1000
0000
,  // measure 55
0100
0000
0010
0000
0001
0000
1000
0000
0100
0000
1000
0000
0100
1000
0200
0000
,  // measure 56
0000
0310
0001
0010
0100
0010
0100
1000
,  // measure 57
0000
0100
0000
0000
2200
0000
0000
0000
3300
0000
0000
0000
1000
0100
1000
0000
,  // measure 58
0000
0000
0001
0010
0100
1000
0100
1000
,  // measure 59
0001
0100
0000
0001
0100
0000
0010
0000
0010
0000
1000
0000
0001
1000
0001
0000
,  // measure 60
0000
0000
0100
0000
0000
0000
0001
0000
1000
0100
1000
0000
0100
0000
0010
0000
,  // measure 61
0000
0101
0000
0000
0101
0000
0010
0000
1000
0000
0010
0100
0001
0000
0100
0000
,  // measure 62
0000
1010
0000
0000
1010
0000
0000
0000
0100
0000
0001
0000
1000
0000
0100
0000
,  // measure 63
0010
0000
0001
0000
1000
0000
0100
0000
1000
0000
0001
0000
0100
0010
0200
0000
,  // measure 64
0000
0301
0010
0100
1000
0001
1000
0010
,  // measure 65
0000
0101
0000
0000
2020
0000
0000
0000
3030
0000
0000
0000
0001
0100
0001
0000
,  // measure 66
0000
0000
1000
0100
0010
0100
1000
0100
,  // measure 67
0010
0100
0000
0010
0100
0000
0010
0000
0001
0000
0010
0000
0100
1000
0100
0000
,  // measure 68
0000
0000
0100
0000
0000
0000
0010
0000
0001
0010
0001
0000
0010
0000
0100
0000
,  // measure 69
0000
1100
0000
0000
1001
0000
1000
0000
0100
0000
0010
0001
0010
0000
0100
0000
,  // measure 70
0000
1010
0000
0000
0101
0000
0000
0000
0010
0000
1000
0000
0001
0000
2002
0000
,  // measure 71
0000
0000
0000
0000
,  // measure 72
0000
0000
0000
0000
0000
0000
0000
3003
;

//---------------dance-single - ----------------
#NOTES:
     dance-single:
     :
     Medium:
     5:
     0.267,0.337,0.148,0.111,0.037:
0000
0000
0000
0000
,
0000
0000
0000
0000
,
0000
2000
0000
0000
0000
0000
0000
0000
,
0000
3002
0000
0000
0000
0000
0000
0000
,
0000
0203
0000
0000
0000
0000
0000
0000
,
0000
0320
0000
0000
0000
0000
0000
0000
,
0000
2030
0000
0000
0000
0000
0000
0000
,
0000
3002
0000
0000
0000
0000
0000
0000
,
0000
1003
0000
0010
0000
1000
0000
0001
,
0000
0100
0000
0010
0000
1000
0000
0001
,
0000
1001
0000
1000
0000
0010
0000
0100
,
0000
0001
0000
1000
0000
0010
0000
0100
,
0000
0101
0000
0010
0000
1000
0000
0010
,
0000
0100
0000
0001
0000
1000
0000
0010
,
0000
1010
0000
0100
0000
0001
0000
1000
,
0000
0010
0000
0100
0000
0001
0000
1000
,
0000
0010
0000
0100
0000
0010
0000
0100
,
0000
0001
0000
1000
0000
0010
0000
0100
,
0000
0110
0000
0001
0000
0001
0000
1000
,
0000
1000
0000
0010
0000
0010
0000
0100
,
0000
1001
0000
0010
0000
0100
0000
0010
,
0000
1000
0000
0001
0000
1000
0000
0010
,
0000
0100
0000
0001
0000
1000
0000
0010
,
0000
0100
0000
0001
0000
1000
0000
0010
,
0000
2002
0000
0000
0000
0000
0000
0000
,
0000
3003
0000
0000
0000
0000
0000
0000
,
0000
0220
0000
0000
0000
0000
0000
0000
,
0000
0330
0000
0000
0000
0000
0000
0000
,
0000
1000
0000
0000
0000
0000
0000
0000
,
0000
0001
0000
0000
0000
0000
0000
0000
,
0000
1000
0000
0000
0000
0000
0000
0000
,
0000
0010
0000
0000
0000
0000
0000
0000
,
0000
0100
0000
0001
0000
1000
0000
0010
,
0000
0100
0000
0001
0000
1000
0000
0010
,
0000
0010
0000
0010
0000
0010
0000
0010
,
0000
0010
0000
0010
0000
0010
0000
1000
,
0000
0000
0010
0000
0000
0010
0000
0000
0010
0000
0000
0000
0000
0000
0000
0000
,
0000
0100
0000
0000
0000
0000
0000
0001
,
0000
0000
1000
0000
0000
1000
0000
0000
1000
0000
0000
0000
0000
0000
0000
0000
,
0000
0110
0000
0000
0000
0001
0000
1000
,
0000
0000
0001
0000
0000
0001
0000
0000
0001
0000
0000
0000
0000
0000
0000
0000
,
0000
0110
0000
0000
0000
0000
0000
1000
,
0000
0000
0001
0000
0000
0100
0000
0000
0010
0000
0000
0000
0000
0000
0000
0000
,
0000
0000
1000
0000
0000
0001
0000
0000
0100
0000
0000
0000
0101
0000
0000
0000
,
0000
0000
0010
0000
0000
1000
0000
0000
1000
0000
0000
0000
0000
0000
0000
0000
,
0001
0001
0000
0000
0000
0000
0000
1000
,
0000
0000
0010
0000
0000
0010
0000
0000
0100
0000
0000
0000
0000
0000
0000
0000
,
0001
1000
0000
0000
0010
0100
0000
0110
,
0000
0000
0001
0000
0000
0001
0000
0000
0001
0000
0000
0000
0000
0000
0000
0000
,
0000
2000
0000
0000
3000
0000
0000
0010
,
0000
0000
0100
0000
0000
0100
0000
0000
0100
0000
0000
0000
0000
0000
0001
0000
,
0000
0000
1000
0000
0000
0010
0000
0000
0100
0000
0000
0000
0110
0000
0000
0000
,
0000
0001
0000
1000
0000
0010
0100
0010
,
0000
1000
0000
0001
0000
0100
0010
1000
,
0000
0001
0000
1010
0000
0001
0000
0101
,
0000
0010
0000
1000
0000
0010
0100
0010
,
0000
1000
0000
0001
0000
0100
0010
1000
,
0001
0100
0000
0010
0000
1000
0000
0010
,
0000
0101
0000
1000
0000
0010
0000
0100
,
0000
1010
0000
0101
0000
1010
0000
0101
,
0000
1000
0000
0010
0000
0100
0010
0100
,
0000
0001
0000
1000
0000
0010
1000
0001
,
0000
0100
0000
0010
0000
1000
0000
0010
,
0100
0001
0000
1000
0000
0010
0000
0100
,
0000
0002
0000
1000
0000
1000
0000
1000
,
0003
0200
0000
0010
0000
0010
0000
0310
,
0000
0001
0000
1000
0000
0010
0100
0010
,
0000
1000
0000
0001
0000
0100
0010
1000
,
0001
2002
0000
0000
0000
0000
0000
0000
,
0000
0000
0000
0000
,
0000
3003
0000
0000
0000
0000
0000
0000
;

//---------------dance-single - ----------------
#NOTES:
     dance-single:
     :
     Easy:
     3:
     0.194,0.213,0.022,0.037,0.000:
0000
0000
0000
0000
,
0000
0000
0000
0000
,
0000
0000
0000
0000
,
0000
0000
0000
0000
0000
0000
0000
1000
,
0000
0000
0000
0000
0000
0000
0000
1000
,
0000
0000
0000
0000
0000
0000
0000
0001
,
0000
0000
0000
0000
0000
0000
0000
0001
,
0000
0000
0000
0000
0000
0000
0000
0100
,
0000
0000
0000
0000
0000
0000
0000
0100
,
0000
0000
0000
0000
0000
0000
0000
0010
,
0000
1000
0000
0010
0000
0100
0000
0001
,
0000
1000
0000
0010
0000
0100
0000
0010
,
0000
0000
0000
1000
0000
0000
0000
1000
,
0000
0000
0000
1000
0000
0001
0000
0100
,
0000
0100
0000
0010
0000
1000
0000
0010
,
0000
0100
0000
0001
0000
0001
0000
0001
,
0000
0000
0000
1000
0000
0000
0000
0010
,
0000
0000
0000
1000
0000
0001
0000
0100
,
0000
0010
0000
1000
0000
1000
0000
0001
,
0000
0100
0000
0010
0000
0010
0000
0010
,
0000
0000
0000
1000
0000
0000
0000
0001
,
0000
0000
0000
0100
0000
0100
0000
0100
,
0000
0010
0000
1000
0000
0010
0000
0100
,
0000
0001
0000
0100
0000
0010
0000
2000
,
0000
0000
0000
0000
0000
3000
0000
0001
,
0000
0000
0000
0000
0000
0000
0000
0100
,
0000
0000
0000
0000
0000
0000
0000
0010
,
0000
0000
0000
0000
0000
0000
0000
1000
,
0000
0000
0000
0000
0000
0000
0000
0001
,
0000
0000
0000
0000
0000
0000
0000
1000
,
0000
0000
0000
0000
0000
0000
0000
0010
,
0000
0000
0000
0000
0000
0000
0000
0100
,
0000
0000
0000
0000
0000
0000
0000
0001
,
0000
0000
0000
0000
0000
0000
0000
1000
,
0000
0000
0000
0000
0000
0000
0000
0010
,
0000
0100
0000
0010
0000
0000
0000
1000
,
0000
1000
0000
1000
0000
0001
0000
0001
,
0000
0001
0000
0001
0000
0100
0000
0010
,
0000
0000
0000
0000
0000
0000
0000
1000
,
0000
0000
0000
0000
0000
0001
0000
0100
,
0000
0010
0000
0100
0000
0000
0000
0001
,
0000
0000
0000
1000
0000
0010
0000
1000
,
0000
1000
0000
1000
0000
0000
0000
0001
,
0000
0000
0000
0000
0000
0100
0000
0010
,
0000
0100
0000
0100
0000
0000
0000
0001
,
0000
1000
0000
0010
0000
0010
0000
0100
,
0000
0001
0000
1000
0000
0010
0000
0100
,
0000
0000
0000
0000
0000
0001
0000
1000
,
0000
1000
0000
1000
0000
0000
0000
0010
,
0000
0000
0000
0100
0000
0001
0000
0100
,
0000
0100
0000
0100
0000
0000
0000
0010
,
0000
0000
0000
0000
0000
1000
0000
0001
,
0000
1000
0000
1000
0000
0010
0000
0100
,
0000
0001
0000
0001
0000
0001
0000
1000
,
0000
0010
0000
1000
0000
0010
0000
0100
,
0000
0001
0000
0100
0000
0001
0000
1000
,
0000
1000
0000
1000
0000
1000
0000
0010
,
0000
0010
0000
0010
0000
0010
0000
0100
,
0000
0001
0000
0100
0000
0001
0000
1000
,
0000
0010
0000
1000
0000
0010
0000
0100
,
0000
0100
0000
0100
0000
0001
0000
1000
,
0000
0001
0000
1000
0000
0001
0000
0100
,
0000
0100
0000
0010
0000
0010
0000
1000
,
0000
1000
0000
0001
0000
0001
0000
1000
,
0000
0010
0000
0100
0000
0001
0000
1000
,
0000
0010
0000
0100
0000
0001
0000
2000
,
0000
0000
0000
0000
0000
3000
0000
0002
,
0000
0000
0000
0000
0000
0003
0000
1000
,
0000
0000
0000
1001
0000
0000
0000
0001
,
0000
0000
0000
1001
0000
0000
0000
0220
,
0000
0000
0000
0000
,
0000
0000
0000
0000
0000
0000
0000
0330
;

//---------------dance-single - ----------------
#NOTES:
     dance-single:
     :
     Beginner:
     1:
     0.054,0.053,0.000,0.007,0.000:
0000
0000
0000
0000
,
0000
0000
0000
0000
,
0000
0000
0000
0000
,
0000
0000
0000
0000
0000
0000
0000
1000
,
0000
0000
0000
0000
,
0000
0000
0000
0000
0000
0000
0000
0001
,
0000
0000
0000
0000
,
0000
0000
0000
0000
0000
0000
0000
1000
,
0000
0000
0000
0000
,
0000
0000
0000
0000
0000
0000
0000
0001
,
0000
0000
0000
0000
,
0000
0000
0000
0000
0000
0000
0000
0100
,
0000
0000
0000
0000
,
0000
0000
0000
0000
0000
0000
0000
0010
,
0000
0000
0000
0000
,
0000
0000
0000
0000
0000
0000
0000
0100
,
0000
0000
0000
0000
,
0000
0000
0000
0000
0000
0000
0000
0010
,
0000
0000
0000
0000
,
0000
0000
0000
0000
0000
0000
0000
1000
,
0000
0000
0000
0000
,
0000
0000
0000
0000
0000
0000
0000
0001
,
0000
0000
0000
0000
,
0000
0000
0000
0000
0000
0000
0000
1000
,
0000
0000
0000
0000
,
0000
0000
0000
0000
0000
0000
0000
0010
,
0000
0000
0000
0000
,
0000
0000
0000
0000
0000
0000
0000
1000
,
0000
0000
0000
0000
,
0000
0000
0000
0000
0000
0000
0000
0010
,
0000
0000
0000
0000
,
0000
0000
0000
0000
0000
0000
0000
0100
,
0000
0000
0000
0000
,
0000
0000
0000
0000
0000
0000
0000
0001
,
0000
0000
0000
0000
,
0000
0000
0000
0000
0000
0000
0000
0100
,
0000
0000
0000
0000
,
0000
0000
0000
0000
0000
0000
0000
0010
,
0000
0000
0000
0000
0000
0000
0000
0010
,
0000
0000
0000
0000
0000
0000
0000
1000
,
0000
0000
0000
0000
0000
0000
0000
1000
,
0000
0000
0000
0000
0000
0000
0000
0001
,
0000
0000
0000
0000
0000
0000
0000
0001
,
0000
0000
0000
0000
0000
0000
0000
0100
,
0000
0000
0000
0000
0000
0000
0000
0100
,
0000
0000
0000
0000
0000
0000
0000
0010
,
0000
0000
0000
0000
0000
0000
0000
0010
,
0000
0000
0000
0000
0000
0000
0000
1000
,
0000
0000
0000
0000
0000
0000
0000
1000
,
0000
0000
0000
0000
0000
0000
0000
0010
,
0000
0000
0000
0000
0000
0000
0000
0010
,
0000
0000
0000
0000
0000
0000
0000
0100
,
0000
0000
0000
0000
0000
0000
0000
0100
,
0000
0000
0000
0000
0000
0000
0000
0001
,
0000
0000
0000
0000
0000
0000
0000
0001
,
0000
0000
0000
0000
0000
0000
0000
1000
,
0000
0000
0000
0000
0000
0000
0000
1000
,
0000
0000
0000
0000
0000
0000
0000
0010
,
0000
0000
0000
0000
0000
0000
0000
0010
,
0000
0000
0000
0000
0000
0000
0000
0100
,
0000
0000
0000
0000
0000
0000
0000
0100
,
0000
0000
0000
0000
0000
0000
0000
0001
,
0000
0000
0000
0000
0000
0000
0000
0001
,
0000
0000
0000
0000
0000
0000
0000
1000
,
0000
0000
0000
0000
0000
0000
0000
1000
,
0000
0000
0000
0000
0000
0000
0000
0010
,
0000
0000
0000
0000
0000
0000
0000
0010
,
0000
0000
0000
0000
0000
0000
0000
0100
,
0000
0000
0000
0000
0000
0000
0000
0100
,
0000
0000
0000
0000
0000
0000
0000
0200
,
0000
0000
0000
0000
,
0000
0000
0000
0000
0000
0000
0000
0300
;
