#TITLE:aleatrik;
#SUBTITLE:;
#ARTIST:nc ft. NRGFactory;
#TITLETRANSLIT:;
#SUBTITLETRANSLIT:;
#ARTISTTRANSLIT:;
#CREDIT:SupremeX;
#BANNER:aleatrik-bn.png;
#BACKGROUND:aleatrik-bg.png;
#LYRICSPATH:;
#CDTITLE:;
#MUSIC:aleatrik.ogg;
#OFFSET:-3.583;
#SAMPLESTART:73.080;
#SAMPLELENGTH:12.000;
#SELECTABLE:YES;
#BPMS:0.000=138.030;
#STOPS:;
#BGCHANGES:16.000=line_b.avi=1.000=0=0=1,
32.000=rain1.avi=1.000=0=0=1,
48.000=robot10.avi=1.000=0=0=1,
64.000=bricks1.avi=1.000=0=0=1,
96.000=6 JumpBack.avi=1.000=0=0=1,
128.000=vortex1.avi=1.000=0=0=1,
160.000=glidlight.avi=1.000=0=0=1,
192.000=line_b.avi=1.000=0=0=1,
224.000=rain1.avi=1.000=0=0=1,
256.000=aleatrik-bg.png=1.000=0=0=1,
99999=-nosongbg-=1.000=0=0=0 // don't automatically add -songbackground-
;

//---------------dance-single - ----------------
#NOTES:
     dance-single:
     :
     Hard:
     9:
     0.553,0.524,0.095,0.198,0.230: // measure 1
0000
0000
0000
0000
,  // measure 2
0000
0000
0000
0000
,  // measure 3
0000
0000
0000
0000
,  // measure 4
0000
0000
0000
0000
,  // measure 5
1000
0000
0000
0000
0100
0000
0000
1100
0000
0000
1000
0000
0100
0000
0010
0000
,  // measure 6
0100
0000
0000
0000
0001
0000
0000
1001
0000
0000
0010
0000
0100
0000
0010
0000
,  // measure 7
1000
0000
0000
0000
0001
0000
0000
1100
0000
0000
0010
0000
0001
0000
1000
0000
,  // measure 8
0010
0000
0000
0000
1000
0000
0000
1010
0000
0000
0100
0000
0001
0000
1000
0000
,  // measure 9
0010
0000
0000
0000
0100
0000
0000
0101
0000
0000
0010
0000
0100
0000
1000
0000
,  // measure 10
0010
0000
0000
0000
0100
0000
0000
0110
0000
0000
0001
0000
1000
0000
0010
0000
,  // measure 11
0100
0000
0000
0000
0001
0000
0000
1001
0000
0000
1000
0000
0100
0000
1000
0000
,  // measure 12
0001
0000
0000
0000
1000
0000
0000
1100
0000
0000
0010
0000
0001
0000
0010
0000
,  // measure 13
0100
0000
0000
0000
1000
0000
0000
1010
0000
0000
0100
0000
0001
0000
1000
0000
,  // measure 14
0010
0000
0000
0000
1000
0000
0000
0101
0000
0000
0010
0000
1000
0000
0001
0000
,  // measure 15
1000
0000
0000
0000
0010
0000
0000
0110
0000
0000
0001
0000
0100
0000
0001
0000
,  // measure 16
1000
0010
0100
0010
1000
0001
0100
0001
,  // measure 17
2001
0000
0000
0000
0100
0000
0000
0100
0000
0000
3010
0000
0100
0000
0001
0000
,  // measure 18
0200
0000
0000
0000
0010
0000
0000
0010
0000
0000
0310
0000
0100
0000
0001
0000
,  // measure 19
0020
0000
0000
0000
0001
0000
0000
0001
0000
0000
0031
0000
1000
0000
0010
0000
,  // measure 20
0200
0000
0000
0000
0010
0000
0000
0010
0000
0000
0310
0000
1000
0000
0001
0000
,  // measure 21
2000
0000
0000
0000
0100
0000
0000
0100
0000
0000
3100
0000
1000
0000
0100
0000
,  // measure 22
0020
0000
0000
0000
0001
0000
0000
0001
0000
0000
0031
0000
1000
0000
0010
0000
,  // measure 23
0200
0000
0000
0000
0001
0000
0000
0001
0000
0000
0301
0000
0010
0000
0100
0000
,  // measure 24
2000
0000
0000
0000
0010
0000
0000
0010
0000
0000
3010
0000
1000
0000
0001
0000
,  // measure 25
0002
0000
0000
0000
0000
0000
0000
0000
0000
0000
0000
0000
0003
0000
1000
0100
,  // measure 26
1000
0000
0000
0000
0010
0000
0100
0000
0010
0000
0100
0000
0001
0000
0100
0001
,  // measure 27
0100
0000
0000
0000
0001
0000
1000
0000
0100
0000
1000
0000
0001
0000
1000
0100
,  // measure 28
1000
0000
0000
0000
0001
0000
0100
0000
0010
0000
0100
0000
0001
0000
1000
0001
,  // measure 29
1000
0000
0000
0000
0010
0000
0100
0000
0010
0000
1000
0000
0001
0000
0100
0010
,  // measure 30
0100
0000
0000
0000
0001
0000
1000
0000
0100
0000
1000
0000
0001
0000
0100
0001
,  // measure 31
0100
0000
0000
0000
0010
0000
1000
0000
0010
0000
1000
0000
0001
0000
0100
0001
,  // measure 32
1000
0000
0000
0000
0010
0000
0100
0000
0001
0000
1000
0000
0001
0100
0010
1000
,  // measure 33
0100
0000
0010
0000
0001
0000
1000
0000
0100
0000
0010
0000
0001
0000
0100
0001
,  // measure 34
0100
0000
0000
0000
0001
0000
0010
0000
0100
0000
1000
0000
0001
0000
1000
0100
,  // measure 35
1000
0000
0000
0000
0010
0000
0100
0000
0010
0000
1000
0000
0001
0000
0100
0010
,  // measure 36
1000
0000
0000
0000
0001
0000
0100
0000
0010
0000
1000
0000
0001
0000
0100
0010
,  // measure 37
0100
0000
0010
0000
1000
0000
0100
0000
1000
0000
0001
0000
0100
0000
0010
1000
,  // measure 38
0001
0000
0100
0000
0001
0000
0010
0000
0100
0000
1000
0000
0010
0000
0100
0010
,  // measure 39
0100
0010
1000
0100
1000
0010
0100
0001
,  // measure 40
1000
0000
0010
0000
0100
0000
0010
0000
1000
0010
0100
0001
0200
0000
0300
0000
,  // measure 41
0010
0000
1000
0000
0001
0000
0010
0000
0100
0000
1000
0000
0001
0000
0010
0001
,  // measure 42
0020
0000
0000
0000
0031
0000
0010
0000
0100
0000
1000
0000
0100
0000
1000
0100
,  // measure 43
2000
0000
0000
0000
3010
0000
1000
0000
0010
0000
0100
0000
0001
0000
1000
0001
,  // measure 44
0200
0000
0000
0000
0301
0000
0010
0000
0100
0000
1000
0000
0100
0000
0010
0001
,  // measure 45
0200
0000
0000
0000
0310
0000
0100
0000
0010
0000
1000
0000
0001
0000
1000
0100
,  // measure 46
2000
0000
0000
0000
3010
0000
1000
0000
0001
0000
0010
0000
0100
0000
1000
0100
,  // measure 47
0020
0000
0000
0000
0031
0000
0010
0000
0100
0000
1000
0000
0100
0000
0010
0100
,  // measure 48
0002
0000
0000
0000
1003
0000
0100
0000
1000
0000
0100
0000
0010
0001
0010
0001
,  // measure 49
1000
0000
0001
0000
1000
0000
0010
0000
0100
0000
0001
0000
1000
0000
0001
1000
,  // measure 50
0200
0000
0000
0000
0310
0000
0001
0000
0010
0000
0100
0000
0010
0000
1000
0100
,  // measure 51
2000
0000
0000
0000
3100
0000
1000
0000
0100
0000
0010
0000
0001
0000
0010
0001
,  // measure 52
0020
0000
0000
0000
0031
0000
0010
0000
0100
0000
1000
0000
0010
0000
1000
0010
,  // measure 53
0200
0000
0000
0000
0301
0000
0010
0000
0100
0000
1000
0000
0100
0000
0010
0100
,  // measure 54
0002
0000
0000
0000
1003
0000
0100
0000
1000
0000
0100
0000
0010
0000
0001
1000
,  // measure 55
0020
0000
0000
0000
0130
0000
0001
0000
1000
0000
0100
0000
0010
0000
0001
1000
,  // measure 56
0200
0000
0000
0000
1300
0000
0010
0000
1000
0000
0100
0000
0010
0001
0100
0001
,  // measure 57
0010
0100
1000
0010
1000
0001
0100
0001
,  // measure 58
1000
0001
0100
0001
1000
0100
1000
0100
,  // measure 59
0010
0001
0010
0001
1000
0100
1000
0001
,  // measure 60
1000
0100
1000
0001
0100
0010
0100
0010
,  // measure 61
1000
0001
1000
0010
0100
0001
0100
0010
,  // measure 62
1000
0000
0001
0000
0100
0000
0010
0000
1000
0000
0010
0000
0100
0000
0001
1000
,  // measure 63
0001
0000
1000
0000
0100
0000
0010
0000
0001
0000
0100
0000
0010
0000
1000
0010
,  // measure 64
1000
0000
0010
0000
0100
0000
0001
0000
0010
0000
0100
0000
1000
0001
1000
0001
,  // measure 65
2000
0000
0000
0000
,  // measure 66
0000
0000
0000
0000
,  // measure 67
3000
0000
0000
0000
;

//---------------dance-single - ----------------
#NOTES:
     dance-single:
     :
     Medium:
     7:
     0.332,0.445,0.063,0.079,0.000:
0000
0000
0000
0000
,
0000
0000
0000
0000
,
0000
0000
0000
0000
,
0000
0000
0000
0000
,
1000
0000
0001
0000
1000
0010
0100
0000
,
0001
0000
1000
0000
0010
0100
0001
0000
,
1000
0000
0001
0000
1000
0100
0010
0000
,
0001
0000
0001
0000
1000
0010
0100
0000
,
0100
0000
0001
0000
1000
0100
0010
0000
,
0010
0000
0001
0000
1000
0010
0100
0000
,
0001
0000
1001
0000
1000
0010
0100
0000
,
0001
0000
0110
0000
1000
0100
0010
0000
,
0101
0000
1010
0000
0001
0010
0100
0000
,
1100
0000
0011
0000
0100
1000
0100
0000
,
0010
0000
1001
0000
0100
0010
1000
0000
,
0001
0100
0001
1000
0010
1000
0001
0000
,
0100
0010
1000
0100
,
0010
0001
1000
0100
,
1000
0001
0010
0100
,
1000
0010
0100
0010
,
1000
0001
0100
0010
,
0100
0001
1000
0010
,
1000
0001
0010
0100
,
1000
0000
0001
0000
0100
0010
0100
0000
,
0020
0000
0000
0000
,
2030
0000
0000
0000
,
3200
0000
0000
0000
,
0320
0000
0000
0000
,
0032
0000
0000
0000
,
0023
0000
0000
0000
,
0230
0000
0000
0000
,
2300
0000
0000
0000
0000
0000
0000
3000
,
0001
0000
0001
0000
0100
0000
0010
1000
,
0010
0000
0100
0000
0001
0000
1000
0010
,
1000
0000
0001
0000
0100
0000
0010
0100
,
0010
0000
0100
0000
0001
0000
1000
0001
,
1000
0000
0001
0000
0100
0000
0010
1000
,
0010
0000
0100
0000
0010
0000
1000
0001
,
1000
0010
0100
0100
,
0001
1000
0010
0100
0001
1000
0001
0000
,
0100
0000
0010
0000
1000
0000
0010
0100
,
0010
0000
1000
0000
0001
0000
1000
0100
,
1000
0000
0100
0000
0010
0000
0001
0100
,
0010
0000
0010
0000
1000
0000
0001
0010
,
0100
0000
1000
0000
0010
0000
0100
0001
,
1000
0000
0010
0000
1000
0000
0010
0100
,
0001
0000
1000
0000
0100
0000
1000
0010
,
0100
0000
0100
0000
0001
0000
1000
0010
,
0100
0000
0100
0000
0001
0000
1000
0001
,
0010
0000
0010
0000
0100
0000
1000
0010
,
0100
0000
0001
0000
1000
0000
0010
0100
,
0010
0000
1000
0000
0001
0000
0100
0010
,
1000
0000
0001
0000
1000
0000
0010
0100
,
0010
0000
0100
0000
0001
0000
1000
0001
,
1000
0000
0010
0000
0100
0000
0010
0100
,
0001
0000
1000
0000
0001
0000
0100
0010
,
0100
0000
0001
0000
1000
0100
0010
0000
,
0001
0010
0100
0000
1000
0100
1000
0000
,
0001
1000
0001
0000
0100
0010
0100
0000
,
0001
0010
0100
0000
1000
0010
0100
0000
,
0100
0001
1000
0000
0010
0100
0010
0000
,
1000
0001
0010
0000
0100
0010
0100
0000
,
1000
0100
0010
0001
1000
0100
1000
0000
,
0010
0100
0001
1000
0001
0100
0010
1000
,
2002
0000
0000
0000
,
0000
0000
0000
0000
,
3003
0000
0000
0000
;

//---------------dance-single - ----------------
#NOTES:
     dance-single:
     :
     Easy:
     3:
     0.260,0.314,0.095,0.143,0.000:
0000
0000
0000
0000
,
0000
0000
0000
0000
,
0000
0000
0000
0000
,
0000
0000
0000
0000
,
0010
1000
0010
0100
,
0001
0100
0010
1000
,
0010
0100
0001
0100
,
0010
1000
0001
1000
,
1001
0010
0100
0010
,
1000
0001
0100
0001
,
1000
0010
0100
0001
,
1000
1000
0010
0010
,
0100
0001
0100
0001
,
1000
0010
1000
0010
,
0100
0100
0001
0001
,
1000
0001
1000
0001
,
0220
0000
0000
0330
,
2000
0000
0000
3000
,
0002
0000
0000
0000
0000
0000
0000
0003
,
2000
0000
0000
0000
0000
0000
0000
3000
,
0010
0100
0010
0100
,
0001
1000
0001
1000
,
0010
0100
0001
1000
,
0100
0010
0001
1000
,
0020
0000
0000
0000
0000
0000
0000
0030
,
0200
0000
0000
0000
0000
0000
0000
0300
,
0002
0000
0000
0000
0000
0000
0000
0003
,
2000
0000
0000
0000
0000
0000
0000
3000
,
0020
0000
0000
0000
0000
0000
0000
0030
,
0200
0000
0000
0000
0000
0000
0000
0300
,
0002
0000
0000
0000
0000
0000
0000
0003
,
2000
0000
0000
0000
0000
0000
0000
3000
,
0010
0010
0010
0010
,
0100
0100
0100
0100
,
0001
0001
0001
0001
,
1000
1000
1000
1000
,
0010
0100
0010
0100
,
0001
1000
0001
1000
,
0020
0000
0000
0030
,
0220
0000
0000
0330
,
1000
1000
1000
1000
,
0001
0001
0001
0001
,
0100
0100
0100
0100
,
0010
0010
0010
0010
,
1000
0001
1000
0001
,
0100
0010
0100
0010
,
0100
0100
0100
0100
,
0010
0010
0010
0010
,
1000
0001
1000
0001
,
1000
0010
0100
0010
,
0100
0001
1000
0010
,
0100
0001
1000
0100
,
0010
0001
0100
0010
,
1000
0001
0100
0010
,
1000
1000
1000
1000
,
0001
0001
0001
0001
,
0110
1000
1000
1000
,
0110
0001
0001
0001
,
0110
1000
1000
1000
,
0110
0001
0001
0001
,
0101
0010
0010
0010
,
1010
0100
0100
0100
,
0101
0010
0010
0010
,
1010
0100
0100
0100
,
2002
0000
0000
0000
,
0000
0000
0000
0000
,
3003
0000
0000
0000
;

//---------------dance-single - Copied from----------------
#NOTES:
     dance-single:
     Copied from:
     Beginner:
     1:
     0.069,0.076,0.000,0.000,0.000:
0000
0000
0000
0000
,
0000
0000
0000
0000
,
0000
0000
0000
0000
,
0000
0000
0000
0000
,
0001
0000
0000
0000
,
0001
0000
0000
0000
,
0001
0000
0000
0000
,
0001
0000
0000
0000
,
1000
0000
0000
0000
,
1000
0000
0000
0000
,
1000
0000
0000
0000
,
1000
0000
0000
0000
,
1000
0000
0000
0000
,
1000
0000
0000
0000
,
1000
0000
0000
0000
,
1000
0000
0000
0000
,
0010
0000
0000
0000
,
0010
0000
0000
0000
,
0010
0000
0000
0000
,
0010
0000
0000
0000
,
0010
0000
0000
0000
,
0010
0000
0000
0000
,
0010
0000
0000
0000
,
0010
0000
0000
0000
,
0100
0000
0000
0000
,
0100
0000
0000
0000
,
0100
0000
0000
0000
,
0100
0000
0000
0000
,
0100
0000
0000
0000
,
0100
0000
0000
0000
,
0100
0000
0000
0000
,
0100
0000
0000
0000
,
0001
0000
0000
0000
,
1000
0000
0000
0000
,
0001
0000
0000
0000
,
1000
0000
0000
0000
,
0001
0000
0000
0000
,
1000
0000
0000
0000
,
0010
0000
0000
0000
,
1000
0000
0000
0000
,
0001
0000
0000
0000
,
0100
0000
0000
0000
,
0001
0000
0000
0000
,
0100
0000
0000
0000
,
0010
0000
0000
0000
,
1000
0000
0000
0000
,
0010
0000
0000
0000
,
1000
0000
0000
0000
,
0001
0000
0000
0000
,
0100
0000
0000
0000
,
0001
0000
0000
0000
,
0100
0000
0000
0000
,
0010
0000
0000
0000
,
1000
0000
0000
0000
,
0010
0000
0000
0000
,
1000
0000
0000
0000
,
0001
0000
0000
0000
,
0001
0000
0000
0000
,
0100
0000
0000
0000
,
0100
0000
0000
0000
,
0010
0000
0000
0000
,
0010
0000
0000
0000
,
1000
0000
0000
0000
,
1000
0000
0000
0000
,
1000
0000
0000
0000
;
