#TITLE:Z;
#SUBTITLE:;
#ARTIST:DM Ashura;
#TITLETRANSLIT:;
#SUBTITLETRANSLIT:;
#ARTISTTRANSLIT:;
#CREDIT:SupremeX;
#BANNER:Z-bn.png;
#BACKGROUND:Z-bg.png;
#LYRICSPATH:;
#CDTITLE:;
#MUSIC:Z.ogg;
#OFFSET:-0.059;
#SAMPLESTART:6.430;
#SAMPLELENGTH:12.000;
#SELECTABLE:YES;
#BPMS:0.000=300.000,160.500=297.980,161.000=270.360,161.500=237.140,162.000=211.920,162.500=191.500,163.000=179.080,163.500=163.040,164.000=150.000,164.500=137.580,165.000=123.560,165.500=115.140,166.000=104.340,166.500=94.300,167.000=150.000,200.000=299.999;
#STOPS:167.000=0.200
;
#BGCHANGES:0.000=Z.avi=1.000=1=1=0,
99999=-nosongbg-=1.000=0=0=0 // don't automatically add -songbackground-
;

//---------------dance-single - ----------------
#NOTES:
     dance-single:
     :
     Challenge:
     11:
     1.000,1.000,0.522,0.278,0.094:
0000
0000
0000
0000
,
0000
0000
0000
0000
,
0000
0000
0000
0000
,
0000
0000
0000
0000
,
0000
0000
0000
0000
,
0000
0000
0000
0000
,
0000
0000
0000
0000
,
0000
0000
0000
0000
,
1000
0010
0000
0010
1000
0000
0001
0100
,
0000
0100
0001
0000
1010
0000
0101
0000
,
1000
0100
0000
0100
1000
0000
1000
0100
,
0000
0100
0010
0000
0011
0000
0110
0000
,
1000
0100
0000
0100
0010
0000
0010
0001
,
0000
0001
1000
0000
0110
0000
0110
0000
,
0001
0100
0000
0100
0001
0000
0001
1000
,
0000
1000
0010
0000
1010
0000
0101
0000
,
1000
0100
0000
0100
0010
0000
0010
0001
,
0000
0001
1000
0000
1100
0000
0110
0000
,
0001
0010
0000
0010
0100
0000
0100
1000
,
0000
1000
0100
0000
0110
0000
0011
0000
,
0100
1000
0000
1000
0100
0000
0100
0010
,
0000
0010
0100
0000
0101
0000
1001
0000
,
1000
0100
1000
0001
1000
0100
1000
0001
,
0010
0100
1000
0010
0100
0001
1000
0001
,
0010
0100
1000
0100
1000
0001
0100
0000
,
0010
1000
0001
0100
0001
0000
0110
0000
,
1000
0100
0010
0001
0010
0100
1000
0100
,
0010
0001
0010
0000
0200
0000
0301
0000
,
0010
0100
1000
0100
1000
0100
0010
0001
,
0010
0001
1000
0100
1000
0000
1100
0000
,
0010
0001
0010
0100
1000
0100
0010
0001
,
1000
0100
0010
0001
0200
0000
0301
0010
,
1000
0100
0010
0001
0010
0100
1000
0001
,
0100
0010
1000
0000
0011
0000
0110
0000
,
1000
0010
1000
0010
1000
0001
0100
0001
,
0100
0001
0010
0100
2000
0000
3100
1000
,
0100
0010
0001
1000
0010
0100
0001
0010
,
0100
1000
0100
0000
0110
0000
0011
0000
,
0100
1000
0001
0100
0010
1000
0001
0010
,
0100
1000
0100
0010
0002
0000
1003
0010
,
2002
0000
0000
0000
,
0000
0000
0000
3003
,
0210
0000
0000
0000
0000
0000
0000
0000
0310
0000
0000
0110
0000
0000
0001
0000
,
0001
0000
0000
1001
0000
0000
0100
0000
0100
0000
0000
0110
0000
0000
0001
0000
,
0001
0000
0000
0000
0000
0000
1000
0100
0020
0000
0000
0000
0031
0000
0011
0000
,
0000
0000
0001
0010
0100
1000
0100
0000
2000
0000
0000
0000
0100
0000
0000
0000
,
3200
0000
0000
0320
0000
0000
0031
0001
,
1000
0000
0000
1001
0000
0000
0120
0000
0000
0000
0000
0000
0230
0000
0000
0000
,
0302
0000
0000
0000
0003
0000
0010
0001
0010
0000
0000
0110
0000
0000
1000
0000
,
1001
0100
0010
0100
1000
0100
0010
0001
1000
0100
0010
0001
0100
0010
1000
0001
,
0210
0010
0010
0310
,
0100
1000
0100
0010
0001
0010
0100
1000
,
0001
0100
0001
1000
0010
1000
0001
0010
,
0100
1000
0010
1000
0100
0010
0100
0010
,
0001
0010
0001
0010
0100
1000
0001
1000
,
0100
1000
0100
0010
0001
0010
0001
0010
,
0100
0010
0100
1000
0100
1000
0010
0100
,
0010
0100
0001
0010
0001
0000
1000
0010
,
2000
0000
3001
0010
0100
1000
0100
0010
,
0001
0010
0100
1000
0010
0100
0001
0100
,
0010
1000
0100
1000
0001
1000
0200
0000
,
0310
0001
0010
0200
0000
1300
0100
1000
,
0001
0010
0001
0010
0100
1000
0001
0100
,
0020
0000
1030
0010
0100
0001
0100
0010
,
2000
0000
3100
1000
0001
0010
0100
1000
,
0020
0000
0130
0001
0010
0100
1000
0010
,
0100
0100
0001
0001
0000
0010
0010
0100
,
0100
1000
0100
0000
1001
0000
0101
0000
,
0010
0010
0000
1000
1000
0000
0100
0100
,
0000
0010
0010
0000
0011
0000
0110
0000
,
1000
0100
0000
0100
1000
0000
1000
0100
,
0000
0100
0010
0000
0011
0000
0110
0000
,
1000
1000
0000
0010
0010
0000
0100
0100
,
0000
0001
0001
0000
1001
0000
1100
0000
,
0010
0001
0010
0100
1000
0100
0010
0001
,
0100
0010
1000
0001
0100
0000
1001
0000
,
1000
0100
0010
0001
1000
0100
1000
0001
,
0010
0100
1000
0100
0011
0100
1000
0001
,
1000
0100
0010
0001
0010
0100
1000
0001
,
0100
0010
1000
0000
1001
0000
0110
0000
,
0001
0010
0100
1000
0100
0010
0001
0100
,
0010
1000
0001
1000
1010
0000
0101
0000
,
0010
0100
1000
0001
1000
0010
0100
1000
,
0001
0100
0010
1000
0001
0010
0100
1000
,
1010
0000
0100
0010
0100
0001
0100
0001
,
1000
0100
0010
0000
0001
1000
0200
0000
,
1300
0010
0100
0001
0100
0010
1000
0001
,
1000
0001
0100
0010
0100
0001
1000
0001
,
1000
0010
0100
0001
0100
0010
1000
0010
,
1000
0001
0100
0010
1000
0001
0010
0100
,
1000
0100
0010
0001
1000
0100
1000
0001
,
0100
0001
0100
0010
1000
0010
1000
0001
,
0100
0010
1000
0100
0010
0001
0010
0100
,
1000
0100
0010
0001
0010
0001
1000
0100
,
1000
0100
1000
0010
0100
0010
0100
0001
,
1000
0001
2000
0000
3100
0010
0001
0010
,
0100
1000
0100
0010
0001
0010
0100
1000
,
0010
0100
0010
1000
0001
1000
0010
0100
,
2002
0000
0000
0000
,
0000
0000
0000
0000
,
3003
0000
0000
0000
;

//---------------dance-single - ----------------
#NOTES:
     dance-single:
     :
     Hard:
     10:
     0.814,0.999,0.344,0.144,0.072:
0000
0000
0000
0000
,
0000
0000
0000
0000
,
0000
0000
0000
0000
,
0000
0000
0000
0000
,
0000
0000
0000
0000
,
0000
0000
0000
0000
,
0000
0000
0000
0000
,
0000
0000
0000
0000
,
0001
0100
0000
0010
1000
0000
0001
0100
,
0000
0100
0001
0000
1000
0000
1010
0000
,
0100
0001
0000
0001
1000
0000
0010
0100
,
0000
0100
0010
0000
1000
0000
1001
0000
,
0010
0100
0000
0100
0010
0000
1000
0001
,
0000
0001
1000
0000
0001
0000
0110
0000
,
1000
0100
0000
1000
0100
0000
0010
0001
,
0000
0010
0001
0000
0100
0000
1010
0000
,
0100
0001
0000
1000
0010
0000
0100
0001
,
0000
1000
0001
0000
1000
0000
0110
0000
,
0001
0100
0000
0100
0001
0000
1000
0100
,
0000
0100
1000
0000
0010
0000
0101
0000
,
0010
1000
0000
1000
0010
0000
0100
0001
,
0000
0001
0100
0000
0010
0000
1001
0000
,
1000
0100
0010
0001
1000
0000
0010
0100
,
0010
1000
0001
1000
0010
1000
0001
0100
,
0010
1000
0001
0000
1000
0001
0100
0000
,
0010
0100
0100
0110
,
0001
1000
0010
0000
0100
0001
1000
0000
,
0010
0010
0100
1001
,
0010
0100
0010
0000
1000
0001
1000
0000
,
0001
0100
0010
1010
,
0100
0001
0100
0000
0010
0100
0010
0000
,
1000
0000
0001
0000
1001
0000
0010
0100
,
0010
1000
0001
0100
,
0010
0000
1000
0000
1010
0000
0100
0001
,
0100
0010
1000
0001
,
0100
0000
0010
0000
0101
0000
0010
1000
,
0100
1000
0100
0010
,
0001
1000
0110
0001
,
1000
0010
0100
0001
1000
0010
0100
0010
,
1000
0001
0100
0001
1000
0010
0100
0000
,
2002
0000
0000
0000
,
0000
0000
0000
3003
,
0200
0000
0000
0000
0000
0000
0000
0000
0310
0000
0000
0010
0000
0000
0100
0000
,
0100
0000
0000
0001
0000
0000
1000
0000
1000
0000
0000
0100
0000
0000
0010
0000
,
0010
0000
0000
0000
0000
0000
0001
0010
0002
0000
0000
0000
1003
0000
1100
0000
,
0000
0000
0001
0010
0100
1000
0100
0000
2000
0000
0000
0000
0001
0000
0000
0000
,
3200
0000
0000
0310
0000
0000
0100
0001
,
1000
0000
0000
1000
0000
0000
0020
0000
0000
0000
0000
0000
0130
0000
0000
0000
,
0200
0000
0000
0000
0300
0000
0010
0100
0010
0000
0000
1000
0000
0000
0001
0000
,
0001
0000
0000
0000
1000
0000
0000
0000
0001
0010
0100
1000
0001
0010
0100
1000
,
0200
1000
1000
1300
,
0100
1000
0100
0000
0010
0000
0001
0000
,
0010
0000
0100
1000
0000
1000
0001
0000
,
0100
0000
0001
1000
0100
0000
0100
0000
,
0010
0000
0001
0000
0010
0000
0100
1000
,
0100
0010
0001
0010
,
0100
0100
1000
0100
,
0010
0000
0001
0010
0001
0000
1000
0010
,
1000
0000
0001
0000
0100
0000
0010
1000
,
0000
0010
1000
0000
0001
0000
0100
0000
,
0010
0000
0000
0100
0001
0000
2000
0000
,
0100
0000
0000
3100
0000
0000
0010
0000
,
0002
0000
0010
0000
0013
0000
0001
0010
,
0001
0000
1000
0000
0100
0000
1000
0100
,
1000
0000
0100
0000
0010
0000
0001
0100
,
0010
1000
0001
0100
0010
1000
0100
0010
,
0001
1000
0000
0001
0010
0000
0100
1000
,
0000
0001
0010
0000
0100
0000
1100
0000
,
0010
0001
0000
1000
0100
0000
0010
0001
,
0000
1000
0100
0000
1000
0000
0110
0000
,
0001
0010
0000
0010
0100
0000
0100
1000
,
0000
1000
0100
0000
0010
0000
0110
0000
,
0001
0010
0000
0010
0100
0000
0100
1000
,
0000
1000
0100
0000
1000
0000
1100
0000
,
0001
0100
0000
0010
1000
0000
0001
1000
,
0000
0010
0100
0000
0010
0000
1001
0000
,
1000
0100
0000
0100
1000
0000
1000
0010
,
0000
0010
0100
0000
0100
0000
1001
0000
,
0100
0010
0000
0010
0100
0000
0100
0001
,
0000
0001
1000
0000
0010
0000
0101
0000
,
0010
1000
0000
1000
0010
0000
0100
0001
,
0000
0001
1000
0000
0010
0000
0101
0000
,
0010
0000
1000
0100
1000
0000
0001
0000
,
0100
0010
1000
0000
0100
0000
0010
0000
,
0011
0000
1000
0010
0100
0000
0001
0000
,
1000
0100
0010
0000
0001
0000
1000
0000
,
1001
0010
0100
0000
0100
0010
1000
0000
,
1000
0001
0010
0000
0100
1000
0001
0000
,
1000
0100
0010
0000
0001
0010
0100
0000
,
1000
0100
0010
0000
0001
0010
0100
0000
,
1000
0100
1000
0100
0010
0001
0010
0000
,
0100
1000
0100
1000
0100
0010
0001
0000
,
1000
0100
1000
0100
0010
0001
0010
0000
,
0100
1000
0100
0010
0001
0010
0100
0000
,
1100
0100
0110
0001
,
0011
0100
1100
0010
,
0001
0100
0010
1000
0001
0010
0100
1000
,
0010
0100
0010
1000
0001
1000
0010
0100
,
2002
0000
0000
0000
,
0000
0000
0000
0000
,
3003
0000
0000
0000
;

//---------------dance-single - ----------------
#NOTES:
     dance-single:
     :
     Easy:
     5:
     0.411,0.566,0.011,0.078,0.000:
0000
0000
0000
0000
,
0000
0000
0000
0000
,
0000
0000
0000
0000
,
0000
0000
0000
0000
,
0000
0000
0000
0000
,
0000
0000
0000
0000
,
0000
0000
0000
0000
,
0000
0000
0000
0000
,
1000
0000
0000
0010
0000
0000
0100
0000
,
0000
0001
1000
0010
,
1000
0000
0000
0001
0000
0000
0100
0000
,
0000
0010
0000
0000
1000
0000
0001
0000
,
1000
0000
0000
0001
0000
0000
0100
0000
,
0000
0010
0000
0000
1000
0000
0100
0000
,
1000
0000
0000
0001
0000
0000
0100
0000
,
0000
0010
0000
0000
1000
0000
0001
0000
,
0100
0000
0000
0010
0000
0000
1000
0000
,
0000
0001
0000
0000
0100
0000
0010
0000
,
0100
0000
0000
0001
0000
0000
1000
0000
,
0000
0010
0000
0000
1000
0000
0100
0000
,
1000
0000
0000
0001
0000
0000
0100
0000
,
0000
0010
0000
0000
1000
0000
0001
0000
,
1000
0000
0000
0010
0000
0000
0100
0000
,
0000
0010
0000
0000
1000
0000
0000
0000
,
0001
0000
1000
0000
,
0010
0000
0100
0010
,
0100
0000
0001
0000
,
1000
0000
0010
0100
,
0010
0000
1000
0000
,
0001
0000
1000
0010
,
0100
0000
0001
0000
,
0100
0000
0010
1000
,
0001
0000
1000
0000
,
1000
0000
0001
0100
,
0001
0000
1000
0000
,
0010
0000
0100
0001
,
0100
0000
0010
0000
,
1000
0000
0001
1000
,
0010
0000
1000
0000
,
0001
0100
0010
1000
,
0002
0000
0000
0000
,
0000
0000
0000
0003
,
1000
0000
0001
1000
,
0010
0100
0001
1000
,
0001
0000
0000
0100
0010
0000
0100
0100
,
0000
0000
0000
1000
,
0001
0000
0000
0100
0000
0000
0001
0000
,
1000
0010
0100
0000
,
0001
0000
0000
1000
0001
0000
0100
0000
,
0001
0000
0000
1000
,
0100
0000
1000
0000
,
0001
0000
0100
0000
,
0001
1000
0001
0000
,
0100
0010
0000
0000
,
1000
0000
0001
0000
,
1000
0000
0010
0000
,
0100
0000
0010
0000
,
1000
0000
0001
0000
,
1000
0100
1000
0000
,
0001
0100
0001
0000
,
1000
0000
0100
0000
,
0010
0000
0001
0000
,
0100
0000
0010
0000
,
1000
0000
0010
0000
,
0100
0000
0001
0000
,
0100
0000
0010
0000
,
1000
0001
1000
0010
,
0100
0010
0100
0000
,
0001
1000
0001
0010
,
0100
1000
0001
0000
,
1000
0100
0010
0001
,
1000
0100
1000
0000
,
0001
0100
0010
1000
,
0001
0100
0001
0000
,
1000
0100
0010
0001
,
0010
0100
1000
0000
,
0010
0100
0001
1000
,
0010
0100
0010
0010
,
1000
0100
1000
0001
,
0100
0001
1000
0100
,
0010
0001
1000
0010
,
0100
0010
1000
0000
,
0002
0000
0100
0000
,
0100
0000
0000
0000
0100
0003
0000
0000
,
2000
0000
0100
0000
,
0100
0000
0000
0000
0100
3000
0000
0000
,
0020
0000
0100
0000
,
0100
0000
0130
0000
,
0200
0000
0010
0000
,
0010
0000
0310
0000
,
1000
0001
1000
0000
,
0010
0100
0001
0000
,
1000
0001
1000
0000
,
0010
0100
0010
0000
,
1000
0100
0010
0001
,
0010
0100
1000
0000
,
0001
0100
0010
1000
,
0001
0100
0010
1000
,
2002
0000
0000
0000
,
0000
0000
0000
0000
,
0000
0000
0000
0000
,
0000
0000
0000
0000
,
3003
0000
0000
0000
;

//---------------dance-single - ----------------
#NOTES:
     dance-single:
     :
     Beginner:
     3:
     0.157,0.280,0.022,0.111,0.000: // measure 1
0000
0000
0000
0000
,  // measure 2
0000
0000
0000
0000
,  // measure 3
0000
0000
0000
0000
,  // measure 4
0000
0000
0000
0000
,  // measure 5
0000
0000
0000
0000
,  // measure 6
0000
0000
0000
0000
,  // measure 7
0000
0000
0000
0000
,  // measure 8
0000
0000
0000
0000
,  // measure 9
1000
0000
0000
0000
,  // measure 10
0001
0000
0000
0000
,  // measure 11
1000
0000
0000
0000
,  // measure 12
0001
0000
0000
0000
,  // measure 13
1000
0000
0000
0000
,  // measure 14
0010
0000
0000
0000
,  // measure 15
0100
0000
0000
0000
,  // measure 16
0010
0000
0000
0000
,  // measure 17
1000
0000
0000
0000
,  // measure 18
0001
0000
0000
0000
,  // measure 19
1000
0000
0000
0000
,  // measure 20
0001
0000
0000
0000
,  // measure 21
0100
0000
0000
0000
,  // measure 22
0010
0000
0000
0000
,  // measure 23
0100
0000
0000
0000
,  // measure 24
0010
0000
0000
0000
,  // measure 25
2000
0000
0000
0000
,  // measure 26
3000
0000
0000
0000
,  // measure 27
0002
0000
0000
0000
,  // measure 28
0000
0000
0003
0000
,  // measure 29
2000
0000
0000
0000
,  // measure 30
0000
0000
3000
0000
,  // measure 31
0020
0000
0000
0000
,  // measure 32
0000
0000
0030
0000
,  // measure 33
0100
0000
0000
0000
,  // measure 34
0100
0000
0000
0000
,  // measure 35
0001
0000
0000
0000
,  // measure 36
0001
0000
0000
0000
,  // measure 37
1000
0000
0000
0000
,  // measure 38
1000
0000
0000
0000
,  // measure 39
0010
0000
0000
0000
,  // measure 40
0100
0000
0000
0000
,  // measure 41
1001
0000
0000
0000
,  // measure 42
0000
0000
0000
0000
,  // measure 43
1000
0000
0010
0000
,  // measure 44
1000
0000
0001
0000
,  // measure 45
0100
0000
0000
0001
,  // measure 46
0000
0000
0000
0000
,  // measure 47
1000
0000
0010
0000
,  // measure 48
1000
0000
0001
0000
,  // measure 49
0100
0000
0001
0000
,  // measure 50
1000
0000
0000
0000
,  // measure 51
0010
0000
0000
0000
,  // measure 52
0100
0000
0000
0000
,  // measure 53
0010
0000
0000
0000
,  // measure 54
0100
0000
0000
0000
,  // measure 55
0001
0000
0000
0000
,  // measure 56
1000
0000
0000
0000
,  // measure 57
0001
0000
0000
0000
,  // measure 58
1000
0000
0000
0000
,  // measure 59
0010
0000
0000
0000
,  // measure 60
0100
0000
0000
0000
,  // measure 61
0001
0000
0000
0000
,  // measure 62
1000
0000
0000
0000
,  // measure 63
0010
0000
0000
0000
,  // measure 64
0100
0000
0000
0000
,  // measure 65
0001
0000
0000
0000
,  // measure 66
1000
0000
0000
0000
,  // measure 67
0010
0000
0000
0000
,  // measure 68
0010
0000
0000
0000
,  // measure 69
0010
0000
0000
0000
,  // measure 70
0010
0000
0000
0000
,  // measure 71
0010
0000
0000
0000
,  // measure 72
0010
0000
0000
0000
,  // measure 73
0010
0000
0000
0000
,  // measure 74
0010
0000
0000
0000
,  // measure 75
0100
0000
0000
0000
,  // measure 76
0100
0000
0000
0000
,  // measure 77
0100
0000
0000
0000
,  // measure 78
0100
0000
0000
0000
,  // measure 79
0100
0000
0000
0000
,  // measure 80
0100
0000
0000
0000
,  // measure 81
0100
0000
0000
0000
,  // measure 82
0100
0000
0000
0000
,  // measure 83
0002
0000
0000
0000
,  // measure 84
0000
0003
0000
0000
,  // measure 85
2000
0000
0000
0000
,  // measure 86
0000
0000
0000
3000
0000
0000
0000
0000
,  // measure 87
0002
0000
0000
0000
,  // measure 88
0000
0000
0000
0003
0000
0000
0000
0000
,  // measure 89
2000
0000
0000
0000
,  // measure 90
0000
3000
0000
0000
,  // measure 91
0001
0000
0000
0000
,  // measure 92
0001
0000
0000
0000
,  // measure 93
0100
0000
0000
0000
,  // measure 94
0100
0000
0000
0000
,  // measure 95
0010
0000
0000
0000
,  // measure 96
0010
0000
0000
0000
,  // measure 97
1000
0000
0000
0000
,  // measure 98
1000
0000
0000
0000
,  // measure 99
2002
0000
0000
0000
,  // measure 100
0000
0000
0000
0000
,  // measure 101
0000
0000
0000
0000
,  // measure 102
3003
0000
0000
0000
;

//---------------dance-single - ----------------
#NOTES:
     dance-single:
     :
     Medium:
     8:
     0.641,0.944,0.033,0.122,0.039:
0000
0000
0000
0000
,
0000
0000
0000
0000
,
0000
0000
0000
0000
,
0000
0000
0000
0000
,
0000
0000
0000
0000
,
0000
0000
0000
0000
,
0000
0000
0000
0000
,
0000
0000
0000
0000
,
0010
1000
0001
1000
,
0010
0100
0001
0001
,
0010
0100
1000
0100
,
0010
0001
1000
1000
,
0010
0100
0001
0100
,
0010
1000
0001
0001
,
0010
0100
1000
0100
,
0010
0001
0100
0100
,
0010
1000
0010
0100
,
0001
0100
0010
1000
,
1000
0001
0100
0010
,
1000
0100
0010
0001
,
1000
0100
1000
0001
,
0100
0001
1000
0100
,
0010
0001
0010
0100
1000
0100
0010
0001
,
0010
0100
1000
0100
0010
0001
0010
0100
,
1000
0010
1000
0001
,
1000
0100
1000
0000
,
0001
0100
0001
0010
,
0100
1000
0100
0010
,
0001
0010
0001
0100
,
0010
1000
0100
1000
,
0001
0001
0010
0100
,
1000
1000
0010
0100
,
0010
0100
0001
0100
,
0010
0010
1000
0100
,
1000
1000
0100
0010
,
0001
0010
0100
1000
,
0100
1000
0010
0100
,
0010
0100
0001
1000
,
0100
1000
0100
0010
,
0001
1000
0001
0100
0010
1000
0001
0000
,
0220
0000
0000
0000
,
0000
0000
0000
0330
,
2000
0000
0000
0000
0000
0000
0000
0000
3100
0000
0000
0100
0000
0000
0010
0000
,
0001
0000
0000
0001
0000
0000
0010
0000
0100
0000
0000
0100
0000
0000
1000
0000
,
0100
0000
0000
0000
0000
0000
0010
0001
0010
0000
0000
0000
0100
0000
1000
0000
,
0000
1000
0100
1000
0200
0000
1000
0000
,
2300
0000
0000
3001
0000
0000
0100
0010
,
0100
0000
0000
0010
0000
0000
0200
0000
0000
0000
0000
0000
0301
0000
0000
0000
,
0002
0000
0000
0000
0003
0000
1000
0100
1000
0000
0000
0100
0000
0000
0100
0000
,
0010
0000
0010
0000
0001
0010
0100
1000
,
0220
0000
0000
0330
,
0001
0000
0000
0010
0000
0000
0100
0000
,
0100
0000
0000
1000
0000
0000
0010
0000
,
0010
0000
0000
1000
0000
0000
0100
0000
,
0100
0000
0000
0000
0000
0000
0010
0001
,
0010
0000
0100
1000
,
0100
0010
0001
0010
,
0100
1000
0001
1000
,
0010
0100
0001
1000
,
0010
0100
0001
0010
,
0100
0000
0000
0100
0000
0000
1000
0000
,
0001
0000
0000
0001
0000
0000
1000
0000
,
0010
0000
0000
0000
0000
0000
0100
0001
,
0100
0000
0000
0000
0000
0000
0010
1000
,
0010
0000
0000
0000
0000
0000
1000
0100
,
0010
0000
0000
0000
0000
0000
0001
1000
,
0001
1000
0000
0010
0100
0000
0100
0010
,
0000
0010
1000
0000
1000
0000
0100
0000
,
0010
0001
0000
0001
0010
0000
0010
0100
,
0000
0100
1000
0000
0001
0000
1000
0000
,
0001
0100
0000
0100
0001
0000
1000
0010
,
0000
0010
1000
0000
0001
0000
1000
0000
,
0001
0100
0000
0010
1000
0000
0001
0100
,
0000
0010
1000
0000
0001
0000
1000
0000
,
0100
1000
0000
0100
1000
0000
0010
0100
,
0000
0010
0100
0000
0001
0000
1000
0000
,
0010
0100
0000
0010
0100
0000
0001
1000
,
0000
0001
1000
0000
0010
0000
0100
0000
,
0001
0100
0000
0001
0100
0000
0010
1000
,
0000
0010
1000
0000
0001
0000
0100
0000
,
0010
1000
0000
0010
1000
0000
0001
1000
,
0000
0001
1000
0000
0001
0010
0001
1000
,
0010
1000
0001
1000
,
0010
0100
0001
0100
,
0010
1000
0010
0100
,
0001
1000
0001
0010
,
0100
1000
0010
0100
,
0001
1000
0100
1000
,
0001
0100
0010
0100
,
0001
0100
0010
1000
,
0010
0000
1000
0000
0001
0010
0100
0000
,
1000
0000
0100
0000
0010
0001
0010
0000
,
0100
0000
1000
0000
0001
0100
0010
0000
,
1000
0000
0001
0000
1000
0010
0100
0000
,
0001
0000
1000
0000
0100
1000
0100
0000
,
0010
0000
0001
0000
1000
0100
1000
0000
,
0001
0100
0001
1000
0010
1000
0001
0100
,
0001
0100
0010
1000
0010
1000
0001
0000
,
2002
0000
0000
0000
,
0000
0000
0000
0000
,
3003
0000
0000
0000
;
