#TITLE:YOKOHAMA EVOLVED ver.A;
#SUBTITLE:;
#ARTIST:TOMOYUKI Underground;
#TITLETRANSLIT:YOKOHAMA EVOLVED;
#SUBTITLETRANSLIT:;
#ARTISTTRANSLIT:;
#CREDIT:SupremeX;
#BANNER:YOKOHAMA EVOLVED-bn.png;
#BACKGROUND:YOKOHAMA EVOLVED-bg.png;
#LYRICSPATH:;
#CDTITLE:;
#MUSIC:YOKOHAMA EVOLVED ver.A.ogg;
#OFFSET:-1.607;
#SAMPLESTART:25.860;
#SAMPLELENGTH:12.000;
#SELECTABLE:YES;
#BPMS:0.000=168.000,64.000=84.000,66.000=168.000;
#STOPS:;
#BGCHANGES:16.000=symbols1.avi=1.000=0=0=1,
32.000=nyevbill.avi=1.000=0=0=1,
64.000=YOKOHAMA EVOLVED-bg.png=1.000=0=0=1,
66.000=n_nyevtunnel.avi=1.000=0=0=1,
130.000=lightning1.avi=1.000=0=0=1,
194.000=nyev3piano.avi=1.000=0=0=1,
226.000=numbers2.avi=1.000=0=0=1,
259.000=nyevtunnel.avi=1.000=0=0=1,
290.000=nyevbill.avi=1.000=0=0=1,
322.000=nyev3piano.avi=1.000=0=0=1,
99999=-nosongbg-=1.000=0=0=0 // don't automatically add -songbackground-
;

//---------------dance-single - ----------------
#NOTES:
     dance-single:
     :
     Medium:
     8:
     0.542,0.580,0.025,0.091,0.132:
0000
0000
0000
0000
,
0000
0000
0000
0000
,
0000
0000
0000
0000
,
0000
0000
0000
0000
,
1000
0010
0100
0000
0001
1000
0001
0000
,
0100
0010
0100
0000
0010
1000
0010
0000
,
0100
0001
0100
0000
0001
1000
0010
0000
,
0010
1000
0001
0010
0100
1000
0010
0000
,
0200
0001
0001
0301
,
2000
0010
0010
3010
,
0002
0100
0100
0103
,
0020
0100
0100
0130
,
0001
1000
0001
0100
0010
0100
0001
1000
,
0001
0100
0010
1000
0001
1000
0001
0100
,
0010
1000
0010
0100
0001
0100
0001
0000
,
1000
0100
0010
0001
1000
0001
0200
0000
,
0000
0000
0000
0000
0000
0000
0300
0000
0001
0000
0000
0010
0000
0000
0100
0000
,
0000
0000
1000
0100
0010
0001
1000
0000
,
0010
0000
0000
0100
0000
0000
0010
0000
1000
0000
0000
0001
0000
0000
1000
0000
,
0000
0100
0000
0000
0010
0000
0000
0000
0001
0000
1000
0000
0100
0000
0010
0000
,
0001
0000
0100
0000
0001
0000
0000
0000
1000
0000
0000
0100
0000
0000
1000
0000
,
0000
0000
0001
1000
0010
0100
0001
0000
,
1000
0000
0000
0100
0000
0000
1000
0000
0001
0000
0000
1000
0000
0000
0001
0000
,
0100
0000
0000
0100
0000
0000
0000
0000
0010
0000
1000
0000
0001
0000
0100
0000
,
0010
0000
1000
0000
0001
0000
0000
0000
1000
0000
0000
0010
0000
0000
0100
0000
,
0000
0000
0001
1000
0010
1000
0001
0000
,
1000
0000
0000
0100
0000
0000
1000
0000
1000
0000
0000
0001
0000
0000
0100
0000
,
0000
0010
0000
0000
1000
0000
0000
0000
0001
0000
0100
0000
0001
0000
1000
0000
,
0010
0000
1000
0000
0010
0000
0000
0000
0100
0000
0000
0001
0000
0000
1000
0000
,
0000
0000
0001
0010
0100
1000
0100
0000
,
0010
0000
0000
0001
0000
0000
0100
0000
0001
0000
0000
1000
0000
0000
0100
0000
,
0000
0010
0000
0000
0001
0000
0000
0000
1000
0000
0100
0000
1000
0000
0010
0000
,
0100
0000
0010
0000
1000
0000
0001
0000
1000
0000
0000
0010
0000
0000
0100
0000
,
0000
0000
0001
0010
0100
1000
0001
0100
,
0010
0000
0100
0000
0001
0000
1000
0000
0001
0000
0000
1000
0000
0000
0100
0000
,
0000
0010
0000
0000
0001
0000
1000
0000
0100
0000
1000
0000
0001
0000
0100
0000
,
0010
0000
0000
0010
0000
0000
0100
0000
0001
0000
0000
1000
0000
0000
1000
0000
,
0001
0100
0010
1000
0001
1000
0100
1000
,
0100
0000
0010
0000
0001
0000
1000
0000
0001
0000
0000
0010
0000
0000
0100
0000
,
0000
1000
0000
0000
0001
0000
1000
0000
0001
0000
0010
0000
0100
0000
1000
0000
,
0100
0000
0010
0000
0001
0000
0000
0000
1000
0000
0000
0010
0000
0000
1000
0000
,
0000
0000
0001
0100
0001
1000
0010
0100
,
0001
0000
0100
0000
0010
0000
1000
0000
0001
0000
0000
0100
0000
0000
0100
0000
,
0000
0001
0000
0000
1000
0000
0100
0000
1000
0000
0100
0000
0010
0000
0001
0000
,
0010
0000
0000
0010
0000
0000
0100
0000
1000
0000
0000
1000
0000
0000
1000
0000
,
0001
0100
0001
0010
0100
1000
0010
1000
,
0100
0000
0010
0000
0001
0000
1000
0000
1000
0000
0000
0010
0000
0000
1000
0000
,
0000
0010
0000
0000
0100
0000
0001
0000
0100
0000
0010
0000
1000
0000
0100
0000
,
0010
0001
1000
0001
2000
0000
0000
0000
,
0000
0000
3020
0000
,
0000
0000
0230
0000
,
0000
0000
0302
0000
,
0000
0000
1003
0000
,
1000
0000
0010
0000
,
0010
0000
0100
0000
,
0100
0000
0001
0000
,
0001
0000
1000
0010
,
0100
0001
1000
0010
,
0100
0010
1000
0001
,
0100
0010
1000
0010
0100
0010
0100
0001
,
1000
0010
0100
0010
1000
0000
0010
0000
,
0100
0010
1000
0001
,
0100
0000
0010
1000
0010
0000
0100
0000
,
0001
0000
0000
0000
1000
0000
0000
0000
0010
0000
0000
0110
0000
0000
0100
0000
,
0000
0101
0000
0000
1000
0000
1000
0000
0000
0000
0000
0000
0001
0000
0010
0000
,
0100
1000
0010
0100
0010
0000
1000
0100
,
1000
0000
0001
0010
0100
1000
0010
0100
,
0010
1000
0001
0100
,
0010
1000
0010
0100
0010
1000
0001
1000
,
0001
1000
0010
0100
0010
0100
0001
1000
,
0001
0100
0010
0100
0001
0010
0100
1000
,
1000
0100
0100
0010
0010
0001
0001
1000
,
0100
0010
0001
1000
0001
0100
0010
1000
,
0010
0100
0010
1000
0010
0100
0010
0100
,
0010
1000
0001
0010
0100
1000
0001
0100
,
0010
0010
1000
1000
0010
0010
0100
0100
,
0001
0001
1000
0100
1000
0100
0010
0100
,
0010
0001
0100
0001
0100
0010
1000
0010
,
1000
0001
0010
0100
1000
0010
0100
0001
,
0100
0001
1000
0010
1000
0001
0010
0100
,
1000
0100
0010
0001
2002
0000
0000
0000
,
0000
0000
0000
0000
,
0000
0000
0000
0000
0000
0000
0000
3003
;

//---------------dance-single - ----------------
#NOTES:
     dance-single:
     :
     Easy:
     5:
     0.356,0.478,0.198,0.107,0.000:
0000
0000
0000
0000
,
0000
0000
0000
0000
,
0000
0000
0000
0000
,
0000
0000
0000
0000
,
0010
1000
0100
0010
,
0001
0100
0010
1000
,
0001
0100
0010
1000
,
0001
1000
0010
0100
,
0002
0000
0000
0003
,
2000
0000
0000
0000
0000
0000
0000
3000
,
0020
0000
0000
0030
,
0200
0000
0000
0300
,
0001
0000
1001
0000
,
1000
0000
1001
0000
,
0010
0100
0010
0100
,
0100
0010
0010
0100
,
0020
0000
0000
0030
1000
0000
1000
0000
,
1000
1000
1000
1000
,
0001
0100
0001
0100
,
0010
0010
1000
1000
,
0001
0001
0100
0010
,
1000
0001
0100
0100
,
0100
0100
0001
0010
,
0100
1000
0001
0001
,
0001
0001
0010
0010
,
0010
0100
0100
0100
,
1000
1000
0001
0100
,
0010
1000
0001
1000
,
0010
0100
0001
1000
,
1001
0010
0010
0100
,
0100
0001
0010
0100
,
1000
0000
0010
0000
0200
0000
0000
0300
,
0002
0000
0000
0003
1000
0000
1000
0000
,
0010
0010
0100
0100
,
0001
0001
1000
0010
,
0100
0001
1000
1000
,
0010
0010
0100
0001
,
1000
0010
1000
0001
,
0010
0100
1000
1000
,
0010
0010
0100
0001
,
1000
0010
1010
0100
,
0001
0010
0100
1000
,
0010
0100
0010
1000
,
1000
1000
0001
1000
,
0100
0010
0001
0001
,
0001
1000
0010
1000
,
0010
0100
0001
0010
,
0100
1000
0010
1000
,
0010
0100
1002
0000
,
0000
0000
2003
0000
,
0000
0000
3020
0000
,
0000
0000
0230
0000
,
0000
0000
0301
0000
,
1000
0000
0001
0000
,
1000
0000
0010
0000
,
0100
0000
0001
0000
,
1000
0000
0010
0100
,
0010
0100
0001
1000
,
0001
1000
0001
0100
,
0010
0010
0010
0010
,
0010
0010
1000
0001
,
0100
0010
1000
0001
,
0100
0010
1000
0001
,
0100
0100
0100
0010
,
1000
0000
0001
1000
,
1001
0010
0110
1000
,
0001
0100
0011
1000
,
1100
0011
1100
0011
,
1000
0100
0010
0001
,
0001
1000
1000
0010
,
0010
0100
0100
0001
,
1001
0110
1001
0110
,
0001
0001
1000
1000
,
0010
0010
0100
0100
,
0001
0001
1000
0011
,
1100
0011
1100
0000
,
0001
1000
0010
0100
,
0010
1000
0001
0100
,
0010
1000
0001
1000
,
1010
0101
1010
0001
,
0010
0100
2002
0000
,
0000
0000
0000
0000
,
0000
0000
0000
0000
0000
0000
0000
3003
;

//---------------dance-single - Copied from----------------
#NOTES:
     dance-single:
     Copied from:
     Beginner:
     2:
     0.131,0.166,0.000,0.016,0.000:
0000
0000
0000
0000
,
0000
0000
0000
0000
,
0000
0000
0000
0000
,
0000
0000
0000
0000
,
0010
0000
0000
0000
,
0010
0000
0000
0000
,
0010
0000
0000
0000
,
0010
0000
0000
0000
,
0100
0000
0000
0000
,
0100
0000
0000
0000
,
0100
0000
0000
0000
,
0100
0000
0000
0000
,
0001
0000
0000
0000
,
0001
0000
0000
0000
,
0001
0000
1000
0000
,
0001
0000
2000
0000
,
3000
0000
0010
0000
,
0000
0000
0100
0000
,
0001
0000
1000
0000
,
0010
0000
0000
0000
,
0000
0000
0100
0000
,
0000
0000
0001
0000
,
1000
0000
0010
0000
,
0100
0000
0002
0000
,
0000
0003
1000
0000
,
0000
0000
0010
0000
,
1000
0000
0001
0000
,
1000
0000
0000
0000
,
0000
0000
0010
0000
,
0000
0000
0100
0000
,
0001
0000
1000
0000
,
0001
0000
0100
0000
,
0010
0000
1000
0000
,
0000
0000
0001
0000
,
0000
0000
1000
0000
,
0100
0000
0010
0000
,
0001
0000
1000
0000
,
0100
0000
1000
0000
,
0001
0000
0010
0000
,
0100
0000
1000
0000
,
0000
0000
0010
0000
,
1000
0000
0001
0000
,
0100
0000
0010
0000
,
1000
0000
0001
0000
,
0100
0000
0010
0000
,
0000
0000
1000
0000
,
0000
0000
0001
0000
,
1000
0000
0010
0000
,
0100
0000
0001
0000
,
0000
0000
1000
0000
,
0000
0000
0010
0000
,
0000
0000
0100
0000
,
0000
0000
0001
0000
,
0000
0000
1000
0000
,
0000
0000
0010
0000
,
0000
0000
0100
0000
,
0000
0000
0001
0000
,
0000
0000
0000
0001
,
0000
0000
1000
0000
,
0000
0000
1000
0000
,
0000
0000
0010
0000
,
0000
0000
0010
0000
,
0000
0000
0100
0000
,
0000
0000
0100
0000
,
0000
0000
0001
0000
,
0000
0000
1000
0000
,
0000
0000
0010
0000
,
0000
0000
0100
0000
,
0000
0000
0001
0000
,
0001
0000
0001
0000
,
0001
0000
0001
0000
,
1000
0000
1000
0000
,
1000
0000
1000
0000
,
0010
0000
0100
0000
,
0010
0000
0100
0000
,
0010
0000
0010
0000
,
0010
0000
0010
0000
,
0100
0000
0100
0000
,
0100
0000
0100
0000
,
0001
0000
1000
0000
,
0001
0000
1000
0000
;

//---------------dance-single - ----------------
#NOTES:
     dance-single:
     :
     Hard:
     10:
     0.837,0.887,0.593,0.296,0.630: // measure 1
0000
0000
0000
0000
,  // measure 2
0000
0000
0000
0000
,  // measure 3
0000
0000
0000
0000
,  // measure 4
0000
0000
0000
0000
,  // measure 5
1000
0100
1100
0010
0001
0010
0011
0100
,  // measure 6
1000
0100
0110
0001
0010
0100
0110
1000
,  // measure 7
0100
0010
0011
0100
1000
0010
1010
0100
,  // measure 8
0001
0100
0101
1000
0001
1000
1001
0100
,  // measure 9
0200
0010
0010
0010
0010
0010
0310
1000
,  // measure 10
2000
0100
0100
0100
0100
0100
3100
0001
,  // measure 11
0002
0100
0100
0100
0100
0100
0103
0010
,  // measure 12
0020
1000
1000
1000
1000
1000
1000
1030
,  // measure 13
1001
0010
0100
1000
1100
0010
0001
0010
,  // measure 14
0011
0100
1000
0001
1001
1000
0001
0100
,  // measure 15
0101
1000
0100
0010
0001
1000
0010
0100
,  // measure 16
0001
0000
0100
0000
0010
0000
1000
0000
0010
0100
0010
0100
0010
0100
0010
0100
,  // measure 17
0020
0000
0000
0000
0000
0000
0000
0030
0101
0000
0000
0101
0000
0000
2002
0000
,  // measure 18
0000
3003
0100
0010
0100
0001
1000
0001
,  // measure 19
1001
0000
0000
1001
0000
0000
1001
0000
1000
0000
0000
0110
0000
0000
0110
0000
,  // measure 20
0000
0011
0000
0000
0011
0000
0100
0000
1000
0000
0100
0000
0010
0000
0001
0000
,  // measure 21
0100
0000
0000
1010
0000
0000
1010
0000
0100
0000
0000
0101
0000
0000
2002
0000
,  // measure 22
0000
3003
0010
1000
0100
0010
0001
1000
,  // measure 23
1100
0000
0000
1100
0000
0000
1100
0000
0010
0000
0000
0011
0000
0000
0011
0000
,  // measure 24
0000
1001
0000
0000
1001
0000
0100
0010
0100
0010
0100
0010
0100
0000
0010
0000
,  // measure 25
2000
0000
3200
0000
0320
0000
0030
0000
0011
0000
0000
0011
0000
0000
2200
0000
,  // measure 26
0000
3300
0010
0001
0010
0100
1000
0100
,  // measure 27
1100
0000
0000
1100
0000
0000
0010
0000
0101
0000
0000
0101
0000
0000
1010
0000
,  // measure 28
0000
1010
0000
0000
1010
0000
0100
0000
0001
0000
0100
0000
0001
0000
1000
0000
,  // measure 29
0010
0000
1000
0000
0010
0000
0000
0000
1001
0000
0000
0110
0000
0000
2002
0000
,  // measure 30
0000
3003
0100
0010
1000
0001
1000
0010
,  // measure 31
0101
0000
0000
0101
0000
0000
0010
0000
0100
0000
0000
1010
0000
0000
1010
0000
,  // measure 32
0000
1001
0000
0000
0001
0000
0010
0000
0100
0000
1000
0000
0010
0000
1000
0000
,  // measure 33
0001
0100
0001
0100
0001
0100
0001
0100
0020
0000
0000
2030
0000
0000
3002
0000
,  // measure 34
0000
0000
0003
0000
1000
0000
0100
1000
0100
1000
0100
1000
0001
0100
0001
0100
,  // measure 35
0001
0100
0010
0100
0010
0100
0010
0000
1000
0000
0000
0101
0000
0000
0101
0000
,  // measure 36
0000
0101
0000
0000
0010
0000
1000
0000
0001
0000
1000
0000
0001
0000
0100
0000
,  // measure 37
0110
0000
0000
0110
0000
0000
0010
0000
1000
0000
0000
1001
0000
0000
1001
0000
,  // measure 38
0001
0000
0100
0000
0010
0000
1000
0000
0001
0100
0001
0100
0001
0100
0001
1000
,  // measure 39
0010
1000
0010
1000
0010
1000
0010
0000
0200
0000
0000
0302
0000
0000
2003
0000
,  // measure 40
0000
3020
0000
0000
0130
0000
0001
0000
0010
0000
0100
0000
1000
0000
0010
0000
,  // measure 41
1000
0000
0001
0000
0100
0000
0000
0000
0002
0000
0000
0023
0000
0000
0230
0000
,  // measure 42
0000
0000
0300
0000
1000
0000
0100
0000
0010
0001
0010
0001
0010
0001
1000
0100
,  // measure 43
1000
0100
1000
0100
1000
0000
0000
0000
0002
0000
0000
0023
0000
0000
0230
0000
,  // measure 44
0000
2300
0000
0000
3001
0000
0100
0000
0010
0000
0100
0000
0001
0000
1000
0000
,  // measure 45
0010
0000
0000
1010
0000
0000
0100
0000
0101
0000
0000
0101
0000
0000
0101
0000
,  // measure 46
1000
0000
0100
0000
0010
0001
0010
0001
0010
0001
0100
0010
0100
0010
0100
0010
,  // measure 47
1000
0100
1000
0100
1000
0000
0010
0000
0100
0000
0000
0110
0000
0000
0110
0000
,  // measure 48
0000
0110
0000
0000
0001
0000
1000
0000
0010
0000
0100
0000
0001
0000
1000
0000
,  // measure 49
0100
0010
0001
1000
1002
0000
0000
0000
,  // measure 50
0000
0000
0000
0023
,  // measure 51
0000
0000
0000
0000
0200
0030
0000
0000
,  // measure 52
0000
0000
2300
0000
,  // measure 53
0000
0000
0000
0000
0000
0000
0000
0000
3100
0000
1000
0000
0100
0000
0000
1000
,  // measure 54
0100
0000
0000
0000
0010
0000
0000
0001
0010
0000
0000
0000
0100
0000
0000
1000
,  // measure 55
0100
0000
0000
0000
0010
0000
0000
0001
0100
0000
0000
0000
0010
0000
0000
1000
,  // measure 56
0001
0000
0000
1000
0001
0000
0010
0000
0100
0000
1000
0000
0100
0000
0010
0000
,  // measure 57
0001
0000
1000
0000
0010
0000
1000
0000
1010
0000
0100
0000
0010
0000
0001
0010
,  // measure 58
0000
0000
0100
0000
1000
0000
0100
0010
0000
0000
0001
0000
0100
0010
0100
0010
,  // measure 59
0000
0000
1000
0000
0100
0000
1000
0100
0000
0000
0010
0000
0001
0000
1000
0100
,  // measure 60
0000
0000
0100
0010
0000
0000
0010
0001
0000
0000
1000
0010
0100
0001
0100
0010
,  // measure 61
1000
0010
1000
0001
0100
0001
0100
0001
1000
0000
1000
0000
0010
0000
1000
0010
,  // measure 62
0000
0000
0100
0000
0001
0000
0100
0001
0000
0000
1000
0000
0010
0000
0100
0001
,  // measure 63
0000
0000
1000
0000
0001
0000
0100
0001
0000
0000
1000
0000
0100
0000
1000
0100
,  // measure 64
0000
0000
0010
0001
0000
0000
0010
0001
0010
0000
0000
1100
0000
0000
0011
0000
,  // measure 65
0000
1100
0000
0000
0001
1000
0001
1000
0001
0000
1000
0000
0100
0000
1000
0100
,  // measure 66
0000
0000
0010
0000
0001
0000
0010
0001
0000
0000
1000
0000
0010
1000
0010
1000
,  // measure 67
0000
0000
1000
0000
0001
0000
0100
0001
0000
0000
1000
0000
0010
0000
0100
0001
,  // measure 68
0000
0000
1000
0010
0000
0000
0100
0001
0000
0000
1000
0100
0010
0001
1000
0001
,  // measure 69
0100
0010
0100
0010
1000
0001
1000
0001
1000
0000
0010
0000
0100
0000
0001
0100
,  // measure 70
0000
0000
0001
0000
1000
0000
0100
1000
0000
0000
0100
0000
1000
0000
0001
1000
,  // measure 71
0000
0000
0010
0000
0100
0000
0010
0100
0000
0000
0001
0000
1000
0000
0001
1000
,  // measure 72
0000
0000
0001
0100
0000
0000
0001
0100
0001
0000
1000
0000
0100
0000
0010
0000
,  // measure 73
0001
0010
0001
0010
0001
0010
0001
0000
0010
0000
0100
0000
1000
0000
0100
1000
,  // measure 74
0000
0000
0100
0000
0010
0000
0001
0010
0000
0000
0100
0000
1000
0100
1000
0100
,  // measure 75
0000
0000
0010
0000
0001
0000
0010
0001
0000
0000
1000
0000
0100
0000
1000
0100
,  // measure 76
0000
0000
0010
0001
0000
0000
0010
0001
0000
0000
1000
0010
0100
0001
1000
0010
,  // measure 77
0100
0010
0100
0010
1000
0001
1000
0001
1000
0000
0010
0000
0100
0000
0010
0100
,  // measure 78
0000
0000
0001
0000
1000
0000
0100
1000
0000
0000
0001
0000
0100
0000
0010
0100
,  // measure 79
0000
0000
0001
0000
1000
0000
0100
1000
0000
0000
0001
0000
0010
0000
0100
1000
,  // measure 80
0000
0000
1000
0100
0000
0000
0010
0001
0010
0000
0100
0000
1000
0000
0001
0000
,  // measure 81
0100
0010
0100
0010
0100
0010
0100
0000
2002
0000
0000
0000
0000
0000
0000
0000
,  // measure 82
0000
0000
0000
0000
,  // measure 83
0000
0000
0000
0000
0000
0000
0000
3003
;
