#TITLE:YEJI;
#SUBTITLE:;
#ARTIST:ginkiha;
#TITLETRANSLIT:;
#SUBTITLETRANSLIT:;
#ARTISTTRANSLIT:;
#CREDIT:SupremeX;
#BANNER:YEJI.png;
#BACKGROUND:YEJI-bg.png;
#LYRICSPATH:;
#CDTITLE:CDTitle.png;
#MUSIC:YEJI.ogg;
#OFFSET:-0.376;
#SAMPLESTART:55.820;
#SAMPLELENGTH:12.000;
#SELECTABLE:YES;
#BPMS:0.000=173.000;
#STOPS:;
#BGCHANGES:;

//---------------dance-single - ----------------
#NOTES:
     dance-single:
     :
     Challenge:
     9:
     0.690,0.704,0.124,0.080,0.133: // measure 1
0000
0000
0000
0000
,  // measure 2
0000
0000
0000
0000
,  // measure 3
0000
0000
0000
0000
,  // measure 4
0000
0000
0000
0000
,  // measure 5
1000
0000
0001
0100
0001
0000
1000
0000
,  // measure 6
0010
0000
0000
0000
0100
0001
0000
0000
0101
0000
0000
0000
1000
0000
0010
0000
,  // measure 7
1000
0000
0001
0010
0100
0000
1000
0001
,  // measure 8
1000
0010
0100
0001
0100
0010
1000
0010
,  // measure 9
0100
0000
0001
0010
0100
1000
0010
1000
,  // measure 10
0001
0000
1000
0001
0010
0100
1000
0010
,  // measure 11
2000
0000
3001
0100
0020
0000
0031
0001
,  // measure 12
0200
0000
0310
0010
1000
0100
0010
0001
,  // measure 13
0002
0000
1003
0010
1000
0001
0100
0010
,  // measure 14
1000
0000
0001
0010
0100
1000
0010
0100
,  // measure 15
0010
0000
1000
0100
0010
0001
1000
0100
,  // measure 16
1000
0000
0000
0000
0010
0100
0010
0100
0010
1000
0001
1000
0001
1000
0001
0000
,  // measure 17
1000
0000
0010
1000
0010
0000
1000
0000
,  // measure 18
0100
0000
0010
0001
0010
0000
0100
0000
,  // measure 19
1000
0010
0000
0010
1000
0000
0001
0000
,  // measure 20
1001
0000
1000
0000
0001
0100
0001
0000
,  // measure 21
1000
0000
0010
1000
0001
1000
0010
0100
,  // measure 22
0001
0000
1000
0010
1000
0001
0100
0001
,  // measure 23
1000
0000
0010
0100
0001
1000
0010
0000
,  // measure 24
1001
1000
0100
0010
,  // measure 25
0001
0000
0000
1000
0100
0000
1000
0000
0100
0000
0010
0000
0001
0000
0100
0000
,  // measure 26
0001
0000
1000
0010
0100
0001
1000
0010
,  // measure 27
0100
0001
0000
1000
0010
0000
1000
0000
,  // measure 28
1001
0000
0001
0010
0100
1000
0010
0100
,  // measure 29
0010
0000
0000
0000
1000
0000
0001
0000
0100
0001
0100
0000
0001
0000
1000
0000
,  // measure 30
0010
0000
0000
0000
1000
0010
1000
0000
0001
0000
0010
0000
0100
0000
1000
0000
,  // measure 31
0010
0000
0100
0001
0100
0010
1000
0000
,  // measure 32
1010
0000
0001
1000
0010
0100
0001
0000
,  // measure 33
1000
0010
0100
0001
1000
0000
0001
0000
,  // measure 34
1000
0000
0000
0000
0010
0100
0000
0000
0110
0000
0000
0000
0000
0000
0001
0000
,  // measure 35
0100
0000
0010
1000
0010
0000
1000
0000
0001
0000
0000
0000
0100
0000
0000
0000
,  // measure 36
1001
0000
0000
0000
0010
1000
0010
0000
1000
0000
0100
0000
0010
0000
0001
0000
,  // measure 37
1000
0010
0100
0010
1000
0000
0000
0000
,  // measure 38
0001
0000
0000
0000
0100
0010
0000
0000
0101
0000
0000
0000
1000
0000
0010
0000
,  // measure 39
1000
0000
0001
0010
0100
0000
1000
0100
,  // measure 40
1000
0000
0010
0000
0010
1000
0001
1000
,  // measure 41
0010
0100
0010
1000
0001
0000
0001
0000
,  // measure 42
1000
0100
0010
0001
1000
0000
1000
0000
,  // measure 43
0010
1000
0001
0100
0001
1000
0010
1000
,  // measure 44
0001
0100
0001
1000
0010
0000
1000
0000
,  // measure 45
0010
0100
0001
1000
0010
0000
0010
0000
,  // measure 46
1000
0100
0010
0001
1000
0000
0010
0100
,  // measure 47
0001
0100
0010
1000
0010
0100
0001
0010
,  // measure 48
0100
1000
0010
0100
0010
0000
1000
0000
,  // measure 49
0001
0000
0100
0000
0001
0100
0001
0000
0100
0000
0010
0000
1000
0000
0001
0000
,  // measure 50
1000
0000
0001
0000
0100
0001
0100
0000
0010
0000
1000
0000
0100
0000
0010
0000
,  // measure 51
0001
0000
1000
0000
0010
1000
0010
0000
1000
0000
0100
0000
0010
0000
0001
0000
,  // measure 52
0100
0000
0010
0000
1000
0010
1000
0000
0010
0000
1000
0000
0100
0000
0010
0000
,  // measure 53
0001
0000
0100
0000
0010
1000
0010
0000
1000
0000
0001
0000
0100
0000
0010
0000
,  // measure 54
1000
0000
0001
0000
0100
0001
0100
0000
0001
0000
1000
0000
0100
0000
0010
0000
,  // measure 55
0001
0000
0100
0000
0010
0100
0010
0000
0100
0000
0001
0000
1000
0000
0000
0000
,  // measure 56
0001
0000
1000
0000
0001
1000
0001
0000
1000
0000
0001
0000
0100
0000
0000
0000
,  // measure 57
0010
1000
0001
0100
0010
1000
0001
0100
,  // measure 58
0010
0000
1000
0100
0010
0001
1000
0001
,  // measure 59
2000
0001
3002
0100
,  // measure 60
0203
0000
0301
0000
1000
0010
1000
0001
,  // measure 61
2000
0000
3010
1000
0010
0000
0100
0001
,  // measure 62
0100
0000
0010
1000
0010
0100
0001
1000
,  // measure 63
0020
0000
1030
0100
0010
0001
1000
0100
,  // measure 64
1000
0001
0010
0001
1000
0100
0010
0001
,  // measure 65
1000
0010
1000
0001
0100
0000
0101
0000
,  // measure 66
0001
1000
0010
1000
0001
0000
0110
0000
,  // measure 67
1000
0100
0010
0001
1000
0010
1000
0100
,  // measure 68
0010
0001
1000
0100
1000
0000
1100
0000
,  // measure 69
0010
0001
0010
0100
1000
0000
0110
0000
,  // measure 70
0001
1000
0001
0100
0010
0000
1000
0001
,  // measure 71
1000
0000
0010
0100
0010
1000
0001
0100
,  // measure 72
0010
0100
0001
1000
0001
0010
0100
1000
,  // measure 73
1001
0000
0000
0000
0010
1000
0001
1000
,  // measure 74
0010
0100
0010
0100
0010
0100
0000
0000
0001
0000
1000
0000
0010
0000
1000
0000
,  // measure 75
0001
0000
0100
0000
0010
1000
0001
1000
,  // measure 76
0010
0000
0000
0000
0100
0010
0100
0000
0010
0000
1000
0000
0001
0000
0100
0000
,  // measure 77
0001
0000
1000
0000
0001
0000
0100
0001
0100
0000
0000
0000
0010
0000
0000
0000
,  // measure 78
1000
0000
0001
0000
1000
0000
0010
0100
0010
0000
1000
0001
1000
0000
0000
0000
,  // measure 79
0001
0010
0100
1000
0010
0100
0010
1000
,  // measure 80
0001
0100
0001
0000
0100
0001
1000
0000
1001
0000
0000
0000
0000
0000
0000
0000
;

//---------------dance-single - ----------------
#NOTES:
     dance-single:
     :
     Hard:
     9:
     0.614,0.598,0.089,0.000,0.000:
0000
0000
0000
0000
,
0000
0000
0000
0000
,
0000
0000
0000
0000
,
0000
0000
0000
0000
,
1000
0000
0010
0100
0010
0000
1000
0000
,
0001
0000
1010
0000
0101
0000
1000
0010
,
1000
0000
0001
0010
0100
0000
1000
0001
,
1000
0010
0100
0001
0100
0010
1000
0010
,
0100
0000
0001
0010
0100
1000
0010
1000
,
0010
0000
0100
0001
0010
0100
1000
0010
,
1000
0000
0001
0100
0010
0000
1000
0010
,
0100
0000
0001
1000
0100
0010
0001
0100
,
0001
0000
1000
0010
1000
0001
0100
0010
,
1000
0000
0001
0010
0100
1000
0010
0100
,
0010
0000
1000
0100
0010
0001
1000
0100
,
1000
0000
0001
0100
0010
1000
0001
1000
,
0010
0100
0001
1000
,
0001
1000
0010
1000
,
0001
0100
0000
0010
1000
0000
0001
0000
,
1001
1000
0010
0100
,
0001
0000
1000
0000
0100
0000
0010
0001
,
0010
0000
0100
0000
1000
0000
0010
0100
,
0010
0000
1000
0001
0100
0010
1000
0000
,
1010
0001
0100
0010
,
1000
0000
0010
0100
0010
1000
0001
0100
,
0010
0000
1000
0010
1000
0001
0100
0001
,
1000
0010
0000
0010
1000
0000
0001
0000
,
0101
0000
1000
0100
0010
0001
1000
0010
,
1000
0000
0010
0100
0010
1000
0001
0100
,
0010
0000
1000
0010
0100
0001
1000
0010
,
0100
0000
0001
0010
0100
1000
0010
0000
,
1010
0000
1000
0100
0010
0001
0000
0000
,
0100
0010
1000
0001
1000
0000
0010
0000
,
0100
0001
0100
0010
1000
0000
0010
0000
,
1000
0100
0010
0001
0100
0000
0010
0000
,
1001
0000
1000
0010
1000
0001
0100
0010
,
0100
0000
0001
1000
0010
0000
0010
0000
,
1000
0010
0100
0001
1000
0000
0010
0100
,
0010
0000
1000
0001
1000
0000
0010
0100
,
0001
0000
1000
0000
1000
0001
0100
0001
,
1000
0010
1000
0001
0100
0000
0010
0000
,
1000
0001
1000
0010
0100
0000
0001
0000
,
1000
0100
0010
0001
1000
0010
1000
0001
,
0100
0010
1000
0001
1000
0000
0010
0000
,
0100
0001
1000
0001
0100
0000
0010
0000
,
1000
0100
0010
0001
0100
0000
0010
1000
,
0001
1000
0010
0100
0010
1000
0001
0010
,
0100
1000
0001
0100
0001
0000
1000
0000
,
0010
0100
0010
1000
0001
0000
0100
0000
,
0010
1000
0001
0100
0001
0000
1000
0000
,
0010
1000
0010
0100
0001
1000
0001
1000
,
0010
0100
0010
0100
0001
0000
1000
0000
,
0010
1000
0001
0100
0010
0000
1000
0000
,
0010
1000
0001
0100
0010
0000
1000
0000
,
0001
0010
0100
1000
0010
0100
0010
0000
,
1000
0010
0100
0001
1000
0010
1000
0000
,
0100
0010
0001
0100
0010
1000
0001
0100
,
0010
0000
1000
0100
0010
0001
1000
0010
,
1000
0001
0100
0010
,
1000
0000
0001
0000
0100
0010
0100
0001
,
1000
0000
0010
1000
0010
0000
1000
0001
,
1000
0000
0010
1000
0010
0100
0001
0100
,
0010
0000
1000
0100
0010
0001
1000
0010
,
1000
0001
0100
0001
1000
0100
0010
0001
,
0100
0010
1000
0001
0100
0000
0100
0000
,
0001
1000
0010
1000
0001
0000
0100
0000
,
0001
0010
0100
1000
0010
0100
0001
0100
,
0010
1000
0100
0010
0001
0000
1000
0000
,
0010
1000
0001
1000
0010
0000
0100
0000
,
0010
1000
0010
0100
0001
0000
1000
0010
,
1000
0000
0001
0100
0010
0100
0001
1000
,
0010
1000
0001
0100
0001
0010
0100
1000
,
1001
0000
0000
0000
0010
1000
0001
1000
,
0010
0000
0100
0000
0001
1000
0010
1000
,
0001
0000
0100
0000
0010
1000
0001
1000
,
0010
0000
0100
0001
1000
0010
1000
0100
,
0010
0001
0100
0010
0100
0000
0001
0000
,
1000
0100
1000
0010
0100
0001
1000
0000
,
0010
1000
0010
0100
0001
0010
0100
1000
,
0010
1010
1001
0000
;

//---------------dance-single - ----------------
#NOTES:
     dance-single:
     :
     Medium:
     7:
     0.465,0.528,0.009,0.000,0.000:
0000
0000
0000
0000
,
0000
0000
0000
0000
,
0000
0000
0000
0000
,
0000
0000
0000
0000
,
1000
0010
1000
0001
,
0100
0000
0010
1000
0010
0000
0100
0000
,
0001
1000
0010
1000
,
0001
0000
0100
0010
0100
0000
0001
0000
,
1000
0100
0010
0001
,
0100
0000
0010
1000
0010
0000
1000
0100
,
1000
0100
0010
0001
,
0100
0000
0001
0000
1000
0010
0100
0001
,
1000
0010
0010
0100
,
0100
0000
0001
1000
0001
0000
0100
0010
,
0100
0000
0001
1000
0010
0000
0010
1000
,
0001
0001
0100
0010
,
0100
0001
1000
0010
,
1000
0001
0100
0000
,
0010
1000
0000
1000
0010
0000
0010
0000
,
0100
0100
0001
0001
,
1000
0000
1000
0000
0010
0100
0010
0000
,
1000
0000
0001
0000
1000
0100
0010
0000
,
0001
0000
0001
1000
0100
0010
0001
0000
,
0100
0001
1000
0010
,
1000
0000
0001
0100
0010
1000
0001
0100
,
0010
0000
1000
0100
0010
0001
1000
0010
,
1000
0100
0010
0001
,
1000
0010
1000
0001
,
0100
0000
0010
1000
0001
0100
0010
1000
,
0001
0000
0100
0010
0100
0001
1000
0000
,
1000
0010
0010
0100
,
0001
0100
0010
1000
,
0100
0010
0001
0000
,
1000
0010
0100
0000
,
0001
0010
0100
1000
,
0100
1000
0001
0010
,
0001
0010
0100
1000
0010
0000
0010
0000
,
0100
0001
0010
0100
1000
0000
0010
0000
,
1000
0100
0010
0001
1000
0000
0100
0000
,
1000
0000
0010
0100
0001
1000
0010
0000
,
1000
1000
0010
0010
,
0100
0000
0001
1000
0001
0000
1000
0000
,
0010
0000
0100
0010
0100
0000
0001
1000
,
0001
1000
0100
0010
,
0001
0000
1000
0100
1000
0000
0010
0000
,
0010
0000
0100
0001
0100
0000
0010
0000
,
1000
0000
0010
1000
0010
0000
0100
0001
,
1000
0000
1000
0001
0100
0000
0100
0000
,
0010
0000
0010
1000
0010
0000
0100
0000
,
0100
0000
0001
1000
0001
0000
0100
0000
,
0100
0000
0010
1000
0010
0000
1000
0000
,
1000
0000
0100
0010
0001
0000
1000
0000
,
0100
0000
0010
0001
0010
0000
0100
0000
,
1000
0000
0001
1000
0001
0000
1000
0000
,
0010
0000
1000
0000
0001
0100
0010
0000
,
0010
0000
1000
0000
0001
0010
0100
0000
,
1000
0010
1000
0001
,
0100
0000
0100
0010
1000
0000
1000
0001
,
0100
0100
0010
1000
,
0001
0000
0100
0000
0001
1000
0100
0010
,
0001
1000
0100
1000
,
0001
0000
0100
0010
0100
0001
1000
0001
,
0100
0010
0001
1000
,
0010
1000
0001
0100
,
0010
1000
0001
0100
,
0001
1000
0010
1000
,
0001
0000
0100
0010
0100
0000
0001
1000
,
0001
0000
0100
0010
1000
0000
0010
0000
,
1000
0001
0010
0100
,
1000
0010
1000
0001
,
0100
0010
0100
0000
0001
1000
0001
0000
,
1000
0010
0100
0000
0100
0000
0001
0000
,
0001
0000
1000
0000
0010
0100
0010
0100
,
0010
0100
0001
0000
0010
0000
0100
0000
,
1000
0000
0010
0000
0100
0001
0100
0001
,
0100
0010
1000
0001
,
0100
0010
1000
0000
,
0100
0010
0001
1000
,
0100
1000
0001
0100
,
0001
1000
1001
0000
;

//---------------dance-single - ----------------
#NOTES:
     dance-single:
     :
     Easy:
     4:
     0.314,0.317,0.009,0.150,0.000:
0000
0000
0000
0000
,
0000
0000
0000
0000
,
0000
0000
0000
0000
,
0000
0000
0000
0000
,
1000
0010
1000
0001
,
0100
0010
0010
0000
,
1000
0000
0001
0000
,
0100
0010
1000
0001
,
0100
0010
0100
0010
,
0100
0001
1000
0010
,
0200
0000
0302
0000
,
0023
0000
0130
1000
,
0020
0000
0000
0030
,
1000
0001
0100
0010
,
2000
0000
3020
0000
,
0230
0000
0302
0000
,
1003
0000
0000
0000
,
0001
0000
1000
0000
,
0010
0000
0100
0001
,
0100
0000
0010
0000
,
1000
0000
0001
0000
,
1000
0000
0010
0000
,
0100
0001
1000
0010
,
0100
0000
0001
0000
,
1000
1000
0010
0010
,
0100
0100
0001
0001
,
1000
0010
1000
0001
,
0100
0000
0010
0000
,
1000
1000
0001
0001
,
0100
0100
0010
0010
,
1000
0000
0001
0100
,
0010
0000
1000
0000
,
0001
1000
1000
0000
,
0010
0100
0100
0000
,
0001
0000
1000
0000
,
0010
0100
0001
0100
,
0010
0000
1000
0000
,
0001
1000
0010
0100
,
0001
1000
0010
0100
,
0001
0001
1000
1000
,
0010
0100
0010
0100
,
0001
1000
0010
0100
,
0001
1000
1000
0010
,
0010
0100
0100
0001
,
1000
0010
0100
0001
,
1000
0010
0010
0000
,
0100
0000
0001
0000
,
1000
0010
0100
0001
,
1000
0000
0010
0000
,
0100
0001
1000
0010
,
0100
0001
1000
1000
,
0010
0100
0001
0001
,
1000
0010
0100
0001
,
1000
0000
0010
0000
,
1000
0001
0100
0010
,
1000
0000
1000
0000
,
0002
0000
0000
0000
0000
0000
0000
0103
,
0000
0000
0010
0000
,
2000
0000
0000
3000
0020
0000
0000
0000
,
0230
0000
0000
0300
0002
0000
0000
0003
,
2000
0000
0000
3000
,
0010
0000
0100
0001
,
2000
0000
3020
0000
,
0230
0000
0301
1000
,
0010
1000
0001
0000
,
0100
0100
0001
0000
,
1000
0010
0100
0001
,
1000
1000
0010
0000
,
0100
0000
0001
0000
,
1000
0010
0100
0001
,
1000
0000
0010
0000
,
1000
0010
1000
0001
,
0100
0100
0010
0010
,
0010
0000
1000
0000
,
0001
0000
0100
0100
,
0010
1000
0001
1000
,
0010
0100
0100
0001
,
1000
0010
0010
1000
,
0001
0100
0010
1000
,
0001
1000
1001
0000
;

//---------------dance-single - Copied from----------------
#NOTES:
     dance-single:
     Copied from:
     Beginner:
     2:
     0.149,0.176,0.000,0.000,0.000:
0000
0000
0000
0000
,
0000
0000
0000
0000
,
0000
0000
0000
0000
,
0000
0000
0000
0000
,
1000
0000
0000
0000
,
1000
0000
0000
0000
,
1000
0000
0000
0000
,
1000
0000
0000
0000
,
0001
0000
0000
0000
,
0000
0000
0001
0000
,
0001
0000
0100
0000
,
0100
0000
0010
0000
,
0010
0000
0010
0000
,
0010
0000
0100
0000
,
0100
0000
0100
0000
,
0100
0000
0001
0000
,
1000
0000
0000
0000
,
1000
0000
0000
0000
,
1000
0000
0001
0000
,
1000
0000
0000
0000
,
0001
0000
0000
0000
,
0001
0000
0000
0000
,
0001
0000
1000
0000
,
0001
0000
0000
0000
,
0100
0000
0000
0000
,
0100
0000
0000
0000
,
0100
0000
0100
0000
,
0100
0000
0000
0000
,
0010
0000
0000
0000
,
0010
0000
0000
0000
,
0010
0000
0010
0000
,
0010
0000
0000
0000
,
1000
0000
1000
0000
,
0001
0000
0001
0000
,
1000
0000
0000
0000
,
1000
0000
0000
0000
,
1000
0000
1000
0000
,
0001
0000
0001
0000
,
1000
0000
0000
0000
,
0001
0000
0000
0000
,
0100
0000
0100
0000
,
0100
0000
0100
0000
,
0100
0000
0100
0000
,
0100
0000
0100
0000
,
0010
0000
0010
0000
,
0010
0000
0010
0000
,
0010
0000
0010
0000
,
0010
0000
0010
0000
,
1000
0000
0000
0000
,
0001
0000
0000
0000
,
1000
0000
0000
0000
,
0001
0000
0000
0000
,
0100
0000
0000
0000
,
0010
0000
0000
0000
,
0100
0000
0000
0000
,
0010
0000
0000
0000
,
1000
0000
0000
0000
,
1000
0000
0001
0000
,
0001
0000
0100
0000
,
0001
0000
0010
0000
,
1000
0000
0000
0000
,
1000
0000
0001
0000
,
1000
0000
0000
0000
,
0001
0000
1000
0000
,
0010
0000
0100
0000
,
0001
0000
1000
0000
,
0001
0000
0001
0000
,
0001
0000
0001
0000
,
1000
0000
1000
0000
,
1000
0000
1000
0000
,
1000
0000
0010
0000
,
0100
0000
0010
0000
,
0100
0000
0001
0000
,
0001
0000
0000
0000
,
1000
0000
1000
0000
,
1000
0000
1000
0000
,
0010
0000
0010
0000
,
0100
0000
0100
0000
,
0001
0000
1000
0000
,
0001
0000
1000
0000
;
