#TITLE:XXX-revolt;
#SUBTITLE:;
#ARTIST:void feat. KOTOKO;
#TITLETRANSLIT:;
#SUBTITLETRANSLIT:;
#ARTISTTRANSLIT:;
#CREDIT:SupremeX;
#BANNER:XXX-revolt.png;
#BACKGROUND:XXX-revolt-bg.png;
#LYRICSPATH:;
#CDTITLE:CDTitle.png;
#MUSIC:XXX-revolt.ogg;
#OFFSET:-7.768;
#SAMPLESTART:89.210;
#SAMPLELENGTH:12.000;
#SELECTABLE:YES;
#BPMS:0.000=152.020;
#STOPS:174.750=0.385
;
#BGCHANGES:;

//---------------dance-single - ----------------
#NOTES:
     dance-single:
     :
     Hard:
     8:
     0.433,0.490,0.057,0.179,0.183: // measure 1
2000
0000
0000
0000
,  // measure 2
3020
0000
0000
0000
,  // measure 3
0230
0000
0000
0000
,  // measure 4
0302
0000
0000
0003
,  // measure 5
1000
0010
1000
0001
,  // measure 6
0100
0010
1000
0000
0001
0010
0100
0000
,  // measure 7
1000
0010
0100
0001
,  // measure 8
1000
0100
0010
0000
0001
0100
0010
0000
,  // measure 9
0010
1000
1000
0001
,  // measure 10
0100
0001
0100
0000
0010
1000
0001
0000
,  // measure 11
0001
1000
0100
0010
,  // measure 12
0001
0100
0001
0000
1000
0010
0100
0000
,  // measure 13
0100
0000
0001
0010
0100
1000
0000
0010
,  // measure 14
0000
0100
0000
0001
1000
0000
1100
0000
,  // measure 15
0000
0000
0010
0001
0010
0100
0000
1000
,  // measure 16
0000
0010
0000
0100
0001
0000
0011
0000
,  // measure 17
0100
0000
1000
0010
0000
0010
0000
0200
,  // measure 18
0001
0000
0001
0000
0301
1000
0100
0010
,  // measure 19
0001
0000
1000
0010
0000
0010
0000
2000
,  // measure 20
0000
0000
0000
3002
0000
0000
0000
0003
,  // measure 21
0100
0000
0100
0010
1000
0010
0000
0100
,  // measure 22
0000
0001
0000
1000
0010
0000
1010
0000
,  // measure 23
0100
0000
0001
0010
0100
1000
0000
0010
,  // measure 24
0000
1000
0000
0010
0100
0000
0101
0000
,  // measure 25
1000
0000
0010
0100
0000
0100
0000
0002
,  // measure 26
0000
0000
0100
0000
0103
0000
0010
1000
,  // measure 27
0010
0000
0100
0001
0000
0001
0000
1000
,  // measure 28
0010
0000
0000
0100
0000
0000
0010
0000
0100
0000
0000
0010
0000
0100
0000
0000
0010
0000
0000
0000
1000
0000
0000
0000
0001
0000
0000
0000
0100
0000
0000
0000
,  // measure 29
0010
0000
0000
1000
0000
0000
0010
0000
0000
0000
1000
0000
0100
0000
0010
0000
,  // measure 30
0001
0000
0000
0100
0000
0000
0001
0000
0000
0000
0000
0000
1000
0000
0100
0000
,  // measure 31
0010
0000
0000
0001
0000
0000
0010
0000
0000
0000
0100
0000
1000
0000
0100
0000
,  // measure 32
0010
0000
0000
0001
0000
0000
0010
0000
0000
0000
0000
0000
0100
0000
0000
0000
,  // measure 33
2000
0000
0000
3200
0000
0000
0000
0000
,  // measure 34
0320
0000
0000
0032
0000
0000
0103
0000
,  // measure 35
0001
0000
0000
1000
0000
0000
0010
0000
0000
0000
0010
0000
1000
0000
0001
0000
,  // measure 36
0100
0000
0000
0010
0000
0000
0100
0000
0000
0000
0000
0000
0001
0000
0000
0000
,  // measure 37
1001
0000
0000
0000
1000
0000
0000
0010
0000
0000
0100
0000
0001
0000
0000
1000
,  // measure 38
0000
0000
0010
0000
0100
0000
0000
0001
0000
0000
1000
0000
0010
1000
0000
0000
,  // measure 39
0001
0000
0100
0000
0010
1000
0000
1000
0010
0000
0100
0000
0001
0000
0100
0000
,  // measure 40
0010
0000
0000
0000
1000
0000
0000
0000
0010
0000
0100
0000
0000
0001
0000
0000
,  // measure 41
0100
0000
0000
0000
0010
0000
0000
1000
0000
0000
0000
0000
0001
0000
0100
0000
,  // measure 42
0000
0000
0100
0000
0010
0000
0000
1000
0000
0000
0010
0000
0100
0000
0000
0000
,  // measure 43
0100
0001
0001
1000
,  // measure 44
0010
0000
0000
0000
0100
0001
0100
0001
0100
0001
0100
0001
1000
0000
0000
0000
,  // measure 45
0100
1000
0100
0000
0010
0001
0010
0100
,  // measure 46
1000
0100
0010
0000
0001
1000
0001
0100
,  // measure 47
0010
0100
0010
1000
0001
0000
0100
0010
,  // measure 48
1000
0000
0010
0000
0100
0000
0001
0000
0100
0000
0000
0000
0010
0000
0000
0010
,  // measure 49
1000
0000
0000
1000
0000
0000
0010
0000
0100
0000
0001
0000
0100
0000
0010
0000
,  // measure 50
0010
1000
0000
1010
0000
0000
0001
0000
0100
0000
0001
0000
0100
0000
0010
0000
,  // measure 51
1000
0000
0001
0000
0100
0000
0001
0000
0010
0000
0100
0000
1000
0000
0000
0010
,  // measure 52
1000
0000
0000
0001
0100
0000
0000
0000
0001
0000
1000
0000
0010
0000
0000
1000
,  // measure 53
0000
0000
1000
0000
0000
0000
0010
0000
0100
0000
0001
0000
1000
0000
0000
0010
,  // measure 54
0000
0000
0100
0000
0000
0000
0000
0000
0001
0000
1000
0000
0010
0000
0000
0100
,  // measure 55
0000
0000
0001
0000
0000
0000
1000
0000
0100
0000
1000
0000
0001
0000
0000
0100
,  // measure 56
0000
0100
0000
0000
0010
0000
2000
0000
,  // measure 57
0000
3020
0000
0030
0000
0000
0200
0000
,  // measure 58
0000
0000
0302
0000
0000
0000
0000
0000
0103
0000
0000
0000
0100
0000
0000
0010
,  // measure 59
0000
0000
1000
0000
0000
0010
0000
0000
1000
0000
0100
0000
0010
0000
0000
0001
,  // measure 60
0000
0000
0010
0000
0000
0000
0000
0000
0100
0000
1000
0000
0100
0000
0000
0010
,  // measure 61
0000
0000
0001
0000
0000
0000
1000
0000
0100
0000
0010
0000
0001
0000
0000
0100
,  // measure 62
0000
0000
0020
0000
0000
0000
0030
0000
1000
0000
0010
0000
1000
0000
0000
0100
,  // measure 63
0000
0000
0010
0000
0000
0000
0001
0000
1000
0000
0010
0000
0100
0000
0000
0001
,  // measure 64
0000
2000
0000
3000
0010
0000
0010
0000
,  // measure 65
0100
0001
0000
0000
1000
0000
0020
0000
,  // measure 66
0000
0000
2030
0000
0000
0000
0000
0000
3001
0000
0000
0000
0100
0000
0000
0100
,  // measure 67
0000
0000
0010
0000
0000
0010
0000
0000
1000
0000
0001
0000
1000
0000
0000
0010
,  // measure 68
0000
0010
0000
0000
0000
0000
1000
0000
0000
0001
0000
0000
2002
0000
0000
0000
,  // measure 69
0000
0000
0000
0000
,  // measure 70
0000
0000
0000
0000
,  // measure 71
0000
0000
0000
3003
;

//---------------dance-single - ----------------
#NOTES:
     dance-single:
     :
     Medium:
     6:
     0.289,0.317,0.033,0.098,0.024:
1000
0000
0010
0000
,
0100
0000
0001
0000
,
1000
0100
0010
0001
,
1000
0010
0100
0001
,
1000
1000
0010
0010
,
0100
0100
0001
0001
,
1000
0010
1000
0001
,
0100
0001
0010
0100
,
1000
1000
0010
0010
,
0100
0100
0001
0001
,
1000
0010
1000
0001
,
0100
0010
1000
0001
,
1000
0000
0010
0100
0010
0100
0000
0001
,
0000
1000
0000
0001
0100
0000
0100
0000
,
0000
0000
0010
0000
1000
0000
0000
0001
,
0000
0100
0000
0010
0100
0000
0010
0000
,
1000
0000
0001
1000
0000
0010
0000
0200
,
0000
0000
0000
0300
0001
0000
0010
0000
,
0100
0000
1000
0010
0000
1000
0000
0002
,
0000
0000
0000
0103
0000
0000
0000
0000
,
0100
0010
1000
0001
,
0100
0010
1000
1001
,
0000
0100
0001
1000
,
0010
0100
0001
0110
,
1000
0000
0010
1000
0000
0001
0000
1000
,
0000
0000
0000
0000
,
0010
0000
0010
0100
0000
0100
0000
0020
,
0000
0000
0000
0030
0000
0000
0000
0000
,
1000
0000
0000
0001
0000
0000
0000
0000
,
1000
0000
0000
1010
0000
0000
0000
0000
,
0100
0000
0000
0100
0000
0000
0000
0000
,
0001
0000
0000
0001
0000
0000
1000
0000
,
0100
0000
0000
0100
0000
0000
0000
0000
,
0010
0000
0000
0010
0000
0000
0001
0000
,
1000
1000
0010
0010
,
0100
0001
1000
0010
,
0200
0000
0000
0000
,
0300
0002
0000
0000
,
0000
2000
0000
0000
,
0000
0000
0000
3003
0000
0000
1000
0000
,
0020
0000
0000
0000
,
0000
0000
0200
0000
0000
0000
0000
0030
,
0000
0002
0000
0000
,
0000
0000
0000
0000
0000
0303
1000
0000
,
1000
0010
0010
0100
,
0001
1000
0001
0001
,
0010
0100
1000
0001
,
1000
0000
0010
0000
0100
0000
0001
1000
,
0010
0000
0100
0000
0001
0000
1000
0010
,
1000
0000
0001
0000
0100
0000
0001
1000
,
0010
0100
0001
0000
1000
0000
0010
0100
,
0001
1000
0000
0000
0010
0000
0100
0000
,
0001
0000
0000
0000
1000
0000
0000
0000
0001
0000
0000
0000
0100
0000
0000
0010
,
0000
0100
0000
0000
0001
0000
1000
0000
,
0010
0000
0000
0000
0100
0000
0000
0000
0001
0000
0000
0000
1000
0000
0000
0100
,
0000
1000
0000
0000
0001
0000
0200
0000
,
0000
0301
0000
0000
0000
0000
1000
0000
,
0000
0000
0010
0000
0000
0000
0000
0000
0100
0000
0000
0000
0001
0000
0000
0010
,
0000
0000
0100
0000
0000
1000
0000
0000
0010
0000
0100
0000
0001
0000
0000
1000
,
0000
1000
0000
0000
0010
0000
0010
0000
,
1000
0000
0001
0000
0100
0010
1000
0000
,
1000
0000
1000
0000
0001
0010
0100
0000
,
1000
0000
0010
0000
0100
0000
0001
0100
,
0001
1000
0000
0000
0010
0000
0100
0000
,
0001
0010
0100
1000
,
0100
0000
0010
0000
0000
0000
0000
0000
0001
0000
0000
0000
1000
0000
0000
0010
,
0000
1000
0000
0010
0100
0010
0100
0000
,
0000
0000
0000
0001
0000
0000
2002
0000
,
0000
0000
0000
0000
,
0000
0000
0000
0000
,
0000
0000
0000
3003
;

//---------------dance-single - ----------------
#NOTES:
     dance-single:
     :
     Easy:
     4:
     0.231,0.259,0.008,0.049,0.000:
1000
0000
0010
0000
,
0100
0000
0001
0000
,
1000
0000
0010
0000
,
0100
0000
0001
0000
,
1000
1000
0010
0010
,
0100
0100
0001
0001
,
1000
1000
0010
0010
,
0100
0100
0001
0001
,
1000
0010
1000
0010
,
0100
0001
0100
0001
,
1000
0010
1000
0010
,
0100
0001
0100
0001
,
1000
0010
0100
0001
,
1000
0010
0100
0100
,
0000
0001
0010
0100
,
1000
0001
0100
0100
,
0010
0000
0000
1000
0000
0001
0000
1000
,
0000
0000
0010
0010
,
0100
0000
0001
0000
1000
0000
0000
0020
,
0000
0000
0000
0230
0000
0000
0300
0000
,
0000
0001
0001
0001
,
0001
1000
0001
1000
,
0000
0010
0010
0010
,
0010
0100
0010
0100
,
0001
1000
0010
1000
,
1000
1000
1000
0001
,
0100
0010
1000
0001
,
0001
0001
0001
0000
,
1000
0000
0000
0010
0000
0000
0000
0000
,
0100
0000
0000
0100
0000
0000
0000
0000
,
0001
0000
0000
1000
0000
0000
0000
0000
,
0010
0000
0000
0010
0000
0000
0000
0000
,
1000
0000
0000
1000
0000
0000
0000
0000
,
0001
0000
0000
0001
0000
0000
0000
0000
,
0100
0000
0000
0010
0000
0000
0000
0000
,
1000
0000
0000
0001
0000
0000
0000
0000
,
0200
0000
0000
0000
,
0000
0000
0000
0000
,
0000
0000
0000
0000
,
0300
0000
0000
0000
,
0020
0000
0000
0000
,
0000
0000
0000
0000
,
0000
0000
0000
0000
,
0000
0000
0030
1000
,
1000
1000
1000
0001
,
0001
0001
0001
0100
,
0100
0100
0100
0010
,
0010
0010
0010
1000
,
0001
1000
0001
0100
,
0010
0100
0010
1000
,
0001
1000
0001
0100
,
0010
0000
0000
1000
,
0000
1000
0000
0000
0001
0000
0100
0000
,
0010
0000
1000
0001
,
0000
0001
0000
0000
0100
0000
0010
0000
,
1000
0001
0000
0100
,
0000
0100
0000
0000
0000
0000
0010
0000
,
0000
0010
0000
0000
0000
0000
1000
0000
,
0000
0001
0000
0000
1000
0000
0001
0000
,
1000
0010
0000
0100
,
0100
0100
0001
1000
,
0000
0001
0000
0000
1000
0000
0010
0000
,
0100
0001
1000
0001
,
0000
0001
0000
0000
0100
0000
0010
0000
,
0000
0010
0000
0000
0000
0000
1000
0000
,
0000
0001
0000
0000
1000
0000
0010
0000
,
0100
0001
1000
0010
,
0000
0000
0000
1000
0000
0000
2002
0000
,
0000
0000
0000
0000
,
0000
0000
0000
0000
,
0000
0000
0000
0000
0000
3003
0000
0000
;

//---------------dance-single - Copied from----------------
#NOTES:
     dance-single:
     Copied from:
     Beginner:
     1:
     0.075,0.083,0.000,0.000,0.000:
1000
0000
0000
0000
,
1000
0000
0000
0000
,
1000
0000
0000
0000
,
1000
0000
0000
0000
,
0001
0000
0000
0000
,
0001
0000
0000
0000
,
0001
0000
0000
0000
,
0001
0000
0000
0000
,
0100
0000
0000
0000
,
0100
0000
0000
0000
,
0100
0000
0000
0000
,
0100
0000
0000
0000
,
0010
0000
0000
0000
0000
0000
0000
0010
,
0000
0000
0000
0000
,
0010
0000
0000
0000
0000
0000
0000
0010
,
0000
0000
0000
0000
,
1000
0000
0000
0000
0000
0000
0000
1000
,
0000
0000
0000
0000
,
1000
0000
0000
0000
0000
0000
0000
1000
,
0000
0000
0000
0000
,
0001
0000
0000
0000
0000
0000
0000
0001
,
0000
0000
0000
0000
,
0001
0000
0000
0000
0000
0000
0000
0001
,
0000
0000
0000
0000
,
0100
0000
0000
0000
0000
0000
0000
0100
,
0000
0000
0000
0000
,
0010
0000
0000
0000
0000
0000
0000
0010
,
0000
0000
0000
0000
,
1000
0000
0000
0000
,
1000
0000
0000
0000
,
1000
0000
0000
0000
,
1000
0000
0000
0000
,
0001
0000
0000
0000
,
0001
0000
0000
0000
,
0001
0000
0000
0000
,
0001
0000
0000
0000
,
0100
0000
0000
0000
,
0000
0000
0010
0000
,
0000
0000
0000
0000
,
0000
0000
0000
0000
,
0100
0000
0000
0000
,
0000
0000
0010
0000
,
0000
0000
0000
0000
,
0000
0000
0000
1000
,
0000
0000
0000
0000
,
1000
0000
0000
0000
,
0001
0000
0000
0000
,
0001
0000
0000
0100
,
0000
0000
0000
0000
,
0000
0100
0000
0000
0000
0000
0000
0000
,
0000
0000
0000
0000
,
0010
0000
0000
1000
,
0000
0000
0000
1000
,
0000
0000
0000
1000
,
0000
0000
0000
1000
,
0000
0000
0000
0001
,
0000
0000
0000
0001
,
0000
0000
0000
0001
,
0000
0000
0000
0001
,
0000
0000
0000
0100
,
0000
0000
0000
0100
,
0000
0000
0000
0100
,
0000
0000
0000
0100
,
0000
0000
0000
0010
,
0000
0000
0000
0010
,
0000
0000
0000
0010
,
0000
0000
0000
0010
,
0000
0000
0000
1000
;
