#TITLE:Welcome to the Mosh Pit;
#SUBTITLE:;
#ARTIST:lapix;
#TITLETRANSLIT:;
#SUBTITLETRANSLIT:;
#ARTISTTRANSLIT:;
#CREDIT:SupremeX;
#BANNER:Welcome to the Mosh Pit-bn.png;
#BACKGROUND:Welcome to the Mosh Pit-bg.png;
#LYRICSPATH:;
#CDTITLE:;
#MUSIC:Welcome to the Mosh Pit.ogg;
#OFFSET:-2.297;
#SAMPLESTART:47.240;
#SAMPLELENGTH:12.000;
#SELECTABLE:YES;
#BPMS:0.000=172.000;
#STOPS:;
#BGCHANGES:0.000=Welcome to the Mosh Pit.avi=1.000=1=1=0,
99999=-nosongbg-=1.000=0=0=0 // don't automatically add -songbackground-
;

//---------------dance-single - ----------------
#NOTES:
     dance-single:
     :
     Hard:
     9:
     0.741,0.837,0.474,0.530,0.237:
0000
0000
0000
0000
,
0000
0000
0000
0000
,
0000
0000
0000
0000
,
0000
0000
0000
0000
,
0000
1100
0000
0000
,
0000
1001
0000
0000
0000
0100
0100
0010
,
0010
0101
0000
0000
0000
0000
0000
0000
,
1000
0100
1000
0000
0100
0000
0000
0000
0000
0000
0100
0000
0010
0000
0100
0010
,
0100
0000
0001
0010
0001
0010
0100
0110
,
0000
0000
1000
0100
1000
0100
1000
0100
,
0000
0000
0010
0001
0010
0100
0010
0001
,
0010
0100
1000
0100
0010
0100
1000
0100
,
0010
0100
0110
0001
0001
1000
1000
0010
,
0010
0100
0100
0001
0001
1000
1000
0100
,
0100
1000
1100
0000
0020
0000
0000
0000
,
0000
0000
0031
0011
,
0110
0000
0000
0000
1100
0000
0000
0000
0010
0000
0000
0100
0010
0000
0000
0000
,
0100
0000
0000
0000
0001
0000
0000
0000
1000
0000
0000
0100
1000
0000
0000
0000
,
0100
0000
0010
0000
0100
0000
0000
0000
0001
0000
0000
0100
0001
0000
0000
0000
,
1000
0100
0010
0100
1000
0010
0100
0010
,
0100
0000
0010
0000
1000
0000
0000
0000
0001
0000
0000
0100
0001
0000
0000
0000
,
0101
0000
0000
0000
1010
0000
0000
0000
0010
0000
0000
0000
1000
0010
0000
0000
,
1010
0000
0000
0000
0101
0000
0000
0000
1001
0000
0000
0100
0010
0000
0000
0000
,
1001
0000
0000
0000
0100
0000
0000
0110
0000
0000
0010
0000
0010
0000
0000
1001
,
0000
0100
1100
0100
1100
0100
0010
0001
,
0010
0100
0010
0001
0011
0001
0010
0100
,
0010
0001
0010
0100
1100
1000
0100
0010
,
0110
0000
0001
0000
0010
0000
0100
0000
0101
0000
0010
0000
1000
0100
1000
0000
,
1000
0100
1000
0000
0010
0000
0100
0000
0110
0000
0001
0000
0010
0000
0100
0000
,
1010
0100
0010
0001
0101
0010
1000
0100
,
0110
0000
0001
0000
0010
0000
0100
0000
0110
0000
1000
0000
0010
0100
0010
0000
,
0010
0100
0010
0000
2002
0000
0000
0000
0000
0000
3003
0000
0000
0000
1001
0000
,
0000
0000
0000
0000
0200
0000
0000
0320
0000
0000
1030
0000
0000
0000
1000
0000
,
1000
0100
1000
0100
0020
0000
0000
0032
0000
0000
0013
0000
0000
0000
0100
0000
,
1000
0100
1000
0100
0020
0000
0000
0032
0000
0000
1003
0000
0100
1000
0100
1000
,
0100
1000
0000
0000
0200
0000
0000
2300
0000
0000
3002
0000
0000
0203
0000
0000
,
0320
0000
0000
0000
2030
0000
0000
3200
0000
0000
0310
0000
0010
0000
0000
0002
,
0000
0000
0013
0000
0010
0000
0000
0200
0000
0000
1300
0000
2000
0000
0000
3002
,
0000
0000
0103
0000
0120
0000
0000
2030
0000
0000
3200
0000
0000
0320
0000
0000
,
0032
0000
0000
0013
0000
0000
0110
0000
0000
1100
0000
0000
0010
0100
0010
0100
,
0010
0002
2003
3200
,
2300
3000
0200
0320
,
0032
0013
0020
0230
,
2300
3020
0230
0302
,
1003
2000
3200
0320
,
0032
2003
3002
2003
,
3001
0020
0230
0302
,
2003
3200
0320
0032
,
1003
0100
1000
0100
2000
0000
0000
0000
0000
0000
0000
0000
0000
0000
3100
1000
,
0100
1000
0200
0000
0310
0000
0010
0000
0001
0000
0200
0000
0000
0000
0310
0000
,
0010
2000
0000
3000
0001
1000
0001
0100
,
0001
1000
0001
0100
0001
1000
0010
0000
,
1001
0000
0010
0100
0010
1000
0010
0100
,
0010
0110
0000
0001
0100
0020
0000
1030
,
0001
0200
0000
0300
0010
1000
0001
1000
,
0010
0000
0100
0000
0010
0100
0010
0000
0010
0100
0010
0000
0010
0100
0010
0000
,
1001
0000
1000
0100
0010
0100
1000
1100
,
0000
0000
0010
0001
0010
0100
0010
0001
,
0010
0100
1000
0100
1000
0001
1000
1001
,
0000
0001
0100
0001
1000
0001
0100
0010
,
0110
0000
0001
0010
0100
0010
0001
0010
,
0100
1000
0100
0010
0100
1000
0100
0010
,
0001
0010
0100
0010
0001
0010
0100
1000
,
0100
0010
2002
0000
0000
0000
0000
3003
,
1001
0000
0000
0000
0100
0000
0010
0100
0010
0000
0100
0000
0010
0000
1000
0010
,
1000
0000
0010
0000
0001
0000
0100
0001
0100
0000
0001
0000
1000
0000
0100
1000
,
0100
0000
1000
0000
0001
0000
0100
0001
0100
0000
0001
0000
1000
0000
0100
1000
,
0100
0000
1000
0000
0010
0000
0000
0110
0000
0000
0110
0000
0000
0000
0001
0000
,
0010
0000
0000
0000
0100
0000
0010
0100
0010
0000
0100
0000
0010
0000
1000
0010
,
1000
0000
0010
0000
0100
0000
0001
0100
0001
0000
0100
0000
0010
0000
1000
0010
,
1000
0000
0010
0000
0100
0000
0010
0100
0010
0000
0100
0000
0001
0000
0100
0001
,
0100
0000
0001
0000
1000
0000
0000
1100
0000
0000
0110
0000
0001
0000
0010
0000
,
0100
1000
0020
0000
0130
0001
0001
0010
,
0100
1000
0010
0100
0001
1000
0010
0100
,
0010
0100
0002
0000
1003
0100
0010
0001
,
0010
0100
0010
0001
0010
0100
1000
0100
,
0010
0100
2000
0000
3010
0100
0001
0010
,
0100
1000
0100
0010
0001
0100
0010
0100
,
0001
1000
0200
0000
1300
1000
0100
0010
,
0001
0100
0010
1000
0001
0100
0010
1000
,
1001
0110
0101
1010
,
1001
0110
1100
0110
,
0011
0000
0000
0000
1001
0000
0000
0000
0100
0000
0000
1000
0100
0000
0000
0000
,
0110
0000
0000
0000
0101
0000
0000
0000
0010
0000
0000
1000
0100
0000
0000
0000
,
1001
0220
0000
0000
,
0000
0000
0000
0000
,
0000
0000
0000
0000
0000
0000
0000
0330
;

//---------------dance-single - ----------------
#NOTES:
     dance-single:
     :
     Challenge:
     11:
     0.913,0.976,0.626,0.393,0.554: // measure 1
0000
0000
0000
0000
,  // measure 2
0000
0000
0000
0000
,  // measure 3
0000
0000
0000
0000
,  // measure 4
0000
0000
0000
0000
,  // measure 5
0000
0000
0000
0000
1100
0000
0000
0000
0000
0000
0000
0000
0001
0100
0010
1000
,  // measure 6
0001
1001
0010
0100
0010
1000
1000
0100
,  // measure 7
0100
1100
0000
0000
0000
0000
0000
0000
,  // measure 8
0010
0001
0010
0000
0011
0000
0000
0000
0000
0000
0100
0000
1000
0000
0100
1000
,  // measure 9
0100
0000
1001
0010
0100
0001
1000
0220
,  // measure 10
0000
0000
0330
0000
0001
0100
0001
0100
0001
0100
0001
0100
0001
0100
0001
0000
,  // measure 11
1000
0000
0010
0100
0010
0100
0010
0100
0010
0100
0010
0100
0010
0000
1000
0000
,  // measure 12
0001
0000
1000
0000
0100
1000
0100
1000
0100
1000
0100
1000
0100
1000
0100
1000
,  // measure 13
0100
0010
0110
0001
0001
1000
1000
0010
,  // measure 14
0010
0100
0100
0001
0001
1000
1000
0100
,  // measure 15
0100
1000
1100
0100
1020
0000
0000
0000
,  // measure 16
0000
0000
0100
0100
0130
0000
0110
0000
,  // measure 17
0101
0000
0000
0000
1010
0000
0000
0000
2000
0000
0000
3100
1000
0000
0000
0000
,  // measure 18
0020
0000
0000
0000
0230
0000
0000
0000
0302
0000
0000
0103
0001
0000
0000
1000
,  // measure 19
0100
0000
1000
0100
1000
0000
0000
0000
0020
0000
0000
0130
0010
0000
0000
0000
,  // measure 20
0100
0001
1000
0100
0010
0001
1001
0100
,  // measure 21
0010
0000
0100
0000
0020
0000
0000
0000
2030
0000
0000
3100
1000
0000
0000
0000
,  // measure 22
0101
0000
0010
0000
1010
0000
0000
0000
0110
0000
0000
1000
0001
0000
0000
0000
,  // measure 23
0011
0000
0100
0000
1100
0000
0000
0000
1001
0000
0000
0100
0010
0000
0000
0000
,  // measure 24
0101
0000
0010
0000
1010
0000
0000
0110
0000
0000
0001
0000
0001
0000
0000
1001
,  // measure 25
0000
0000
0100
0000
0110
0000
0010
0000
1010
0000
0100
0000
0010
0000
0001
0010
,  // measure 26
0100
0000
1000
0100
0010
0000
0001
0000
0011
0000
0001
0010
0100
0000
1000
0100
,  // measure 27
0010
0000
0001
0000
0101
0000
0010
0000
1010
0000
0100
0010
0100
0000
0010
0000
,  // measure 28
1001
0000
0010
0100
0001
0000
1000
0000
0101
0000
0010
0000
1000
0001
0100
0000
,  // measure 29
0010
1000
0001
0000
1000
0000
0100
0000
1100
0000
0010
0001
0010
0000
0100
0000
,  // measure 30
1100
0000
0010
0001
0010
0000
0100
0000
1100
0000
0010
0000
1000
0001
0100
0000
,  // measure 31
0110
0000
0001
0000
0100
0010
1000
0000
0110
0000
1000
0000
0010
0100
0010
0000
,  // measure 32
0010
0100
0010
0000
0101
0000
0010
0000
1000
0000
0001
0000
2000
0000
3001
0000
,  // measure 33
0000
0000
0000
0000
0210
0000
0000
0302
0000
0000
1003
0000
0000
0000
1100
0000
,  // measure 34
1000
0100
1000
0100
0020
0000
0000
0032
0000
0000
0013
0000
0000
0000
0110
0000
,  // measure 35
1000
0100
1000
0100
0020
0000
0000
0032
0000
0000
0013
0000
0100
0010
0100
0010
,  // measure 36
0100
0010
0000
0000
2000
0000
0000
3200
0000
0000
0320
0000
0000
0032
0000
0000
,  // measure 37
0203
0000
0000
0000
0320
0000
0000
2030
0000
0000
3100
0000
1100
0000
0000
0020
,  // measure 38
0000
0000
0031
0000
0011
0000
0000
0200
0000
0000
1300
0000
2000
0000
0000
3002
,  // measure 39
0000
0000
0103
0000
0120
0000
0000
2030
0000
0000
3200
0000
0000
0320
0000
0000
,  // measure 40
0032
0000
0000
0013
0000
0000
0110
0000
0000
1100
0000
0000
0010
0100
0001
0100
,  // measure 41
0010
0000
1001
0100
0010
0100
1000
0100
,  // measure 42
0010
0001
0010
0100
0010
0001
1000
0100
,  // measure 43
0010
0100
1100
0010
0001
0010
0100
0010
,  // measure 44
0001
1000
0100
0010
0100
1000
0100
0010
,  // measure 45
0100
0000
0001
0000
1001
0000
0010
0000
0100
0010
1000
0000
0100
0000
0010
0100
,  // measure 46
0001
0000
0010
0000
0100
0000
1000
0100
0010
0000
0001
0000
1000
0010
0100
0000
,  // measure 47
0001
0000
1000
0000
0001
0100
0010
0000
1000
0000
0001
0000
1000
0010
0100
0000
,  // measure 48
0001
0000
1000
0000
0010
0100
0001
0000
1000
0000
0001
0000
0100
0010
1000
0000
,  // measure 49
0100
1000
0100
1000
0200
0000
0000
0000
0000
0000
0000
0000
0000
0000
1300
0100
,  // measure 50
1000
0100
0020
0000
0031
0000
0010
0000
0001
0000
0201
0000
0000
0000
0310
0000
,  // measure 51
0010
2010
0000
3000
0001
1000
0001
0100
,  // measure 52
0001
1000
0001
0100
0001
1000
0020
0000
,  // measure 53
0130
0000
0010
0100
0010
1000
0010
0100
,  // measure 54
0010
0110
0000
0101
0100
0120
0000
1030
,  // measure 55
0001
1002
1000
1003
0100
0010
1000
0001
,  // measure 56
1000
0000
0010
0000
0100
0001
0100
0000
0100
0001
0100
0000
0100
0001
0100
0000
,  // measure 57
1010
0000
0001
0010
0100
0010
0001
0011
,  // measure 58
0100
1000
0100
0010
0100
1000
0100
1100
,  // measure 59
0010
0001
0010
0100
1000
0001
1000
1001
,  // measure 60
0100
0001
0100
0001
1000
0010
0100
0110
,  // measure 61
0110
0000
0001
0010
0100
0010
0001
0010
,  // measure 62
0100
1000
0100
0010
0100
1000
0100
0010
,  // measure 63
0001
0000
0010
0000
0100
0000
1000
0010
0100
0001
1000
0010
0100
0001
1000
0010
,  // measure 64
0100
0001
1000
0000
1000
0000
0100
0000
0010
0000
0001
0000
0200
0000
0000
0000
,  // measure 65
0310
0000
0000
0000
1000
0000
1000
0100
1000
0000
1000
0100
1000
0000
0010
1000
,  // measure 66
0010
0000
0010
1000
0001
0000
0100
0001
0100
0000
0100
0001
1000
0000
0100
1000
,  // measure 67
0100
0000
1000
0010
0100
0000
0100
0001
0100
0000
0100
0001
1000
0000
0010
1000
,  // measure 68
0010
0000
0010
1000
0100
0000
0000
0110
0000
0000
0011
0000
0000
0000
1100
0000
,  // measure 69
1100
0000
0000
0000
0010
0000
0001
0010
0001
0000
0010
0100
0010
0000
0100
1000
,  // measure 70
0100
0000
0100
0010
0100
0000
0010
0001
0010
0000
0100
1000
0100
0000
0010
0001
,  // measure 71
0010
0000
0100
1000
0100
0000
1000
0100
1000
0000
0100
0010
0001
0000
0100
0001
,  // measure 72
0100
0000
0001
0010
0100
0000
1000
0000
0100
0000
0010
0000
0010
0000
0100
0000
,  // measure 73
0001
0000
1000
0000
0020
0000
0000
0000
0130
0000
0001
0000
0001
0010
0100
0000
,  // measure 74
1000
0000
0100
0010
0001
0000
0100
0000
0010
0000
1000
0001
0100
0000
0010
0000
,  // measure 75
1000
0000
0001
0100
0020
0000
0000
0000
1030
0001
0100
0000
0100
0010
1000
0000
,  // measure 76
0001
0000
1000
0100
0010
0001
1000
0010
0100
0001
0010
0000
0100
0000
1000
0000
,  // measure 77
0011
0000
0100
0000
2100
0000
0000
0000
3100
0000
0001
0010
0100
0000
1000
0100
,  // measure 78
0010
0000
0001
1000
0010
0000
0100
0000
0001
1000
0010
0100
0001
1000
0010
0000
,  // measure 79
1000
0000
0001
0000
0200
0000
0000
0000
0310
0000
0010
1000
0100
0000
0100
1000
,  // measure 80
0010
0000
0100
0001
0100
0000
0100
0001
1000
0000
0010
0000
0010
0100
0001
0000
,  // measure 81
0101
0000
1010
0010
0110
0001
1001
0100
,  // measure 82
1100
0010
0110
0001
0011
0100
0110
1000
,  // measure 83
1100
0000
0000
0000
1001
0000
0000
0000
0200
0000
0000
1300
0100
0000
0000
0000
,  // measure 84
0110
0000
0000
0000
0011
0000
0000
0000
0200
0000
0000
1300
0100
0000
0000
0010
,  // measure 85
0001
1000
0001
1000
0220
0000
0000
0000
0000
0000
0000
0000
0000
0000
0000
0000
,  // measure 86
0000
0000
0000
0000
,  // measure 87
0000
0000
0000
0000
0000
0000
0000
0330
;

//---------------dance-single - ----------------
#NOTES:
     dance-single:
     :
     Medium:
     8:
     0.533,0.552,0.289,0.040,0.000:
0000
0000
0000
0000
,
0000
0000
0000
0000
,
0000
0000
0000
0000
,
0000
0000
0000
0000
,
1000
0000
0100
0000
1000
0000
0001
0100
,
0010
1000
0000
0001
0100
0001
0000
1000
,
0100
1000
0000
0000
0001
0000
0010
0000
,
0100
1000
0000
0100
1000
0001
1000
0010
,
0100
0000
0100
0000
0001
0000
1000
0100
,
0000
0000
1000
0001
0100
0000
0100
0001
,
1000
0000
0010
0100
0010
0000
1000
0001
,
1000
0000
0001
1000
0100
0010
0001
1000
,
0100
1000
0100
0000
0010
0000
0001
0000
,
0010
0000
0100
1000
0001
1000
0100
1000
,
0001
1000
0100
0000
1000
0000
0010
0000
,
0001
1100
0110
0011
,
1100
0010
0001
0100
,
1100
0010
0001
0100
,
0101
0010
1000
0100
,
1010
0001
0010
0100
,
1000
0100
1000
0110
,
0001
1000
0001
0101
,
1010
0001
1000
1001
,
0110
0000
0001
0100
0010
0000
0010
0100
,
0001
0000
1000
0000
0001
0000
1000
0100
,
1000
0000
0001
0000
0010
0000
0100
1000
,
0100
0000
0010
0000
0001
0000
1000
0100
,
1000
0000
0001
1000
0010
0000
0100
0001
,
1000
0010
0110
0001
,
1001
0100
0110
0001
,
0101
0000
0010
1000
0010
0000
1000
0001
,
0100
0000
0010
0100
0010
1000
0010
0100
,
0010
1001
0100
0010
,
1000
0001
1000
0000
0010
0000
1001
0000
,
0100
0010
0100
0000
0001
0000
0110
0000
,
1000
0000
0010
0100
0010
0000
1000
0001
,
1000
0000
0001
0010
0100
0010
0001
0010
,
0100
0010
0000
0101
1000
0100
0010
0100
,
1000
0000
0100
0010
0100
0010
0001
0010
,
0100
0000
1000
0100
0010
0100
1000
0100
,
0010
0000
1000
0000
0001
0000
0100
0010
,
1000
0000
0001
0100
0010
0000
1000
0010
,
1000
0002
0100
0100
,
0100
0100
0100
0100
,
0103
0020
1000
1000
,
1000
1000
1000
1000
,
1030
0200
0010
0010
,
0010
0010
0010
0010
,
0310
0000
0100
0000
0000
0000
0001
0010
,
0100
1000
0000
0000
0100
0000
1000
0000
,
0100
0000
0010
0000
0001
0000
1000
0100
,
1000
0100
0000
0010
0001
0010
0001
1000
,
0001
1000
0010
0000
0100
0000
0001
1000
,
0100
1000
0000
0001
0100
0010
0000
1000
,
0001
0100
0000
0000
0010
0000
1000
0000
,
0001
1000
0110
1001
,
0110
0000
1001
0000
0010
0100
0010
0100
,
0000
0000
1000
0001
0100
0001
0100
0010
,
1000
0010
0100
0001
1000
0010
0100
0010
,
0100
0000
0001
1000
0001
1000
0001
1000
,
0001
0000
0010
0100
0001
0100
0001
0100
,
0010
0000
1000
0010
0100
0010
0100
0010
,
1000
0000
0001
0010
0100
1000
0100
0010
,
0100
0010
0200
0000
0000
0000
0000
0000
,
0300
0000
0001
0000
1000
0100
1000
0000
,
0001
0100
0001
0000
1000
0010
0100
0000
,
0100
0010
1000
0000
0001
0010
0100
0000
,
1000
0100
0010
0000
0001
0100
0010
0000
,
0010
1000
1100
0010
,
0011
1000
1001
0010
,
0110
0000
1000
0100
0010
0000
0001
0010
,
0100
0000
1000
0100
0010
0001
0010
0100
,
1000
0000
1100
0000
0010
0001
0010
0100
,
0010
0100
0110
1000
,
1001
0000
0010
0000
0100
0000
1000
0100
,
0010
0000
0001
0100
0001
1000
0010
0100
,
0001
0000
0110
0000
1000
0000
0100
0010
,
0001
0000
1000
0100
1000
0000
0001
0100
,
0001
0000
0010
0000
0100
0000
1000
0010
,
1000
0000
0001
0010
0001
0000
1000
0010
,
0100
0100
0001
1001
,
0100
0110
0001
0110
,
1100
0000
0010
0000
0001
0000
0010
0100
,
1000
0000
0100
0000
0010
0000
0001
0010
,
0100
1000
0200
0000
0000
0000
0000
0000
,
0000
0000
0000
0000
,
0300
0000
0000
0000
;

//---------------dance-single - ----------------
#NOTES:
     dance-single:
     :
     Easy:
     4:
     0.372,0.449,0.225,0.104,0.000:
0000
0000
0000
0000
,
0000
0000
0000
0000
,
0000
0000
0000
0000
,
0000
0000
0000
0000
,
1000
0000
0000
0000
,
0000
0010
0000
0000
0000
0100
0000
0000
,
0000
0001
0000
0000
0000
0000
0000
0000
,
0000
1000
0000
0000
0000
0010
0000
0000
,
0000
0100
0100
0100
,
0000
0001
0001
0001
,
0001
1000
0010
0100
,
0001
1000
0010
0100
,
0001
1000
1000
1000
,
1000
0010
0010
0010
,
0010
0100
0010
0100
,
0010
0100
0001
1000
,
1001
0010
0100
0110
,
0001
1000
0010
0101
,
0010
0100
0010
1010
,
0001
0100
0010
1000
,
0001
1000
0010
0110
,
0001
1000
0001
0011
,
1000
0010
0100
1100
,
0001
0100
0010
0010
,
0010
1000
0001
0100
,
0010
1000
0010
0100
,
0001
1000
0010
0100
,
0001
1000
1000
1000
,
1000
0010
0100
0010
,
0100
0001
1000
0010
,
0100
0001
1000
0010
,
0100
0001
1001
0110
,
1001
0010
0100
0010
,
0100
0100
0001
1000
,
0001
1000
0010
0010
,
0100
0100
0100
0001
,
1000
0110
0001
1000
,
0010
0110
0001
1000
,
0010
0200
0000
0001
,
0000
0302
0000
0000
,
2003
0000
0000
0000
,
0000
0000
3000
0000
,
0000
0000
0000
0220
0000
0000
0000
0000
,
0000
0000
0330
0000
,
0001
1000
0010
0100
,
0001
0001
1000
0010
,
0100
0001
1000
0010
,
0100
0001
1000
0010
,
0100
0101
1000
0010
,
0100
0001
1000
1000
,
0010
0110
0001
1000
,
0010
0100
0001
1000
,
0010
0100
0100
0010
,
0010
1000
1000
0001
,
0001
0100
0010
1000
,
0001
1001
1001
1001
,
1001
0110
0000
1001
,
0000
0100
0010
1000
,
0010
0100
0001
1000
,
0010
0100
0001
1000
,
1001
0010
0100
0010
,
0100
0010
0100
0010
,
1000
2002
0000
0000
,
0000
3003
0000
0000
,
0000
0110
1000
0010
,
0100
0001
1000
0010
,
1000
0001
0100
0010
,
1000
0001
0100
0010
,
1000
0010
0100
0001
,
1000
0010
0100
0001
,
1000
0001
0010
0100
,
1000
0010
0100
0001
,
1000
0020
0100
0100
,
0100
0100
0100
0100
,
0130
0200
0010
0010
,
0010
0010
0010
0010
,
0310
0002
1000
1000
,
1000
1000
1000
1000
,
1000
0003
2000
0000
0001
0000
0001
0000
,
0001
0001
0001
0001
,
3001
1000
0001
0010
,
0100
1000
0100
0010
,
0100
1000
0010
0110
,
0001
1000
0010
1010
,
0101
2002
0000
0000
,
0000
0000
0000
0000
,
3003
0000
0000
0000
;

//---------------dance-single - Copied from----------------
#NOTES:
     dance-single:
     Copied from:
     Beginner:
     2:
     0.161,0.203,0.008,0.104,0.000:
0000
0000
0000
0000
,
0000
0000
0000
0000
,
0000
0000
0000
0000
,
0000
0000
0000
0000
,
1000
0000
0000
0000
,
0010
0000
0000
0000
,
0000
0100
0000
0000
,
0000
0001
0000
0000
,
0000
1000
0000
1000
,
0000
0010
0000
0010
,
0000
0100
0000
0100
,
0000
0001
0000
0001
,
0000
1000
0000
0010
,
0000
1000
0000
0010
,
0000
0100
0000
0001
,
0000
0100
0000
0001
,
0000
1000
0000
1000
,
0000
0010
0000
0010
,
0000
0100
0000
0100
,
0000
0001
0000
0001
,
0000
1000
0000
1000
,
0000
0010
0000
0010
,
0000
0100
0000
0100
,
0000
0001
0000
0001
,
0000
1000
0000
1000
,
0000
0100
0000
0100
,
0000
0010
0000
0010
,
0000
0001
0000
0001
,
0000
1000
0000
1000
,
0000
0100
0000
0100
,
0000
0010
0000
0010
,
0000
0001
0000
0001
,
0000
0000
0200
0000
0000
0000
0000
0300
,
0000
0000
0020
0000
0000
0000
0000
0030
,
0000
0000
2000
0000
0000
0000
0000
3000
,
0000
0000
0002
0000
0000
0000
0000
0003
,
0000
1000
0000
1000
,
0000
0100
0000
0100
,
0000
0010
0000
0010
,
0000
0010
0000
0010
,
0002
0000
0000
0000
,
0000
0000
0000
0000
0000
0003
0000
0000
,
0000
0000
0000
2000
0000
0000
0000
0000
,
0000
0000
3000
0000
,
0000
0000
0020
0000
,
0000
0000
0000
0000
,
0030
0000
0200
0000
,
0000
0000
0000
0000
0000
0000
0000
0300
,
0000
0001
0000
0000
,
1000
0000
0010
0000
,
0100
0000
0000
0000
,
0001
0000
0100
0000
,
0010
0000
1000
0000
,
0010
0000
0100
0000
,
0001
0000
1000
0000
,
1000
0000
0100
0000
,
0010
0000
0001
0000
,
0000
0100
0000
0010
,
0000
1000
0000
0010
,
0000
1000
0000
0010
,
0000
0100
0000
0001
,
0000
1000
0000
0010
,
0000
0200
0000
0000
,
0000
0300
0000
0000
,
0000
0010
0000
0010
,
0000
0010
0000
0010
,
0000
1000
0000
1000
,
0000
1000
0000
1000
,
0000
0001
0000
0001
,
0000
0001
0000
0001
,
0000
1000
0000
1000
,
0000
1000
0000
1000
,
0000
0020
0000
0000
,
0000
0030
0000
0000
,
0000
0200
0000
0000
,
0000
0300
0000
0000
,
0000
0002
0000
0000
,
0000
0003
0000
0000
0000
0000
0000
0000
0000
0000
0000
0000
0000
0000
0000
0000
0000
0000
0000
0000
0000
0000
0000
0000
0000
0000
0000
0000
0000
0000
0000
0000
0000
0000
0000
0000
0000
0000
0000
0000
0000
0000
0000
0000
0000
0000
0000
0000
0000
0000
0000
0000
0000
0000
0000
0000
0000
0000
0000
0000
0000
0000
0000
0000
0000
0000
0000
0000
0000
0000
0000
0000
0000
0000
0000
0000
0000
0000
0000
0000
0000
0000
0000
0000
0000
0000
0000
0000
0000
0000
0000
0000
0000
0000
0000
0000
0000
0000
0000
0000
0000
0000
0000
0000
0000
0000
0000
0000
0000
0000
0000
0000
0000
0000
0000
0000
0000
0000
0000
0000
0000
0000
0000
0000
0000
0000
0000
0000
0000
0000
0000
0000
0000
0000
0000
0000
0000
0000
0000
0000
0000
0000
0000
0000
0000
0000
0000
0000
0000
0000
0000
0000
0000
0000
0000
0000
0000
0000
0000
0000
0000
0000
0000
0000
0000
0000
0000
0000
0000
0000
0000
0000
0000
0000
0000
0000
0000
0000
0000
0000
0000
0000
0000
0000
0000
0000
0000
0000
0000
0000
0000
0000
,
0000
2000
0000
0000
,
0000
3000
0000
0000
,
0000
0010
0100
0010
,
0000
1000
0001
1000
,
0000
0001
0000
0100
,
0000
0010
0000
1000
,
0000
1001
0000
0000
;
