#TITLE:We're so Happy;
#SUBTITLE:;
#ARTIST:Ryu☆;
#TITLETRANSLIT:;
#SUBTITLETRANSLIT:;
#ARTISTTRANSLIT:Ryu*;
#GENRE:;
#CREDIT:Garik+ & SupremeX;
#BANNER:We're so Happy.png;
#BACKGROUND:We're so Happy-bg.png;
#LYRICSPATH:;
#CDTITLE:;
#MUSIC:We're so Happy.ogg;
#OFFSET:-1.476418;
#SAMPLESTART:101.358925;
#SAMPLELENGTH:12.000000;
#SELECTABLE:YES;
#BPMS:0.000000=185.000000
;
#STOPS:32.000000=0.973000,
161.000000=0.973000
;
#BGCHANGES:13.750=We're so Happy.avi=1.000=1=0=0=StretchNoLoop==CrossFade==,
99999=-nosongbg-=1.000=0=0=0 // don't automatically add -songbackground-
;
#KEYSOUNDS:;
#ATTACKS:;

//---------------dance-single - ----------------
#NOTES:
     dance-single:
     :
     Hard:
     10:
     0.675265,0.915585,0.296894,0.187512,0.316426,605.000000,567.000000,38.000000,24.000000,0.000000,0.000000,0.675265,0.915585,0.296894,0.187512,0.316426,605.000000,567.000000,38.000000,24.000000,0.000000,0.000000:
0000
0000
0000
0000
,
0000
0000
0000
0000
,
0000
0000
0000
0000
,
0000
0000
0000
0000
,
2000
0000
0000
0000
0000
0010
0000
0000
,
3020
0000
0000
0100
0000
0100
0000
0000
,
0230
0000
0000
0000
0000
0001
0000
0000
,
0302
0000
0000
1000
0000
2000
0000
0000
,
3003
0000
0001
0010
0001
1000
0000
0100
,
1000
0010
0100
0001
0100
0010
0000
1000
,
0010
0100
0001
0010
0001
1000
0000
0100
,
1000
0010
0100
0001
0010
0100
0000
1000
,
0100
0010
0001
1000
0001
0100
0000
0010
,
0100
0001
0010
0100
0010
1000
0000
0010
,
0001
0100
0010
1000
0010
0100
0000
0001
,
0010
0100
1000
0000
1100
0000
0101
0000
,
1100
0000
1000
0100
0010
0002
0000
0010
,
0000
1003
1000
0010
0100
0002
0000
0100
,
0000
1003
0001
0200
0000
1000
0000
0010
,
0000
0301
0001
0020
0000
1000
0000
0100
,
0000
0032
0000
0100
0000
1000
0000
0010
,
0000
2003
0000
0001
0000
0100
0000
0001
,
0000
3010
0000
0010
0000
0010
0100
0100
,
0100
0100
2002
0000
0000
0000
0000
0000
,
3003
0000
0001
0010
0100
0001
0000
0100
,
0000
1000
0000
0001
0000
0010
0000
0001
,
1000
0000
0001
0100
0010
0001
0000
0010
,
0000
1000
0000
0001
0000
0100
0000
0001
,
1000
0000
0001
0010
0100
0001
0000
0100
,
0000
1000
0000
0010
0000
0100
0000
0010
,
1000
0000
0001
0100
0010
0001
0000
0010
,
0000
1000
0000
0100
0000
1000
0000
0001
,
0100
0000
0000
0000
0101
0000
0100
0000
0001
0100
0000
0001
0000
0100
0001
0000
,
0101
0000
0000
0000
0010
0000
1000
0000
0100
0010
0000
0100
0000
0010
0100
0000
,
0110
0000
0000
0000
0001
0000
1000
0000
0100
1000
0000
0100
0000
1000
0100
0000
,
1000
0000
1000
0000
0010
0000
0100
0000
0001
0010
0000
0001
0000
0010
0001
0000
,
0010
0010
0001
0010
0001
1000
0010
0001
,
0010
0100
0001
0010
0001
1000
0010
0001
,
0010
0100
0001
0001
0010
0010
0100
0100
,
1000
0000
1000
0000
0001
1000
0001
1000
0001
1000
0001
1000
0100
0010
0100
0010
,
0100
0010
0100
0010
0000
0000
0000
0000
0001
0000
0000
0000
0011
0000
0000
0000
,
1100
0000
0011
0000
1000
0100
0010
0001
,
0010
0100
0010
0001
1000
0010
0100
0010
,
0001
0010
0100
0001
0010
0100
1000
0001
,
0010
0001
1000
0001
0100
0010
0100
0001
,
0100
0010
1000
0100
0010
0001
0100
0010
,
0100
1000
0100
0010
1000
0010
0100
0001
,
0010
0001
1000
0001
0020
1000
0000
0100
,
0000
0001
0000
0130
0010
0000
0110
0000
,
1001
0000
0110
0000
0001
0010
0100
1000
,
0001
1000
0010
1000
0001
0010
1000
0010
,
0001
0010
0100
0010
0001
0100
0010
1000
,
0010
0100
0010
0001
0010
0100
0001
0010
,
0100
0010
0001
1000
0010
0100
0001
0010
,
0001
1000
0010
0100
0001
0010
0200
0000
,
2300
0000
3002
0000
0103
0010
1000
0100
,
0010
0001
0100
0000
0110
0000
1001
0000
,
0110
0000
0000
0000
1001
0000
0000
0000
1000
0000
0001
0010
0000
0001
0000
1000
,
0000
0000
0100
0000
0010
0000
0100
0000
1000
0000
0001
0100
0000
0010
0000
0100
,
0000
0001
0000
0010
0100
0000
0010
0000
0001
0000
1000
0010
0000
1000
0000
0001
,
0000
0000
0100
0000
0010
0000
0100
0000
0001
0000
1000
0100
0000
0010
0000
0100
,
0000
1000
0000
0010
0100
0000
0000
0000
1001
0000
0000
0000
1001
0000
1000
0000
,
0001
0001
0100
0100
0010
0000
0110
0100
,
0001
0001
0010
0010
0110
0110
0000
0000
,
1001
0000
1001
0000
0000
0000
0000
0000
1000
0001
1000
0001
1000
0001
1000
0001
,
0100
0110
2002
0000
,
0000
0000
0000
0000
,
0000
0000
3000
0000
,
0000
0000
0003
0000
,
0000
0000
0000
0000
0000
0000
0000
0000
1000
0000
0100
0000
1000
0100
0000
1000
,
0000
0100
1000
0000
1100
0000
0000
0000
0001
0000
0100
0000
0001
0100
0000
0001
,
0000
0100
0001
0000
0101
0000
0101
0000
0001
0000
0100
0000
0010
0000
1000
0000
,
0001
0100
0010
1000
0100
0010
0001
1000
,
0100
0010
0001
1000
1001
1001
0000
0000
,
0010
0100
0010
0000
0000
0000
0000
0000
1000
0001
1000
0001
1000
0001
1000
0001
,
0100
0000
0110
0000
0001
0010
0001
2000
,
0000
0000
0100
0000
0000
0000
3001
0000
0001
0000
1000
0100
0000
0010
0000
0100
,
0000
1000
0000
0010
0100
0000
0001
0000
1000
0000
0200
0000
0000
0000
0001
0000
,
0000
0000
0010
0000
0000
0000
1300
0000
0100
0000
1000
0010
0000
0100
0000
0001
,
0000
0010
0000
0100
1000
0000
0000
0000
0001
0000
1000
0000
0010
0000
0200
0000
,
0000
0000
0010
0000
0000
0000
0301
0000
0100
0000
0001
0010
0000
0100
0000
0010
,
0000
0001
0000
0100
0010
0000
0100
0000
0001
0000
0010
0100
0000
0010
0000
0001
,
0000
1000
0010
0100
0110
0000
0110
0000
,
1001
0000
1001
0000
0001
0010
0100
0001
,
0100
1000
0001
0100
0010
0001
1000
0100
,
0010
1000
0001
0010
0100
1000
0001
0100
,
1000
0001
0010
1000
0001
0010
0001
1000
,
0010
0001
1000
0100
0010
0010
1000
1000
,
0001
0010
0001
0010
0001
0010
0001
0010
0100
0000
0100
0000
1000
0000
1000
0000
,
0001
0100
0001
0100
0001
0100
0001
0100
0010
0000
0010
0000
0000
0000
0000
0000
,
1000
0000
1000
0000
0000
0000
0000
0000
0001
0010
0001
0010
0100
1000
0100
1000
,
0001
1001
0220
0000
,
0000
0000
0000
0000
,
0000
0000
0000
0330
;

//---------------dance-single - ----------------
#NOTES:
     dance-single:
     :
     Medium:
     7:
     0.402927,0.536166,0.218764,0.265642,0.000000,361.000000,333.000000,28.000000,34.000000,0.000000,0.000000,0.402927,0.536166,0.218764,0.265642,0.000000,361.000000,333.000000,28.000000,34.000000,0.000000,0.000000:
0000
0000
0000
0000
,
0000
0000
0000
0000
,
0000
0000
0000
0000
,
0000
0000
0000
0000
,
2000
0000
0000
0000
,
3020
0000
0000
0000
,
0230
0000
0000
0000
,
0302
0000
0000
0000
,
0003
1000
0100
1000
,
0001
0010
0100
0010
,
0001
0100
0010
0100
,
0001
1000
0001
0010
,
0010
0001
0100
0001
,
1000
0100
0010
0100
,
1000
0010
0100
0010
,
1000
0001
1100
0101
,
1100
0001
0010
0001
,
1000
0010
0001
0010
,
0100
0001
0010
1000
,
0010
0001
1000
0010
,
0100
0001
0010
0100
,
0010
0001
1000
0010
,
0100
0000
0010
0000
0010
0000
0100
0100
,
0100
2002
0000
3003
,
0000
0002
0000
0010
,
0000
0023
0000
0100
,
0000
0230
0000
1000
,
0000
2300
0000
0001
,
0000
3002
0000
0100
,
0000
2003
0000
0100
,
0000
3020
0000
0100
,
0000
2030
0000
0100
,
0000
3001
0100
0001
,
0101
1000
0100
1000
,
1100
0100
0010
0100
,
0110
0010
0001
1000
,
1001
0000
0001
0100
0001
0000
1000
0100
,
1000
0000
0001
0010
0001
0000
1000
0010
,
1000
0000
0010
0010
0010
0000
0100
0100
,
0100
0000
0001
1000
0001
1000
0001
1000
,
0001
1000
0000
0000
0100
0000
0110
0000
,
1001
0110
0002
1000
,
0100
1003
0001
0010
,
0100
1000
0002
0010
,
1000
0013
0001
0100
,
0010
0010
2000
0100
,
0001
3100
1000
0001
,
0200
0001
0302
0100
,
1000
1003
0001
1001
,
0110
1001
2000
0001
,
0100
3001
1000
0010
,
0100
0001
0002
1000
,
0010
1003
0001
0010
,
0100
1000
0020
0100
,
1000
0130
0200
0010
,
0001
0000
0310
0000
0002
0000
0000
1000
,
0000
0200
0303
1100
,
0101
1100
0001
0001
,
1000
0100
1000
0000
0010
0000
0100
0000
,
0010
0100
0010
0000
1000
0000
1000
0000
,
0001
0100
0001
0000
0010
0000
0100
0000
,
0010
0100
0010
0000
0001
0000
1000
0001
,
1000
0001
0100
0000
0001
0000
1000
0001
,
1000
0001
0010
0000
0100
0100
0000
0000
,
0100
0100
0000
0000
1000
0001
1000
0001
,
1000
0001
0100
0000
0220
0000
0000
0000
,
0000
0000
0000
0000
,
0000
0000
0330
0000
,
0000
0000
0000
0000
,
0000
0000
0000
0000
1000
0100
1000
0000
,
0100
0000
1100
0000
0001
0100
0001
0000
,
0100
0000
0101
0000
0001
1000
0001
0000
,
1000
0001
1000
0000
0010
0100
0010
0100
,
0010
0100
0010
0100
0000
0000
0001
0000
,
0000
1100
0000
0000
,
0101
1100
0002
0100
,
1000
0013
0001
0010
,
0100
1000
0002
0010
,
1000
0103
0001
0100
,
0010
1000
0100
1000
,
0001
0100
0020
1000
,
2030
0001
3002
1000
,
0100
1003
0001
0110
,
1001
0110
2000
0100
,
0001
3010
1000
0010
,
0100
0001
2000
0010
,
0001
3100
1000
0100
,
0010
0000
0001
0000
0100
0001
0100
0001
,
1000
0000
1000
0000
0001
0010
0001
0010
,
0100
0000
0100
0000
1000
1000
0000
0000
,
0001
0001
0000
0000
0100
0010
0100
0010
,
0100
0110
1001
0000
;

//---------------dance-single - ----------------
#NOTES:
     dance-single:
     :
     Easy:
     5:
     0.305823,0.428933,0.171886,0.140634,0.000000,274.000000,252.000000,22.000000,18.000000,0.000000,0.000000,0.305823,0.428933,0.171886,0.140634,0.000000,274.000000,252.000000,22.000000,18.000000,0.000000,0.000000:
0000
0000
0000
0000
,
0000
0000
0000
0000
,
0000
0000
0000
0000
,
0000
0000
0000
0000
,
1000
0000
0000
0000
,
0010
0000
0000
0000
,
0100
0000
0000
0000
,
0001
0000
0000
0000
,
1001
0000
0001
0000
,
0001
0000
0100
0000
,
0100
0000
0010
0000
,
0010
0000
1000
0000
,
1000
0000
0001
0000
,
0001
0000
0010
0000
,
0010
0000
1000
0000
,
1000
0000
0100
0100
,
0100
0001
0100
0001
,
0000
1000
0100
0010
,
0000
0001
0010
0001
,
0000
1000
0010
0100
,
0000
0001
1000
0100
,
0010
0100
1000
0001
,
0100
0010
0100
0001
,
1000
2002
0000
3003
,
0000
0002
0000
0003
,
0000
1000
0000
0010
,
0000
0200
0000
0300
,
0000
0001
0000
0010
,
0000
0200
0000
0300
,
0000
1000
0000
0010
,
0000
2000
0000
3000
,
0000
0001
0000
0100
,
0000
0010
0010
0010
,
1001
0100
0100
0100
,
1001
0010
0010
0010
,
1001
0100
0100
0100
,
1001
0001
1000
0001
,
1000
0100
0010
0100
,
0010
0001
1000
0010
,
0100
0001
0010
0100
,
1000
1001
0000
0100
,
0100
0100
0001
0100
,
0001
1000
0100
0100
,
0100
0000
1000
0010
,
1000
0001
0100
0100
,
0100
0000
0010
0100
,
0010
1000
0002
0000
,
0023
0000
0230
0000
,
0000
0300
0000
1000
,
1000
1000
0001
0010
,
0001
1000
0010
0100
,
0010
0000
1000
0010
,
1000
0001
0010
0100
,
0010
0000
0001
0001
,
0100
0010
1000
1000
,
0100
0010
0002
0000
,
2003
0000
3100
1000
,
0001
1001
1000
0100
,
1000
0010
0100
0001
,
0100
0100
0001
0010
,
0001
0100
0010
1000
,
0010
0010
0100
1001
,
0000
0000
0010
1001
,
0000
0000
0000
0000
1000
1000
0000
0000
,
0001
0001
0000
0000
0100
0000
0100
0000
,
0100
0110
2002
0000
,
0000
0000
3003
0000
,
0000
0000
0000
0000
,
0000
0000
0000
0000
,
0000
0000
1000
1000
,
1000
0110
0001
0001
,
0001
0110
0001
1000
,
0001
1000
0100
0010
,
0001
1000
0000
0001
,
0000
1001
0000
0000
,
0110
0110
0001
0010
,
0001
1000
0100
0010
,
0100
1000
1000
0010
,
1000
0001
0010
0100
,
0010
0001
0100
0010
,
1000
0001
0020
0000
,
0230
0000
0320
0000
,
0000
0030
0001
0001
,
1000
1001
0001
0100
,
0010
1000
0001
0010
,
0100
0100
1000
0100
,
0010
0001
1000
0010
,
0100
0100
0001
0110
,
1000
0000
1000
0110
,
0001
0000
2000
0000
,
3002
0000
0103
0001
,
1000
1001
0110
0000
;

//---------------dance-single - ----------------
#NOTES:
     dance-single:
     :
     Beginner:
     3:
     0.138402,0.250211,0.039065,0.085943,0.000000,124.000000,119.000000,5.000000,11.000000,0.000000,0.000000,0.138402,0.250211,0.039065,0.085943,0.000000,124.000000,119.000000,5.000000,11.000000,0.000000,0.000000:
0000
0000
0000
0000
,
0000
0000
0000
0000
,
0000
0000
0000
0000
,
0000
0000
0000
0000
,
1000
0000
0000
0000
,
0000
0000
0000
0000
,
0001
0000
0000
0000
,
0000
0000
0000
0000
,
0000
0000
0000
0000
,
0000
0001
0000
0001
,
0000
0001
0000
0000
,
0000
1000
0000
1000
,
0000
1000
0000
0000
,
0000
0010
0000
0010
,
0000
0010
0000
0000
,
0000
0000
0100
0100
,
0100
0100
0000
0000
,
0000
0001
0000
0001
,
0000
0001
0000
0000
,
0000
1000
0000
1000
,
0000
1000
0000
0000
,
0000
0100
0000
0000
,
0000
0010
0000
0000
,
0000
0001
0000
0000
,
0000
2000
3000
0000
,
0000
0000
0000
0000
,
0000
0002
0003
0000
,
0000
0000
0000
0000
,
0000
0200
0300
0000
,
0000
0000
0000
0000
,
0000
0020
0030
0000
,
0000
0000
0000
0000
,
0000
1001
0000
0000
,
0000
0001
0000
0000
,
0000
1001
0000
0000
,
0000
1000
0000
0000
,
0000
0001
0000
0001
,
0000
1000
0000
1000
,
0000
0001
0000
1000
,
0000
0001
0000
1000
,
0000
0000
0000
0000
,
0000
0000
0010
0000
,
0010
0000
0020
0030
,
0000
0000
1000
0000
,
1000
0000
2000
3000
,
0000
0000
0001
0000
,
0001
0000
0002
0003
,
0000
0000
0100
0000
,
0100
0000
0100
0000
,
0100
0000
0001
0000
,
0001
0000
0002
0003
,
0000
0000
1000
0000
,
1000
0000
2000
3000
,
0000
0000
0100
0000
,
0100
0000
0200
0300
,
0000
0000
0010
0000
,
0010
0000
0010
0000
,
0010
0000
0001
0000
,
1000
0000
0001
0000
,
0000
0000
1000
0000
,
0001
0000
1000
0000
,
0000
0000
0010
0000
,
0100
0000
0010
0000
,
0000
0000
0100
0000
,
0010
0000
0100
0000
,
0100
0000
0200
0000
,
0300
0000
0000
0000
,
0000
0000
0000
0000
,
0000
0000
0000
0000
,
0000
0000
1001
0000
,
0000
0000
1000
0000
,
0000
0000
1001
0000
,
0000
0000
0001
0000
,
0000
0000
1000
0000
,
1000
0000
0001
0001
,
0001
0001
0001
0000
,
1000
0000
0100
0000
,
0000
0000
1000
0000
,
0001
0000
0100
0000
,
0000
0000
0010
0000
,
1000
0000
0001
0000
,
1000
0000
0001
0000
,
0000
0000
0100
0100
,
0000
0000
0001
0000
,
0010
0000
0100
0000
,
0000
0000
1000
0000
,
0100
0000
0010
0000
,
0000
0000
0001
0001
,
0000
0000
1000
1000
,
0000
0000
0010
0000
,
0010
0000
0010
0010
,
0010
0000
1001
0000
;
