#TITLE:Wasteland;
#SUBTITLE:;
#ARTIST:James Taplin;
#TITLETRANSLIT:;
#SUBTITLETRANSLIT:;
#ARTISTTRANSLIT:;
#CREDIT:SupremeX;
#BANNER:Wasteland-bn.png;
#BACKGROUND:Wasteland-bg.png;
#LYRICSPATH:;
#CDTITLE:;
#MUSIC:Wasteland.ogg;
#OFFSET:-0.114;
#SAMPLESTART:38.900;
#SAMPLELENGTH:12.000;
#SELECTABLE:YES;
#BPMS:0.000=105.000;
#STOPS:;
#BGCHANGES:;

//---------------dance-single - ----------------
#NOTES:
     dance-single:
     :
     Hard:
     8:
     0.450,0.427,0.194,0.222,0.120: // measure 1
0000
0000
0000
0000
,  // measure 2
0000
0000
0000
0000
,  // measure 3
0000
0000
0000
0000
,  // measure 4
0000
0000
0000
0000
,  // measure 5
1000
0000
0001
0000
0010
0000
0100
0010
0000
0000
0100
0000
1000
0000
0010
0000
,  // measure 6
0100
0000
0001
0000
1000
0000
0100
1000
0000
0000
0100
0000
0010
0000
0000
0000
,  // measure 7
0001
0000
0010
0000
0100
0000
1000
0100
0000
0000
1000
0000
0100
0000
0000
0000
,  // measure 8
0100
0000
1000
0000
0010
0000
0100
0010
0000
0000
1000
0000
0001
0000
0010
0000
,  // measure 9
0100
1000
0010
0100
0010
1000
0100
0010
,  // measure 10
0001
0100
0010
0100
0001
1000
0010
0100
,  // measure 11
0001
1000
0100
0010
0001
0010
0001
1000
,  // measure 12
0100
1000
0001
0100
0001
1000
0100
0010
,  // measure 13
0001
0001
0010
0100
1000
1000
0001
1000
,  // measure 14
0010
0010
0100
0001
0100
0100
0010
1000
,  // measure 15
0001
0100
0010
0100
0001
1000
0001
0010
,  // measure 16
0100
1000
0010
0100
0001
1000
0010
1000
,  // measure 17
0100
0100
0100
0100
0100
0100
0100
0100
,  // measure 18
2000
0000
0000
0000
3001
0000
0010
0000
0100
1000
0010
0000
1010
0000
0000
0000
,  // measure 19
0200
0000
1000
0000
1300
0000
0001
0000
0100
0001
0100
0000
0101
0000
0000
0000
,  // measure 20
1000
0000
0100
0000
0010
0000
0001
0000
1000
0100
1000
0000
1100
0000
0000
0000
,  // measure 21
0001
0000
0010
0000
0100
0000
1000
0000
0010
1000
0010
0000
0110
0000
2000
0000
,  // measure 22
0000
0000
0000
0100
0100
0000
0000
0000
0100
0000
0100
0000
3100
0000
0000
0000
,  // measure 23
1000
0000
0100
0000
0010
0000
0100
0000
0010
0100
0001
0000
1000
0000
0100
0000
,  // measure 24
0020
0000
0031
0002
0000
0100
0103
0000
,  // measure 25
0010
1000
0001
0100
0010
1000
0001
1000
,  // measure 26
2100
0000
0000
0000
3001
0000
0000
0100
0010
0000
0100
0000
0110
0000
0000
0000
,  // measure 27
0200
0000
0000
0000
0301
0000
0000
0010
1000
0000
0010
0000
1010
0000
0000
0000
,  // measure 28
0002
0000
0000
0000
1003
0000
0000
0010
0100
0000
0010
0000
0110
0000
0000
0000
,  // measure 29
2000
0000
0000
0000
3100
0000
0000
0010
0001
0000
0010
0000
0011
0000
0000
0000
,  // measure 30
2100
0000
0000
0000
3100
0000
0010
0000
0001
0100
0001
0000
1010
0000
0000
0000
,  // measure 31
0002
0000
0100
0000
0103
0000
0001
0000
1000
0001
1000
0000
0110
0000
0000
0000
,  // measure 32
0001
0000
0010
0000
0100
0000
1000
0000
0100
1000
0001
0000
1001
0000
0000
0000
,  // measure 33
0010
0000
0100
0000
1000
0000
0100
0000
0010
0001
0010
0000
0011
0000
2000
0000
,  // measure 34
0001
0000
0000
0100
0100
0000
0000
0000
0001
0000
0001
0000
3001
0000
0000
0000
,  // measure 35
1000
0000
0100
0000
0010
0000
0001
0000
1000
0010
0100
0000
0010
0000
0100
0000
,  // measure 36
0002
0000
1003
0200
0000
0010
0310
0000
,  // measure 37
0001
0010
0100
1000
0010
0100
0010
1000
,  // measure 38
2100
0000
0000
0000
3100
0000
0000
0100
1000
0000
0100
0000
0010
0000
0000
0000
,  // measure 39
0002
0000
0000
0000
0013
0000
0000
0100
1000
0000
0100
0000
1000
0000
0000
0000
,  // measure 40
0200
0000
0000
0000
0310
0000
0000
0010
0100
0000
0010
0000
1010
0000
0000
0000
,  // measure 41
0020
0000
0000
0000
0130
0000
0000
0100
0010
0000
0100
0000
0110
0000
0000
0000
,  // measure 42
2001
0000
0000
0000
3010
0000
0000
0001
0100
0000
0001
0000
0101
0000
0000
0000
,  // measure 43
0020
0000
0000
0000
0130
0000
0000
0010
1000
0000
0010
0000
1001
0000
0000
0000
,  // measure 44
0200
0000
0301
0002
0000
1000
1003
0000
,  // measure 45
0001
0010
0100
1000
0100
0010
0001
1000
,  // measure 46
2002
0000
0000
0000
,  // measure 47
0000
3003
0000
0000
0000
0000
0000
0000
;

//---------------dance-single - ----------------
#NOTES:
     dance-single:
     :
     Medium:
     5:
     0.299,0.320,0.046,0.056,0.000:
0000
0000
0000
0000
,
0000
0000
0000
0000
,
0000
0000
0000
0000
,
0000
0000
0000
0000
,
0001
0100
0010
1000
0000
0001
0001
0000
,
0010
0100
1000
0000
0000
0100
0100
0000
,
0010
0001
0010
0100
0000
1000
1000
0000
,
0100
0010
0001
1000
0100
0010
0010
0000
,
0001
1000
0010
0100
0001
1000
0001
0000
,
1000
0010
0100
0001
0010
0100
1000
0000
,
1000
0001
0100
0001
1000
0010
1000
0000
,
0001
1000
0100
1000
0000
0001
0001
0000
,
1000
0100
0010
0001
1000
0100
1000
0000
,
0001
0010
0100
1000
0001
0010
0001
0000
,
1000
0010
0100
0001
0000
1000
1000
0000
,
0010
0010
0100
0100
,
0002
0000
0000
0003
,
1000
1000
1000
0000
0010
0010
0010
0000
,
0100
0100
0100
0000
0001
0001
0001
0000
,
1000
0100
0010
0000
0001
0100
0001
0000
,
1000
0100
0010
0000
0001
0100
0010
0000
,
1000
1100
0001
1001
,
0100
0000
0010
0010
0000
0000
1000
0000
,
0001
0000
0100
0200
0000
0000
0010
0000
,
0010
0010
0010
0310
,
0100
0000
0001
0000
1000
1000
1000
0000
,
0100
0000
0010
0000
0001
0001
0001
0000
,
0100
0000
0100
0000
0010
0010
0010
0000
,
0100
0000
0001
0000
1000
1000
1000
0000
,
0001
0000
0010
0000
0100
1000
0100
0000
,
0010
0000
0001
0100
0000
0100
0010
0000
,
0010
0000
1000
0100
0000
0100
0010
0000
,
0010
0000
0001
0000
0001
0010
0100
0000
,
1000
0100
0010
0000
0000
0001
0001
0000
,
0010
0100
1000
0000
0000
0100
0100
0000
,
0010
0000
0001
0200
0000
0010
0010
0000
,
0010
0010
0010
0310
,
1000
0000
1000
0010
0000
0100
0100
0000
,
0001
0000
0010
0100
0000
1000
1000
0000
,
0001
0010
0100
0000
1000
0100
1000
0000
,
0001
0100
0010
0000
0010
1000
0001
0000
,
0100
1001
0010
1010
,
0001
0000
0100
0001
0000
0000
1000
0000
,
0001
0000
0100
0020
0000
1000
1000
0000
,
1000
1000
1000
1030
,
2002
0000
0000
0000
,
0000
3003
0000
0000
0000
0000
0000
0000
;

//---------------dance-single - ----------------
#NOTES:
     dance-single:
     :
     Easy:
     3:
     0.212,0.214,0.009,0.074,0.000:
0000
0000
0000
0000
,
0000
0000
0000
0000
,
0000
0000
0000
0000
,
0000
0000
0000
0000
,
0001
0001
1000
1000
,
0010
0010
0100
0100
,
0001
1000
0100
0010
,
0001
1000
0010
0100
,
0001
1000
0010
0010
,
0010
0010
0010
0010
,
0010
1000
1000
1000
,
1000
1000
1000
1000
,
0001
0001
0001
0001
,
0001
0001
0001
0001
,
0100
0100
0100
0100
,
0100
0100
0100
0100
,
0020
0000
0000
0000
0000
0000
0000
0030
,
1000
0001
1000
1000
,
0010
0100
0010
0010
,
1000
0100
0010
0001
,
1000
0100
0010
0001
,
2000
3010
0000
0001
,
0100
0010
1000
0001
,
0100
0010
1000
1000
,
1000
1000
1000
1000
,
0001
0000
0010
0000
,
0100
0000
1000
0000
,
0001
0100
0010
0010
,
1000
0001
0100
0100
,
0001
1000
0001
0001
,
1000
0010
0100
0100
,
0001
0010
0100
1000
,
0010
0100
0001
1000
,
0002
0103
0010
1000
,
0010
0100
0001
1000
,
0020
0000
0030
2000
0000
0000
0000
0000
,
0000
0000
0000
3000
,
0001
0001
0001
0001
,
0100
0100
0100
0100
,
0010
0010
0010
0010
,
1000
1000
1000
1000
,
0002
0103
0010
0010
,
1000
0001
0100
0010
,
1000
0001
0001
0001
,
0100
0010
1000
0001
,
2002
0000
0000
0000
,
0000
3003
0000
0000
0000
0000
0000
0000
;

//---------------dance-single - Copied from----------------
#NOTES:
     dance-single:
     Copied from:
     Beginner:
     1:
     0.085,0.107,0.000,0.111,0.000:
0000
0000
0000
0000
,
0000
0000
0000
0000
,
0000
0000
0000
0000
,
0000
0000
0000
0000
,
0100
0000
0000
0000
,
0100
0000
0000
0000
,
0100
0000
0000
0000
,
0100
0000
0000
0000
,
0001
0000
0000
0000
,
0001
0000
0000
0000
,
0001
0000
0000
0000
,
0001
0000
0000
0000
,
1000
0000
0000
0000
,
1000
0000
0000
0000
,
1000
0000
0000
0000
,
1000
0000
0000
0000
,
0020
0000
0000
0030
,
0100
0000
0000
0000
,
0100
0000
0000
0000
,
0100
0000
0000
0000
,
0100
0000
0000
0000
,
0001
0000
0000
0000
,
0001
0000
0000
0000
,
0001
0000
0000
0001
,
0000
1000
0000
1000
,
0020
0000
0000
0030
,
0200
0000
0000
0300
,
0020
0000
0000
0030
,
0200
0000
0000
0300
,
0001
0000
0000
0001
,
1000
0000
0000
1000
,
0010
0000
0000
0010
,
0000
0100
0000
0000
,
0100
0000
0000
0001
,
0000
0000
0000
0001
,
0000
1000
0000
1000
,
0000
0010
0000
0010
,
0200
0000
0300
0000
,
0020
0000
0030
0000
,
2000
0000
0000
0000
0000
3000
0000
0000
,
0002
0000
0000
0000
0000
0003
0000
0000
,
2000
0000
0000
0000
0000
3000
0000
0000
,
0002
0000
0000
0000
0000
0003
0000
0000
,
1000
0000
0000
1000
,
0000
0001
0000
0001
,
0200
0000
0000
0000
,
0000
0300
0000
0000
0000
0000
0000
0000
;
