#TITLE:Vodovorot;
#SUBTITLE:;
#ARTIST:XS Project;
#TITLETRANSLIT:;
#SUBTITLETRANSLIT:;
#ARTISTTRANSLIT:;
#CREDIT:SupremeX;
#BANNER:Vodovorot-bn.png;
#BACKGROUND:Vodovorot-bg.png;
#LYRICSPATH:;
#CDTITLE:;
#MUSIC:Vodovorot.ogg;
#OFFSET:-0.064;
#SAMPLESTART:51.220;
#SAMPLELENGTH:12.000;
#SELECTABLE:YES;
#BPMS:0.000=150.020;
#STOPS:;
#BGCHANGES:;

//---------------dance-single - ----------------
#NOTES:
     dance-single:
     :
     Challenge:
     9:
     0.634,0.584,0.025,0.025,0.097: // measure 1
0000
0000
0000
0000
,  // measure 2
0000
0000
0000
0000
,  // measure 3
0000
0000
0000
0000
,  // measure 4
0000
0000
0000
0000
,  // measure 5
0010
0000
0100
0000
0010
0000
0100
0000
0010
0000
1000
0000
1000
0010
0100
0000
,  // measure 6
0010
0000
0100
0010
1000
0000
0001
0000
0100
0000
0001
0000
0100
0000
0010
0000
,  // measure 7
0001
0010
0100
1000
0001
0100
0001
1000
,  // measure 8
0010
0010
0100
0100
0001
0001
1000
1000
,  // measure 9
0100
0000
1000
0100
1000
0100
0000
0000
0010
0000
0001
0000
0010
0000
0000
0000
,  // measure 10
0100
0000
1000
0100
0000
0100
1000
0000
0001
0000
1000
0000
0001
0000
0000
0000
,  // measure 11
0100
0000
0001
1000
0000
1000
0001
0000
0100
0000
0010
0000
0100
0000
0000
0000
,  // measure 12
0001
0000
1000
0100
0000
0100
1000
0000
0001
0000
1000
0000
0001
0000
0000
0000
,  // measure 13
1000
0000
0100
1000
0000
1000
0100
0000
1000
0000
0100
0000
0010
0000
0000
0000
,  // measure 14
0001
0000
0010
0001
0000
0001
0010
0000
0100
0000
1000
0000
0100
0000
0000
0000
,  // measure 15
0010
0000
0001
1000
0000
1000
0001
0000
0100
0000
0010
0000
0100
0000
0000
0000
,  // measure 16
1001
0000
0110
0000
1001
0000
0010
0100
,  // measure 17
0010
0100
0010
0100
0001
1000
0001
1000
,  // measure 18
0001
1000
0001
1000
0001
0000
1000
0100
,  // measure 19
1000
0100
1000
0100
0010
0001
0010
0001
,  // measure 20
0010
0001
0010
0001
0010
0000
0100
1000
,  // measure 21
0100
1000
0100
1000
0100
0010
0001
0010
,  // measure 22
0001
0010
0001
0010
0001
0000
0100
0100
,  // measure 23
0010
1000
0010
1000
0010
1000
0100
0010
,  // measure 24
0001
0100
0001
0100
0001
0000
0100
0010
,  // measure 25
0100
0010
0100
0010
1000
0001
1000
0001
,  // measure 26
1000
0001
1000
0001
1000
0000
0010
0100
,  // measure 27
0010
0100
0010
0100
0001
0100
0001
0100
,  // measure 28
0001
0100
0001
0100
0001
0000
1000
0100
,  // measure 29
1000
0100
1000
0100
1000
0010
0100
0010
,  // measure 30
0100
0010
0100
0010
0100
0000
0001
1000
,  // measure 31
0001
1000
0100
0010
0001
1000
1000
0100
,  // measure 32
0200
1000
1000
1000
1000
1000
1300
0000
,  // measure 33
0100
0010
0001
0010
0010
0100
0100
1000
,  // measure 34
0100
0010
0100
1000
0100
0010
0100
0000
,  // measure 35
0001
1000
0001
0100
0010
0010
1000
1000
,  // measure 36
0001
0010
0100
0010
0001
0010
0100
0000
,  // measure 37
0001
1000
0001
0001
1000
0010
0010
0100
,  // measure 38
0001
0100
0001
0100
0001
0100
0001
0000
,  // measure 39
1000
0100
1000
1000
0100
1000
1000
0000
,  // measure 40
0100
0010
0001
0010
0100
0010
0010
0001
,  // measure 41
0001
0010
0100
1000
0001
0100
0100
0010
,  // measure 42
1000
0010
1000
0010
1000
0100
0100
0000
,  // measure 43
0010
0001
0010
0001
0001
0010
0010
0100
,  // measure 44
1000
0100
0010
0100
1000
0100
0100
0000
,  // measure 45
1000
0001
0100
0100
0001
1000
1000
0010
,  // measure 46
0100
0010
0100
0010
0100
0010
0010
0000
,  // measure 47
1000
0001
0100
0100
0001
0010
0010
0000
,  // measure 48
0100
1000
0100
1000
0100
0010
0010
0001
,  // measure 49
0001
0010
0100
1000
0100
0010
0100
0000
,  // measure 50
1000
0000
0001
0000
0100
0000
0000
0000
0001
1000
0001
0000
1000
0000
0100
0000
,  // measure 51
0010
0100
1000
0100
0010
0001
1000
0000
,  // measure 52
0100
0000
1000
0000
0001
0000
1000
0000
0100
0010
0001
0100
0010
1000
0000
0000
,  // measure 53
0001
0100
0001
0100
0010
1000
1000
0000
,  // measure 54
0001
0000
0010
0000
0100
0000
1000
0000
0100
1000
0000
1000
0100
0010
0000
0000
,  // measure 55
0001
0010
0100
1000
0010
0100
0010
0100
,  // measure 56
0001
1000
0001
1000
0001
1000
0010
0100
,  // measure 57
0010
1000
0001
1000
0010
0100
0010
0100
,  // measure 58
0010
0100
0010
0100
0010
0000
1000
0010
,  // measure 59
1000
0010
1000
0010
0100
0001
0100
0001
,  // measure 60
0100
0001
1000
0001
1000
0000
0010
0100
,  // measure 61
0010
0100
0010
0100
0010
1000
0010
1000
,  // measure 62
0010
1000
0010
1000
0010
0000
1000
0001
,  // measure 63
1000
0001
1000
0001
0100
0010
0100
0010
,  // measure 64
0100
0001
1000
0001
1000
0000
0001
0100
,  // measure 65
0001
0100
0001
0100
0001
1000
0001
1000
,  // measure 66
0001
0100
0010
0100
0010
0000
1000
0010
,  // measure 67
1000
0010
1000
0010
0100
0001
0100
0001
,  // measure 68
0100
0001
1000
0001
1000
0000
0010
0100
,  // measure 69
0010
0100
0010
0100
0010
0100
0001
0001
,  // measure 70
0001
0000
1000
1000
1000
0000
0010
0100
,  // measure 71
0010
0100
0010
0100
0010
1000
1000
2000
,  // measure 72
0100
0100
0100
3100
,  // measure 73
0020
0001
0001
0031
;

//---------------dance-single - ----------------
#NOTES:
     dance-single:
     :
     Hard:
     8:
     0.528,0.523,0.025,0.025,0.000:
0000
0000
0000
0000
,
0000
0000
0000
0000
,
0000
0000
0000
0000
,
0000
0000
0000
0000
,
0010
1000
0010
1000
0010
0100
0100
0001
,
0010
0100
1000
0010
0100
0010
0100
0000
,
0001
1000
0010
0100
0001
1000
0001
0100
,
0010
0100
0010
0100
0010
0100
0010
0010
,
1000
0100
1000
0100
1000
0100
1000
0000
,
0001
0010
0001
0010
0001
0010
0001
0000
,
1000
0001
1000
0000
0010
0100
0010
0000
,
1000
0001
1000
0010
0100
0001
1000
0000
,
0001
0010
0100
0010
0001
0010
0100
0000
,
1000
0100
0010
0100
1000
0100
0010
0000
,
0001
0010
0100
1000
0010
0100
0010
0000
,
1001
0000
0110
0000
1001
0000
0010
0100
,
0010
0000
0010
0000
0010
1000
0010
1000
,
0010
0000
0010
0000
0010
0000
0100
0010
,
0100
0000
0100
0000
0100
0001
0100
0001
,
0100
0000
0100
0000
0100
0000
0001
1000
,
0001
1000
0001
0000
0001
0000
1000
0001
,
1000
0000
1000
0000
1000
0000
0010
1000
,
0010
0000
0010
0000
0010
1000
0001
1000
,
0001
0000
0100
0000
0100
0000
0010
0100
,
0010
0000
0010
0000
0010
0100
0010
0100
,
0010
0000
0010
0000
0010
0000
1000
0001
,
1000
0000
1000
0000
1000
0001
1000
0001
,
1000
0000
1000
0000
1000
0000
0001
0100
,
0001
0000
0001
0000
0001
0100
0001
0100
,
0001
0000
0001
0000
0001
0000
1000
0010
,
1000
0000
0010
0000
0010
0100
0010
0100
,
0020
0000
0000
0000
0000
0000
0000
0030
,
1000
0001
0010
0100
0100
1000
1000
0010
,
0100
0010
0100
0010
0100
0010
0100
0000
,
0001
1000
0100
0010
0001
0001
0010
0010
,
0100
1000
0100
1000
0100
1000
0100
0000
,
0010
0001
0010
0010
0100
1000
1000
0001
,
0100
0001
0100
0001
0100
0001
0100
0000
,
0010
1000
0010
0010
1000
0100
0100
0000
,
0010
0001
0010
0001
0010
0001
0010
0000
,
0001
0010
0100
1000
0001
0100
0001
1000
,
0010
1000
0010
1000
0010
1000
0010
0000
,
0100
0001
0100
0010
0010
1000
0100
0100
,
1000
0001
0010
0100
1000
0100
0010
0000
,
0001
0100
0010
0010
0001
1000
1000
0010
,
0100
0010
0100
0010
0100
0010
0100
0000
,
0001
1000
0001
0001
1000
0010
0010
0000
,
0100
0001
0100
0001
0100
0001
0100
0000
,
0001
0010
0100
0000
1000
0100
0010
0000
,
0001
0100
0010
0000
1000
0001
0100
0000
,
0001
0010
0100
0000
1000
0100
0010
0000
,
0001
1000
0010
0000
0100
0001
1000
0000
,
0001
1000
0001
1000
0010
0100
0010
0000
,
1000
0100
0010
0001
1000
0100
1000
0000
,
0001
0010
0100
1000
0001
0100
0001
0100
,
0010
1000
0010
1000
0010
1000
0001
0100
,
0010
0000
0010
0000
0010
1000
0010
1000
,
0010
0000
0010
0000
0010
0000
0100
0010
,
0100
0000
0100
0000
0100
0001
0100
0001
,
0100
0000
0100
0000
0100
0000
0010
1000
,
0010
0000
0010
0000
0010
0100
0010
0100
,
0010
0000
0010
0000
0010
0000
1000
0001
,
1000
0000
1000
0000
1000
0001
1000
0001
,
1000
0000
1000
0000
1000
0000
0001
0100
,
0001
0000
0001
0000
0001
0100
0001
0100
,
0001
0000
0001
0000
0001
0000
0100
0010
,
0100
0000
0100
0000
0100
0001
0100
0001
,
0100
0000
0100
0000
0100
0000
0001
1000
,
0001
0000
0001
0000
0001
1000
0001
1000
,
0001
0000
1000
0000
1000
0000
0010
0100
,
0010
0000
0010
0000
0010
0100
0001
2000
,
0100
0100
0100
3100
,
0020
0001
0001
0031
;

//---------------dance-single - ----------------
#NOTES:
     dance-single:
     :
     Medium:
     5:
     0.388,0.431,0.245,0.051,0.000:
0000
0000
0000
0000
,
0000
0000
0000
0000
,
0000
0000
0000
0000
,
0000
0000
0000
0000
,
1000
0001
1000
0001
,
1000
0010
0100
0010
,
0100
0001
1000
0001
,
2000
0000
0000
3000
,
0001
0000
0100
0000
0001
1000
0001
0000
,
1000
0000
0010
0000
0100
0001
0100
0000
,
0010
0000
1000
0000
0001
0100
0001
0000
,
1000
0000
0010
0000
0100
0001
0100
0000
,
0001
0000
0001
0000
1000
0001
1000
0000
,
0001
0000
0001
0000
1000
0001
1000
0000
,
0010
0000
0010
0000
0100
0010
0100
0000
,
0020
0000
0000
0000
0000
0030
0000
0000
,
1000
1000
1000
1000
,
1001
0001
0001
0001
,
0001
0001
0001
0110
,
0110
1000
1000
1000
,
1000
1000
1000
1001
,
1001
0001
0001
0001
,
0001
0001
0001
0110
,
0110
1000
1000
1000
,
1000
1000
1000
1010
,
1010
0001
0001
0001
,
0001
0001
0001
0101
,
0101
0010
0010
0010
,
1010
0001
0001
0001
,
0101
0010
0010
0010
,
1010
0001
0001
0001
,
2002
0000
0000
0000
0000
0000
0000
3003
,
1000
0010
1000
0010
,
0010
0010
0010
0010
,
1000
0010
1000
0010
,
1000
1000
1000
1000
,
0001
0100
0001
0100
,
0010
0010
0010
0010
,
1000
0001
1000
0001
,
1000
1000
1000
1000
,
0001
0100
0010
1000
,
0001
0100
0010
1000
,
0001
0100
0010
1000
,
0001
1000
0001
1000
,
0010
0000
0100
0000
0001
1000
0001
0000
,
1000
0001
1000
0010
,
0100
0000
0001
0000
1000
0010
1000
0000
,
0001
1000
1001
1001
,
0010
0110
1001
1001
,
0010
0000
0100
0000
0010
0100
0010
0000
,
1000
0001
1001
1001
,
0110
0000
0110
0000
0010
0100
0010
0000
,
1000
0001
1000
0001
,
1001
1001
0110
0110
,
1000
0001
1000
0000
0010
0100
0010
0000
,
1000
0001
1000
0010
,
0110
0000
0100
0000
0100
0001
0100
0000
,
0100
0100
0100
0010
,
0010
0000
0010
0000
0010
1000
0010
0000
,
1000
1000
1000
0001
,
0100
0000
0010
0000
1000
0001
1000
0000
,
0010
0010
0010
0010
,
0100
0000
0100
0000
0100
0001
0100
0000
,
0010
0000
0010
0000
0010
0000
1000
0001
,
1000
0000
0010
0000
0010
0000
0100
0010
,
0100
0001
0001
1000
,
0010
0000
1000
0000
0001
0100
0001
0000
,
1000
0000
1000
0000
1000
0000
0010
0100
,
0010
0000
0010
0000
0010
0000
1000
0001
,
1000
0000
0010
0000
0100
0000
0010
0100
,
0010
0000
0010
0000
0010
1000
0001
1000
,
0002
0000
0000
0000
0000
0000
0000
0003
,
2000
0000
0000
0000
0000
0000
0000
3000
;

//---------------dance-single - ----------------
#NOTES:
     dance-single:
     :
     Easy:
     3:
     0.321,0.277,0.000,0.034,0.000:
0000
0000
0000
0000
,
0000
0000
0000
0000
,
0000
0000
0000
0000
,
0000
0000
0000
0000
,
1000
0010
1000
0010
,
1000
1000
1000
1000
,
0001
0100
0001
0100
,
0001
0001
0001
0001
,
1000
0010
0100
0001
,
0000
1000
1000
1000
,
0000
0001
0100
0010
,
1000
0001
0100
0100
,
0010
1000
0010
1000
,
0001
0100
0001
0001
,
1000
0001
1000
0001
,
0200
0000
0000
0300
,
0010
0010
0010
0010
,
0010
0010
0010
0010
,
1000
1000
1000
1000
,
1000
1000
1000
1000
,
0001
0001
0001
0001
,
0001
0001
0001
0001
,
0100
0100
0100
0100
,
0100
0100
0100
0100
,
0010
0010
0010
0010
,
0010
0010
0010
0010
,
1000
1000
1000
1000
,
1000
1000
1000
1000
,
0001
0001
0001
0001
,
0001
0001
0001
0100
,
0100
0100
0100
0100
,
0020
0000
0000
0000
0000
0000
0000
0030
,
1000
0001
1000
0001
,
1000
0001
1000
0001
,
1000
1000
1000
1000
,
0010
0100
0010
0100
,
0001
0001
0001
0001
,
0100
0010
0100
0010
,
1000
1000
1000
1000
,
0010
0100
0010
0100
,
0001
1000
0001
1000
,
0001
1000
0001
1000
,
0010
0100
0010
0100
,
0010
0100
0010
0100
,
0001
1000
0001
1000
,
0001
1000
0001
1000
,
0010
0100
0010
0100
,
0010
0100
0010
0100
,
0001
0001
0001
0001
,
1000
1000
1000
1000
,
0010
0010
0010
0010
,
0100
0100
0100
0100
,
0001
0001
0001
0001
,
1000
1000
1000
1000
,
0010
0010
0010
0010
,
0100
0100
0100
0100
,
0001
0001
0001
0001
,
0001
0001
0001
0001
,
1000
1000
1000
1000
,
1000
1000
1000
1000
,
0010
0010
0010
0010
,
0010
0010
0010
0100
,
0100
0100
0100
0100
,
0100
0100
0100
0100
,
0001
0001
0001
0001
,
0001
0001
0001
0001
,
1000
1000
1000
1000
,
1000
1000
1000
1000
,
0010
0010
0010
0010
,
0010
0010
0010
0010
,
0100
0100
0100
0100
,
0200
0000
0000
0300
,
0002
0000
0000
0000
0000
0000
0000
0003
;

//---------------dance-single - Copied from----------------
#NOTES:
     dance-single:
     Copied from:
     Beginner:
     1:
     0.082,0.090,0.000,0.000,0.000:
0000
0000
0000
0000
,
0000
0000
0000
0000
,
0000
0000
0000
0000
,
0000
0000
0000
0000
,
0001
0000
0000
0000
,
0001
0000
0000
0000
,
0001
0000
0000
0000
,
0001
0000
0000
0000
,
1000
0000
0000
0000
,
1000
0000
0000
0000
,
1000
0000
0000
0000
,
1000
0000
0000
0000
,
1000
0000
0000
0000
,
1000
0000
0000
0000
,
1000
0000
0000
0000
,
1000
0000
0000
0000
,
0010
0000
0000
0000
,
0010
0000
0000
0000
,
0010
0000
0000
0000
,
0010
0000
0000
0000
,
0100
0000
0000
0000
,
0100
0000
0000
0000
,
0100
0000
0000
0000
,
0100
0000
0000
0000
,
0010
0000
0000
0000
,
0010
0000
0000
0000
,
0100
0000
0000
0000
,
0100
0000
0000
0000
,
0010
0000
0000
0000
,
0010
0000
0000
0000
,
0100
0000
0000
0000
,
0100
0000
0000
0000
,
0001
0000
0000
0000
,
0001
0000
0000
0000
,
1000
0000
0000
0000
,
1000
0000
0000
0000
,
0001
0000
0000
0000
,
0001
0000
0000
0000
,
1000
0000
0000
0000
,
1000
0000
0000
0000
,
0001
0000
0000
0000
,
0001
0000
0000
0000
,
1000
0000
0000
0000
,
1000
0000
0000
0000
,
0010
0000
0000
0000
,
0010
0000
0000
0000
,
0100
0000
0000
0000
,
0100
0000
0000
0000
,
0001
0000
0000
0000
,
0001
0000
0000
0000
,
1000
0000
0000
0000
,
1000
0000
0000
0000
,
0010
0000
0000
0000
,
0010
0000
0000
0000
,
0100
0000
0000
0000
,
0100
0000
0000
0000
,
0001
0000
0000
0000
,
1000
0000
0000
0000
,
0001
0000
0000
0000
,
1000
0000
0000
0000
,
0001
0000
0000
0000
,
1000
0000
0000
0000
,
0001
0000
0000
0000
,
1000
0000
0000
0000
,
0010
0000
0000
0000
,
0100
0000
0000
0000
,
0010
0000
0000
0000
,
0100
0000
0000
0000
,
0010
0000
0000
0000
,
0100
0000
0000
0000
,
0010
0000
0000
0000
,
0100
0000
0000
0000
;
