#TITLE:V35;
#SUBTITLE:;
#ARTIST:Tiger YAMATO;
#TITLETRANSLIT:;
#SUBTITLETRANSLIT:;
#ARTISTTRANSLIT:;
#CREDIT:SupremeX;
#BANNER:v35-bn.png;
#BACKGROUND:v35-bg.png;
#LYRICSPATH:;
#CDTITLE:;
#MUSIC:V35.ogg;
#OFFSET:-0.023;
#SAMPLESTART:71.381;
#SAMPLELENGTH:12.640;
#SELECTABLE:YES;
#BPMS:0.000=148.000;
#STOPS:;
#BGCHANGES:0.000=V35.avi=1.000=1=1=0,
99999=-nosongbg-=1.000=0=0=0 // don't automatically add -songbackground-
;

//---------------dance-single - ----------------
#NOTES:
     dance-single:
     :
     Hard:
     8:
     0.574,0.550,0.200,0.080,0.251: // measure 1
0000
0000
0000
0000
,  // measure 2
0000
0000
0000
0000
,  // measure 3
0000
0000
0000
0000
,  // measure 4
0000
0000
0000
0000
,  // measure 5
1000
0000
0000
0100
0000
0000
1000
0000
0000
0000
0001
0000
0010
0000
0100
0000
,  // measure 6
1000
0000
0000
0100
0000
0000
0100
0000
0000
0000
1000
0000
0010
0000
0100
0000
,  // measure 7
0001
0000
0000
0001
0000
0000
1000
0000
0000
0000
0100
0000
1000
0000
0100
0000
,  // measure 8
0010
0000
0000
0001
0000
0000
0010
0000
0000
0000
1000
0000
0100
0000
1000
0000
,  // measure 9
0010
0000
0000
0110
0000
0000
0101
0000
0000
0000
0010
0000
1000
0000
0010
0000
,  // measure 10
0100
0000
0000
0101
0000
0000
1001
0000
0000
0000
0100
0000
0010
0000
0100
0000
,  // measure 11
0010
0000
0000
0110
0000
0000
1001
0000
0000
0000
1000
0000
0010
0000
0100
0000
,  // measure 12
0010
0000
0000
0010
0000
0000
1000
0000
0000
0000
0100
0000
1000
0000
0010
0000
,  // measure 13
0110
0000
0001
1000
0100
0000
0100
1000
,  // measure 14
0001
0100
0001
1000
0010
0100
0001
1000
,  // measure 15
0001
0000
1000
0100
0010
0100
1000
0100
,  // measure 16
0010
0001
1000
0010
0100
0010
1000
0001
,  // measure 17
0001
1000
0100
0010
0100
1000
0100
0010
,  // measure 18
0100
0001
0100
0010
0100
0001
0100
0010
,  // measure 19
0010
1000
0001
1000
0100
1000
0001
1000
,  // measure 20
0001
0000
0000
0100
0010
0000
0000
0010
0100
0000
0000
0100
0001
0000
0000
0000
,  // measure 21
1000
0000
0000
0100
0000
0000
1000
0000
0100
0000
0000
0010
0000
0000
0100
0000
,  // measure 22
0001
0000
0000
1000
0000
0000
0100
0000
0010
0000
0000
0100
0000
0000
0001
0000
,  // measure 23
1000
0000
0000
0010
0000
0000
0100
0000
0001
0000
0000
0100
0000
0000
0010
0000
,  // measure 24
1000
0000
0000
0001
0000
0000
0100
0000
0010
0000
0000
0100
0000
0000
0010
0000
,  // measure 25
1000
0000
0000
0001
0000
0000
1000
0000
0100
0000
0100
0000
1000
0000
0100
0000
,  // measure 26
2000
0000
0000
3100
0000
0000
0000
0000
0100
0000
0010
0000
0100
0000
0010
0000
,  // measure 27
0002
0000
0000
0103
0000
0000
0000
0000
0001
0000
1000
0000
0100
0000
0010
0000
,  // measure 28
0200
0000
0000
1300
0000
0000
0000
0000
0100
0000
1000
0000
0100
0000
0010
0000
,  // measure 29
0001
0000
0100
0010
1000
0010
0100
0010
,  // measure 30
1000
0000
0001
0010
0100
0010
0001
0010
,  // measure 31
0100
0000
1000
0100
0010
0100
0010
0001
,  // measure 32
1000
0000
0100
0010
0100
0001
1000
0010
,  // measure 33
0100
0000
0001
1000
0100
1000
0001
1000
,  // measure 34
0100
0000
0010
0001
0010
0100
0000
1000
,  // measure 35
1000
0000
0100
0010
0001
0010
0100
0000
,  // measure 36
1000
0100
1000
0100
0010
0001
0010
0001
,  // measure 37
0010
0100
0010
0100
1000
0100
1000
0100
,  // measure 38
0010
0001
0010
0100
0010
0000
0011
0100
,  // measure 39
1000
0000
0000
0100
0000
0000
0010
0000
0100
0000
0000
0001
0000
0000
1000
0000
,  // measure 40
0100
0000
1000
0000
0100
0000
1000
0001
,  // measure 41
1000
0000
0000
0010
0000
0000
0100
0000
0010
0000
0000
0000
0101
0000
0000
0000
,  // measure 42
0010
1000
0010
0000
1000
0100
1000
0100
,  // measure 43
0010
0001
0010
0100
1000
0100
1000
0000
,  // measure 44
0110
0011
0110
1100
,  // measure 45
0110
0000
0000
0001
0000
0000
0100
0000
0010
0000
0000
0010
0000
0000
1000
0000
,  // measure 46
0100
0000
0000
0100
0000
0000
1000
0000
0010
0000
0000
0010
0000
0000
0100
0000
,  // measure 47
0001
0000
0000
0001
0000
0000
0010
0000
0100
0000
0000
0100
0000
0000
1000
0000
,  // measure 48
0010
0000
0000
0010
0000
0000
0100
0000
0001
0000
0000
0001
0000
0000
0010
0000
,  // measure 49
0100
0000
0000
0100
0000
0000
1000
0000
0100
0000
0010
0000
0001
0000
0010
0000
,  // measure 50
0200
0000
0000
1300
0000
0000
0100
0000
1000
0000
0100
0000
0010
0000
0001
0000
,  // measure 51
0200
0000
0000
0310
0000
0000
0000
0000
0100
0000
0010
0000
1000
0000
0100
0000
,  // measure 52
0020
0000
0000
0031
0000
0000
0010
0000
0001
0000
0010
0000
0100
0000
1000
0000
,  // measure 53
1100
0000
0000
1000
0100
0000
1000
0000
0100
0000
0000
0010
0001
0000
0010
0000
,  // measure 54
0001
0000
0000
0010
0100
0000
0010
0000
0100
0000
0000
1000
0100
0000
1000
0000
,  // measure 55
0100
0000
0000
0010
0001
0000
0010
0000
0001
0000
0000
0010
0100
0000
0010
0000
,  // measure 56
0100
0000
0000
1000
0100
0000
1000
0000
0100
0000
0000
0010
0001
0000
0010
0000
,  // measure 57
0010
0000
0000
1100
0000
0000
0001
0000
0010
0000
0100
0000
1000
0000
0010
0000
,  // measure 58
0100
0000
0000
0110
0000
0000
0001
0000
0100
0000
0010
0000
1000
0000
0100
0000
,  // measure 59
0100
0000
0000
1100
0000
0000
0010
0000
0001
0000
0010
0000
0100
0000
0010
0000
,  // measure 60
0001
0000
0000
0101
0000
0000
0010
0000
0100
0000
1000
0000
0100
0000
0010
0000
,  // measure 61
0220
0000
0000
0000
,  // measure 62
0330
0000
0000
0000
;

//---------------dance-single - ----------------
#NOTES:
     dance-single:
     :
     Beginner:
     1:
     0.089,0.150,0.000,0.000,0.000:
0000
0000
0000
0000
,
0000
0000
0000
0000
,
0000
0000
0000
0000
,
0000
0000
0000
0000
,
1000
0000
0000
0000
,
1000
0000
0000
0000
,
0100
0000
0000
0000
,
0100
0000
0000
0000
,
0010
0000
0000
0000
,
0010
0000
0000
0000
,
0001
0000
0000
0000
,
0001
0000
0000
0000
,
1000
0000
0000
0000
,
0100
0000
0000
0000
,
0010
0000
0000
0000
,
0001
0000
0000
0000
,
1000
0000
0000
0000
,
0100
0000
0000
0000
,
0010
0000
0000
0000
,
0001
0000
0000
0000
,
1000
0000
0000
0000
,
1000
0000
0000
0000
,
0010
0000
0000
0000
,
0010
0000
0000
0000
,
0100
0000
0000
0000
,
0100
0000
0000
0000
,
0001
0000
0000
0000
,
0001
0000
0000
0000
,
0100
0000
0000
0000
,
0010
0000
0000
0000
,
0100
0000
0000
0000
,
0010
0000
0000
0000
,
0100
0000
0000
0000
,
0001
0000
0000
0000
,
0100
0000
0000
0000
,
0001
0000
0000
0000
,
1000
0000
0000
0000
,
1000
0000
0000
0000
,
1000
0000
0000
0000
,
1000
0000
0000
0000
,
0010
0000
0000
0000
,
0010
0000
0000
0000
,
0010
0000
0000
0000
,
0010
0000
0000
0000
,
1000
0000
0000
0000
,
1000
0000
0000
0000
,
0100
0000
0000
0000
,
0100
0000
0000
0000
,
0010
0000
0000
0000
,
0010
0000
0000
0000
,
0001
0000
0000
0000
,
0001
0000
0000
0000
,
1000
0000
0010
0000
,
1000
0000
0010
0000
,
0100
0000
0001
0000
,
0100
0000
0001
0000
,
1000
0000
0000
0000
,
0010
0000
0000
0000
,
1000
0000
0000
0000
,
0001
0000
0100
0000
,
0001
0000
0000
0000
;

//---------------dance-single - ----------------
#NOTES:
     dance-single:
     :
     Easy:
     3:
     0.281,0.306,0.110,0.070,0.000:
0000
0000
0000
0000
,
0000
0000
0000
0000
,
0000
0000
0000
0000
,
0000
0000
0000
0000
,
1000
0000
0000
0010
0000
0000
0000
0000
,
1000
0000
0000
0010
0000
0000
0000
0000
,
0100
0000
0000
0001
0000
0000
0000
0000
,
0100
0000
0000
0001
0000
0000
0000
0000
,
1000
1000
0010
0100
,
0010
0100
0001
1000
,
0010
0100
0001
1000
,
0010
1000
0001
0100
,
0020
0000
0000
0000
,
2030
0000
0000
0000
,
3002
0000
0000
0000
,
0203
0000
0000
0000
,
0310
0010
1000
1000
,
0001
0001
0100
0100
,
0010
1000
0001
1000
,
0010
0010
0010
0010
,
1000
0001
1000
0001
,
1000
0001
0100
0010
,
0100
0010
0100
0010
,
0100
0010
0100
0010
,
1001
0000
0010
0010
,
1001
0000
0100
0100
,
1001
0000
0010
0010
,
1001
0000
0100
0100
,
0001
1000
0000
0010
,
0100
0001
0000
1000
,
0010
0100
0000
0000
,
0001
0100
0010
1000
,
0001
0001
0000
1000
,
0010
0010
0000
0100
,
0001
0001
0000
0000
,
1000
1000
1000
1000
,
0010
0010
0010
0010
,
0010
0010
0010
0010
,
0100
0001
0100
0001
,
0100
0001
0100
0001
,
1000
1000
1000
1000
,
1000
1000
1000
1000
,
0002
0000
0000
0000
,
0003
0000
0000
0000
,
0100
0010
0100
0010
,
0100
0010
1000
0001
,
1000
0001
1000
0001
,
1000
0001
1000
0001
,
0100
0000
0010
0010
,
1001
0000
0100
0100
,
1001
0000
0010
0010
,
1001
0000
0100
0100
,
0001
1000
0001
1000
,
0001
1000
0001
1000
,
0010
0100
0010
0100
,
0010
0100
0010
0100
,
0010
0000
0100
0100
,
1001
0000
0010
0010
,
1001
0000
0100
0100
,
1001
0000
0010
0100
,
2002
0000
0000
0000
,
3003
0000
0000
0000
;

//---------------dance-single - ----------------
#NOTES:
     dance-single:
     :
     Medium:
     5:
     0.420,0.489,0.231,0.070,0.000:
0000
0000
0000
0000
,
0000
0000
0000
0000
,
0000
0000
0000
0000
,
0000
0000
0000
0000
,
1000
0000
0010
0000
0100
0000
0001
1000
,
0001
0000
0100
0000
0010
0000
1000
0010
,
1000
0000
0001
0000
0100
0000
0010
1000
,
0010
0100
0001
1000
,
0010
0000
0100
0000
0101
0000
0010
1000
,
0010
0000
0100
0000
0001
0000
1000
0010
,
0100
0000
0001
0000
1000
0000
0010
0100
,
0001
1000
0010
0100
,
0002
0000
0000
0003
,
2000
0000
0000
3000
,
0020
0000
0000
0030
,
0200
0000
0000
0300
,
0001
1000
0010
1000
,
0001
0100
0001
1000
,
0010
0100
0010
0000
1000
0001
1000
0000
,
0010
0100
0010
0100
0010
0100
0010
0000
,
1001
0010
1010
0001
,
0101
0000
0010
0000
1000
0010
1000
0000
,
0001
0100
0010
0000
1000
0010
0100
0000
,
0001
0010
0100
0000
1000
0100
0010
0000
,
0001
0101
0010
1010
,
0001
0000
1000
0000
0010
0100
0010
0100
,
0010
0000
1000
0000
0001
0100
0001
0100
,
0001
0000
1000
0000
0010
0100
0010
0000
,
1000
0001
1000
0010
,
0100
0001
1000
0010
,
0100
0001
1000
1000
,
0010
0010
0100
0100
,
0001
1000
0010
0100
,
0001
1000
1000
0010
,
0200
0000
0000
0000
0000
0000
0000
0300
,
0001
0001
0001
0001
,
1000
0010
1000
0000
0001
0100
0001
0000
,
1000
0010
0100
0000
0001
1000
0001
0000
,
0100
0110
0001
0011
,
1000
0000
1100
0000
0010
0000
0100
0001
,
0100
0000
0010
1000
0010
0000
0100
0001
,
0010
0000
0100
1000
0010
0000
1000
0000
,
0010
0000
1000
0001
0100
0000
0010
1000
,
0010
0110
0001
1001
,
1000
0000
1000
0000
0010
0100
0010
0000
,
1000
0000
1000
0000
0001
0100
0010
0000
,
1000
0010
0100
0000
0001
0100
0001
0000
,
1000
0010
0100
0000
0001
0010
0001
0000
,
1000
0000
0010
0000
0100
0010
0100
0010
,
0100
0000
0001
0000
1000
0010
0100
0010
,
0100
0000
0001
0000
1000
0010
0100
0010
,
0100
0000
0001
0000
1000
0010
1000
0010
,
0100
0101
0010
1010
,
0001
0101
1000
1100
,
0010
0011
1001
0110
,
1001
0110
1001
0110
,
1000
0000
0010
0000
0100
0001
0100
0001
,
0100
0000
0010
0000
1000
0010
1000
0010
,
1000
0000
0001
0000
0100
0010
1000
0010
,
1000
0000
0001
0000
0100
0010
1000
0010
,
0220
0000
0000
0000
,
0330
0000
0000
0000
;
