#TITLE:終焔のClaudia;
#SUBTITLE:;
#ARTIST:二代目朱雀;
#TITLETRANSLIT:Tsui homura no Claudia;
#SUBTITLETRANSLIT:;
#ARTISTTRANSLIT:Nidaime Suzaku;
#GENRE:;
#CREDIT:SupremeX & CLOUDIO;
#BANNER:Tsui Homura no Claudia-bn.png;
#BACKGROUND:Tsui Homura no Claudia-bg.png;
#LYRICSPATH:;
#CDTITLE:;
#MUSIC:Tsui homura no Claudia.ogg;
#OFFSET:-0.273876;
#SAMPLESTART:76.879997;
#SAMPLELENGTH:12.000000;
#SELECTABLE:YES;
#DISPLAYBPM:185.000000;
#BPMS:0.000000=90.000000
,12.000000=45.000000
,14.750000=185.000000
;
#STOPS:47.000000=2.270000
;
#BGCHANGES:-0.500=Tsui Homura no Claudia.avi=1.000=0=0=1=====,
99999=-nosongbg-=1.000=0=0=0 // don't automatically add -songbackground-
;
#KEYSOUNDS:;
#ATTACKS:;

//---------------dance-single - ----------------
#NOTES:
     dance-single:
     :
     Challenge:
     10:
     0.746524,0.848277,0.205806,0.250546,0.348975,584.000000,561.000000,23.000000,28.000000,0.000000,0.000000,0.746524,0.848277,0.205806,0.250546,0.348975,584.000000,561.000000,23.000000,28.000000,0.000000,0.000000:
0000
0000
0000
0000
,
0000
0000
0000
0000
,
0000
0000
0000
0000
,
0000
0000
0000
1001
,
0000
0000
0100
0001
1000
0000
0001
0010
,
0100
0000
0000
0000
1000
0000
0100
0000
1000
0000
0100
1000
0100
0000
0000
0000
,
0000
0000
0001
1000
0010
0000
0010
0100
,
0001
0000
0000
0000
1000
0000
0100
0000
1000
0000
0010
0100
0001
0000
0000
0000
,
0000
0000
0010
0100
1000
0000
0001
0100
,
0010
0000
0000
0000
1000
0000
0001
0000
1000
0000
0010
0100
0010
0000
0000
0000
,
0000
0100
0010
0100
0001
0000
1000
0100
,
0000
0100
1000
0000
0010
1000
0200
0000
,
0320
0000
0031
2000
0000
0000
3200
0000
,
0310
0001
0000
0010
0200
0000
1300
0010
,
0002
0000
0103
0020
0000
0000
2030
0000
,
3100
0000
1000
0000
0000
0000
1000
0000
0100
0000
0010
0001
0010
0000
0001
0000
,
2000
0000
3100
2000
0000
0000
3002
0000
,
0103
0010
0000
1000
0200
0000
1300
0001
,
0100
0000
0100
0002
0000
0000
0023
0000
,
0130
1000
0000
1000
0200
0000
0310
0001
,
1001
0000
0000
1000
0100
0000
1000
0000
0100
0000
0010
0000
0001
0000
0010
0000
,
0001
1000
0100
1000
0100
0010
0001
0010
,
0001
0000
1000
0010
0100
0000
0001
0000
1000
0000
0100
0000
0010
0000
0001
0000
,
1000
0000
0100
0000
1000
0000
0100
0000
0010
0001
0010
0100
1000
0000
0100
1000
,
0100
0000
0010
0001
0100
0000
0010
1000
0100
0000
0001
0000
1000
0010
0100
0000
,
0001
0000
1000
0100
0010
0000
0100
0000
0001
1000
0010
0000
1000
0000
0100
0000
,
0020
0000
0031
0001
0000
1000
1000
0000
,
0001
0000
0010
0000
0100
0000
1000
0000
0010
0000
0100
0010
0100
0000
0010
0000
,
1000
0001
0100
0010
1000
0010
0100
0001
,
1000
0110
0000
0011
0000
1000
0010
1000
,
0010
0100
0010
0100
0001
1000
0001
0100
,
0000
1010
0000
0101
0000
0001
1000
0010
,
1000
0100
0010
0001
1000
0100
1000
0002
,
0000
0203
0000
0320
1030
0100
0010
0100
,
0010
0001
0100
0001
1000
0001
0100
0001
,
0000
0110
0000
1100
0000
0001
1000
0100
,
1000
0000
0001
0000
0100
0000
0010
0000
0100
0000
0000
0000
0001
0000
1000
0100
,
1000
0000
0110
0000
0001
0010
0100
1000
,
0200
0000
0000
0310
0001
0010
0100
1000
,
0100
0010
1000
0001
0100
0010
1000
0001
1000
0000
0100
0000
0010
0000
0001
0000
,
0100
0000
0001
0000
1000
0000
0100
0000
1000
0000
0000
0000
0010
0000
0100
0010
,
0100
0000
0001
0000
0100
0000
0001
0000
1000
0000
0000
0000
0010
0000
1000
0100
,
1000
0001
0100
0010
1000
0001
0100
0010
1000
0001
0000
0000
,
0010
0100
0001
1000
0010
0100
0001
1000
0010
0000
0000
0000
0000
0000
0000
0000
,
1100
0010
0001
0010
0100
1000
0100
0010
,
0110
1000
0100
1000
0100
0010
0001
0010
,
0011
0001
0010
0100
1000
0001
1000
0100
,
0010
0001
0010
0100
0010
0001
1000
0010
,
0110
0100
0001
1000
0010
0100
0001
0100
,
0010
1000
0010
0100
0001
1000
0100
0010
,
1001
0000
0000
0000
1000
0000
0010
0000
0100
0010
0100
0010
0100
0001
1000
0001
,
2000
0000
0000
0000
0001
0001
3001
0000
,
0010
0000
1000
0000
0001
0000
0100
0010
0100
0000
0101
0000
1000
0000
0100
1000
,
0100
0000
0010
0000
0100
0000
0001
0000
0010
0000
0011
0000
0001
0010
0001
0010
,
0100
1000
0100
1000
0010
0100
0010
0100
,
0001
1000
0100
1000
0100
0010
0100
0010
,
0100
0000
0001
0000
1000
0000
0100
1000
0100
0000
1001
0000
0001
0000
0010
0000
,
0100
0000
0010
0000
0001
0000
0010
0000
0100
0000
1000
0000
0100
1000
0100
0010
,
0100
0000
0000
0001
0010
0000
0100
1000
0200
0000
0000
0000
0320
0000
0000
0000
,
0032
0000
0000
0000
1003
0100
0010
0001
1000
0000
1000
0000
0010
0000
0010
0000
,
0010
0000
1000
0000
0100
0000
0010
0001
1000
0000
0010
0000
0100
0000
0001
1000
,
0010
0000
0100
0000
0001
0000
0010
0000
0100
0000
1000
0000
0100
0010
0001
0010
,
0100
0100
1000
1000
0100
1000
0100
1010
,
0000
0000
0101
0000
0000
0000
1000
0000
0010
0000
0100
0000
0001
1000
0100
1000
,
0001
0000
0100
0000
0010
0000
1000
0100
0010
0000
0001
0000
0010
0000
0100
1000
,
0100
0000
0010
0000
0001
0010
0000
0001
0100
0000
0010
0000
0100
0000
0010
0000
,
1000
0000
0100
1000
0100
0000
1000
0000
0100
0010
0001
0000
1000
0001
1000
0000
,
0110
1001
0220
0000
,
0330
0100
0010
1000
0100
0010
0100
1000
,
0100
0010
0001
0010
0100
0010
0001
1000
,
0100
1000
0001
0100
0010
0100
0010
1000
,
0010
0000
0100
0000
0001
0000
0100
0000
0010
0000
1000
0001
0100
0000
0010
0000
,
1000
0100
1000
0100
0000
0000
0100
0010
0100
0010
0000
0000
0010
0001
0010
0001
,
0000
0000
1000
0100
1000
0100
0010
0000
0001
0000
0010
0000
0100
0000
1000
0000
,
0100
0010
0100
0010
0000
0000
0010
0001
0010
0001
0000
0000
1000
0100
1000
0100
,
0000
0000
0001
0000
0010
0000
0100
0000
1000
0000
0001
0100
0010
1000
0001
0100
,
0000
0220
0000
0000
,
0000
0000
0000
0000
,
0000
0000
0000
0000
,
0330
0000
0000
0000
;

//---------------dance-single - ----------------
#NOTES:
     dance-single:
     :
     Hard:
     9:
     0.641704,0.812932,0.044740,0.026844,0.263968,502.000000,497.000000,5.000000,3.000000,0.000000,0.000000,0.641704,0.812932,0.044740,0.026844,0.263968,502.000000,497.000000,5.000000,3.000000,0.000000,0.000000:
0000
0000
0000
0000
,
0000
0000
0000
0000
,
0000
0000
0000
0000
,
0000
0000
0000
1001
,
0000
0000
1000
0001
0100
0000
0001
0010
,
0100
0000
0000
0000
1000
0000
0100
0000
1000
0000
0010
0100
0010
0000
0000
0000
,
0000
0000
1000
0001
0100
0000
0001
0010
,
0100
0000
0000
0000
1000
0000
0010
0000
0100
0000
0001
1000
0001
0000
0000
0000
,
0000
0000
0010
0100
0010
0000
1000
0001
,
1000
0000
0000
0000
0100
0000
0010
0000
1000
0000
0001
0100
0001
0000
0000
0000
,
0000
0100
0010
0100
0001
0000
1000
0100
,
0000
0100
1000
0000
0010
1000
0200
0000
,
0310
0000
0001
1000
0000
0000
0100
0000
,
0001
1000
0000
1000
0100
0000
0010
1000
,
0001
0000
0100
0010
0000
0000
1000
0000
,
0100
0000
1000
0000
0000
0000
1000
0000
0100
0000
0010
0001
0010
0000
0001
0000
,
1000
0000
0100
1000
0000
0000
0001
0000
,
0100
0010
0000
0010
0100
0000
1000
0001
,
0010
0000
0010
0001
0000
0000
1000
0000
,
0100
0010
0000
0010
0100
0000
0001
1000
,
0100
0000
0000
1000
0100
0000
1000
0000
0100
0000
0000
0000
0010
0000
0000
0000
,
0001
0010
0100
1000
,
0010
0000
0000
0100
0010
0000
0100
0000
0010
0000
0000
0000
0001
0000
0000
0000
,
1000
0000
0000
0000
0100
0000
0000
0000
0010
0001
0010
0100
1000
0000
0100
1000
,
0100
0000
0000
0010
0001
0000
0010
0000
0100
0000
1000
0000
0001
0000
0100
0000
,
0001
1000
0010
0100
0001
1000
0100
0010
,
0001
0000
1000
1000
0000
0100
0100
0000
,
0011
0000
0000
0000
0100
0000
0000
0000
1000
0000
0100
1000
0100
0000
1000
0000
,
0100
0000
0010
0000
0001
0100
0000
0100
,
0000
0010
0000
0010
0000
1000
0100
1000
,
0100
0000
0010
0000
0001
1000
0100
1000
,
0000
0001
0000
0100
0000
0001
1000
0010
,
1000
0000
0100
0000
0001
0100
0000
0100
,
0000
0010
0000
1000
0000
0100
0010
0100
,
0010
0000
0001
0000
1000
0100
1000
0100
,
0000
0010
0000
0100
0000
0010
0001
1000
,
0001
0000
0100
0000
0010
0000
1000
0000
0010
0000
0000
0000
0100
0000
0010
1000
,
0010
0000
0100
0000
0001
0010
0100
1000
,
0100
0000
0000
0010
0001
0010
0100
1000
,
0100
1000
0100
1000
0100
1000
0001
1000
0001
0000
0100
0000
0010
0000
1000
0000
,
0100
0000
1000
0000
0001
0000
0100
0000
0001
0000
0000
0000
1000
0000
0010
1000
,
0010
0000
0000
0000
0100
0000
0001
0000
1000
0000
0000
0000
0010
0000
1000
0100
,
1000
0100
0001
1000
0001
0100
0010
1000
0010
0100
0000
0000
,
0010
0100
0010
0100
0010
1000
0010
1000
0010
0000
0000
0000
0000
0000
0100
0001
,
1000
0000
0100
0000
0010
0001
1000
0100
,
0010
0001
1000
0100
1000
0001
1000
0100
,
1100
0000
0010
0000
0001
1000
0100
1000
,
0001
1000
0010
0100
0010
1000
0100
0010
,
0011
0000
0001
0000
1000
0100
1000
0001
,
1000
0010
0100
0010
1000
0010
0100
0001
,
0110
0000
0000
0000
1000
0000
0100
0000
0010
0001
0010
0001
0010
0100
1000
0100
,
1000
0000
0000
0000
,
0010
0000
0100
0000
0010
0000
0100
0010
0100
0000
0010
0000
1000
0000
0100
1000
,
0100
0000
1000
0000
0100
0000
0010
0000
0001
0000
0010
0000
0100
1000
0100
1000
,
0100
0000
0010
0001
1000
0001
1000
0010
,
0100
0010
1000
0010
0100
0001
0100
0010
,
0100
0000
0001
0000
1000
0000
0100
1000
0100
0000
1000
0000
0001
0000
0010
0000
,
0100
0000
0010
0000
0001
0000
0010
0000
0100
0000
1000
0000
0100
1000
0100
0010
,
0100
0000
0000
0001
0010
0000
0100
1000
0100
0000
0000
0000
0010
0000
0000
0000
,
0001
0000
0000
0000
1000
0100
1000
0100
1000
0000
0010
0000
0001
0000
0010
0000
,
0001
0000
1000
0000
0100
0000
1000
0100
1000
0000
0100
0000
0100
0000
0010
0100
,
0010
0000
0100
0000
0001
0000
0010
0000
0100
0000
1000
0000
0100
1000
0100
0010
,
0100
0000
0010
0000
0001
1000
0100
1000
,
0000
0000
0001
0000
0000
0000
1000
0000
0010
0000
0100
0000
0001
1000
0001
1000
,
0001
0000
0100
0000
0010
0000
1000
0100
1000
0000
0010
0000
0100
0000
0010
1000
,
0010
0001
0100
0010
1000
0100
0010
0100
,
0010
0000
0001
0010
0001
0000
0010
0000
0100
1000
0100
0000
1000
0100
1000
0000
,
0010
0001
0200
0000
,
0310
0100
0010
1000
0000
0001
0100
0000
,
0100
0001
0000
1000
0100
1000
0100
0010
,
0001
0000
0001
0100
0000
0100
0010
0000
,
0010
0000
1000
0000
0000
0000
1000
0000
0010
0000
0100
0001
0100
0000
0010
0000
,
1000
0000
0100
1000
0000
1000
0001
0000
,
0001
0100
0000
0100
0010
1000
0010
0100
,
0001
0000
0001
1000
0000
1000
0010
0000
,
0010
0000
0100
0000
0000
0000
0100
0000
0001
0000
1000
0010
1000
0001
0100
0010
,
0000
0200
0000
0000
,
0000
0000
0000
0000
,
0000
0000
0000
0000
,
0300
0000
0000
0000
;

//---------------dance-single - ----------------
#NOTES:
     dance-single:
     :
     Medium:
     7:
     0.442290,0.565518,0.017896,0.107377,0.022370,346.000000,344.000000,2.000000,12.000000,0.000000,0.000000,0.442290,0.565518,0.017896,0.107377,0.022370,346.000000,344.000000,2.000000,12.000000,0.000000,0.000000:
0000
0000
0000
0000
,
0000
0000
0000
0000
,
0000
0000
0000
0000
,
0000
0000
0000
1001
,
0000
0001
0000
0100
,
0000
0000
0010
0000
1000
0010
0100
0000
,
0000
0001
0000
1000
,
0000
0000
0100
0000
0010
0001
0100
0000
,
0000
0010
0000
1000
,
0000
0000
0001
0000
1000
0100
0010
0000
,
0000
0100
1000
0001
,
0010
0100
1000
0002
,
0103
0000
0000
0010
0000
0000
1000
0000
,
0001
0100
0000
0010
0100
0000
0010
1000
,
0100
0000
0000
0010
0000
0000
0001
0000
,
0100
0010
0000
1000
0010
0200
0300
0001
,
1000
0000
0000
0010
0000
0000
0100
0000
,
0010
1000
0000
0100
1000
0000
0010
0100
,
0001
0000
0000
0100
0000
0000
0010
0000
,
1000
0001
0000
0100
0001
0000
0010
0100
,
1000
0000
0010
0100
0010
0000
0100
0001
,
0100
0000
0001
1000
0001
0000
1000
0010
,
1000
0000
0010
0100
0010
0000
0100
0001
,
0100
0010
1000
0100
1000
0001
0010
0100
,
0010
0000
0100
1000
0100
1000
0010
0100
,
0010
0100
0001
0010
0001
0010
0100
1000
,
0001
0000
0100
0001
0000
1000
0001
0000
,
0010
0001
0000
0010
0100
1000
0001
1000
,
0100
0000
0010
0000
0001
0100
0000
0010
,
0000
0100
0000
0001
0000
0100
0000
0010
,
1000
0000
0100
0000
0010
0100
0000
1000
,
0000
0001
0000
0100
0000
0010
0000
0100
,
0001
0000
1000
0000
0100
0010
0000
0001
,
0000
0100
0000
0010
0000
1000
0000
0100
,
0010
0000
0001
0000
1000
0010
0000
0100
,
0000
0010
0000
1000
0000
0001
0000
0010
,
0100
0000
1000
0100
0010
0000
0100
1000
,
0001
0000
0100
0000
0010
1000
0010
0100
,
0001
0000
0000
0010
0100
1000
0001
0100
,
0020
0000
0000
0000
0130
0001
1000
0100
,
0010
0000
0001
1000
0100
0000
0010
0100
,
1000
0000
0001
0100
0010
0000
0100
0000
,
0001
0000
0100
0000
0001
0000
1000
0000
0100
0000
0010
0000
,
0002
0000
0000
0000
0103
0000
0000
0010
,
0100
0000
0010
0000
,
1000
0100
0010
0000
0100
0000
0000
0010
,
0100
0000
1000
0000
,
0001
0100
0010
0000
0100
0000
0000
0010
,
0100
0000
0001
0000
,
0010
0100
1000
0000
0010
0000
0000
0100
,
0010
0000
0000
0000
,
2000
0000
0000
0000
,
3001
0100
0010
0100
0000
0010
1000
0010
,
0100
0001
0010
0001
0000
0010
0100
1000
,
0001
0100
0010
0100
,
0001
0010
0100
1000
,
0010
0100
0001
0100
0000
0010
0100
0001
,
1000
0100
1000
0001
0000
1000
0010
0100
,
0001
0000
0000
0010
0000
0000
0100
0000
1000
0000
0000
0000
0010
0000
0000
0000
,
0100
0010
1000
0001
,
0100
0010
1000
0010
0000
0100
0001
0100
,
0010
1000
0100
1000
0000
0100
0010
0001
,
1000
0000
0001
0000
0100
0010
0000
1000
,
0000
0001
0000
0010
0000
0100
0000
1000
,
0001
0100
0010
0100
0000
0010
1000
0001
,
1000
0100
0010
0001
0000
0100
0001
1000
,
0010
0200
0300
0001
0200
0300
0020
0030
,
1000
0001
0020
0000
,
0130
0000
1000
0100
0000
0010
0100
0000
,
1000
0010
0100
0010
,
0100
0000
0001
0010
0000
0100
0010
0000
,
0100
1000
0001
0100
,
0010
0000
0100
0001
0000
1000
0001
0000
,
0010
0001
1000
0100
,
0010
0000
0100
1000
0000
0010
1000
0000
,
0100
0010
0001
0200
,
0300
0220
0000
0000
,
0000
0000
0000
0000
,
0000
0000
0000
0000
,
0330
0000
0000
0000
;

//---------------dance-single - ----------------
#NOTES:
     dance-single:
     :
     Easy:
     4:
     0.328522,0.353449,0.017896,0.089481,0.000000,257.000000,255.000000,2.000000,10.000000,0.000000,0.000000,0.328522,0.353449,0.017896,0.089481,0.000000,257.000000,255.000000,2.000000,10.000000,0.000000,0.000000:
0000
0000
0000
0000
,
0000
0000
0000
0000
,
0000
0000
0000
0000
,
0000
0000
0000
1001
,
0000
0000
0000
0000
,
0000
0000
1000
0100
0010
0100
1000
0000
,
0000
0000
0000
0000
,
0000
0000
0010
1000
0001
0100
0010
0000
,
0000
0000
0000
0000
,
0000
0000
1000
0100
0010
0001
0100
0000
,
0000
0000
0000
0000
,
0000
0000
0010
1000
0010
1000
0020
0000
,
0130
0000
0000
0001
0000
0000
0010
0000
,
0100
0000
0000
1000
0000
0000
0001
0000
,
0100
0000
0000
0010
0000
0000
0100
0000
,
0001
0000
0000
1000
0000
0000
0100
0000
,
0010
0000
0000
0100
0000
0000
1000
0000
,
0001
0000
0000
0100
0000
0000
0010
0000
,
0100
0000
0000
0001
0000
0000
1000
0000
,
0100
0000
0000
0010
0000
0000
0001
0000
,
0100
0010
0100
0010
,
1000
0001
1000
0001
,
0010
0100
0010
0100
,
1000
0100
0010
0001
,
0100
0010
1000
0010
,
0100
0001
0010
0100
,
1000
0000
0000
0001
0000
0000
0100
0000
,
0000
0010
0000
0000
0100
0000
0001
0000
,
1000
0100
0010
0100
,
1000
0001
0100
0010
,
0100
0001
1000
0010
,
1000
0000
0001
0000
0010
0000
0100
1000
,
0100
0010
0001
0100
,
0010
0100
0001
1000
,
0100
0010
0100
1000
,
0001
0100
0010
0100
,
0001
0000
0000
1000
0010
0000
1000
0000
,
0100
0010
0100
1000
,
0100
0000
0000
0010
0100
0000
1000
0000
,
0020
0000
0130
0001
,
1000
0001
0010
0100
,
0010
0001
1000
0001
,
0100
0010
0100
0010
,
2000
0000
0000
0000
3000
0000
0000
0001
,
0100
0000
0010
0000
,
0000
0000
0000
0000
0100
0001
0100
0010
,
1000
0000
0100
0000
,
0000
0000
0000
0000
0010
0001
0010
0100
,
1000
0000
0001
0000
,
0000
0000
0000
0000
0100
0010
0100
0001
,
1000
0000
0100
0000
,
0020
0000
0000
0000
,
0130
0000
0000
1000
0000
0010
0000
0100
,
0001
0000
0000
0010
0000
0100
0000
1000
,
0010
0100
0001
0100
,
0010
0100
0001
0010
,
0100
0000
0000
1000
0000
0001
0000
0100
,
0010
0000
0000
1000
0000
0001
0000
0100
,
0010
0000
0000
1000
0010
0000
0000
0100
,
0010
1000
0001
0100
,
0010
0000
0000
0100
0000
0001
0000
1000
,
0010
0000
0000
0100
0000
0010
0000
0100
,
0001
0000
0010
0000
0100
1000
0000
0010
,
0000
0100
0000
0001
0000
0100
0000
0010
,
0100
0000
0000
0001
0000
1000
0000
0100
,
0010
0000
0000
0100
0000
1000
0000
0001
,
0010
0200
0300
0000
2000
3000
0002
0003
,
0100
0010
0200
0000
,
0310
0000
0000
1000
0000
0000
0001
0000
,
0100
0000
0000
0010
0100
0000
0001
1000
,
0001
0000
0000
0010
0000
0000
0100
0000
,
1000
0000
0000
0010
1000
0000
0100
0010
,
0100
0000
0000
0010
0000
0000
0001
0000
,
0100
0000
0000
0010
1000
0000
0001
0100
,
0001
0000
0000
0010
0000
0000
0100
0000
,
1000
0000
0000
0001
0100
0000
0010
0100
,
0000
2002
0000
0000
,
0000
0000
0000
0000
,
0000
0000
0000
0000
,
3003
0000
0000
0000
;

//---------------dance-single - ----------------
#NOTES:
     dance-single:
     :
     Beginner:
     2:
     0.184074,0.307030,0.053688,0.053688,0.000000,144.000000,138.000000,6.000000,6.000000,0.000000,0.000000,0.184074,0.307030,0.053688,0.053688,0.000000,144.000000,138.000000,6.000000,6.000000,0.000000,0.000000:
0000
0000
0000
0000
,
0000
0000
0000
0000
,
0000
0000
0000
0000
,
0000
0000
0000
1001
,
0000
0000
0000
0000
,
0000
0000
0000
1010
,
0000
0000
0000
0000
,
0000
0000
0000
0110
,
0000
0000
0000
0000
,
0000
0000
0000
0101
,
0000
0000
0000
0000
,
0000
0000
0010
0200
,
1300
0000
0000
0000
,
0001
0000
0000
0100
,
0010
0000
0000
0000
,
0100
0000
0001
0010
,
0100
0000
0000
0000
,
1000
0000
0000
0010
,
0100
0000
0000
0000
,
0001
0000
0000
0000
,
1000
0000
0001
0000
,
0100
0010
0100
0010
,
0100
0000
0001
0000
,
0010
0100
0010
0100
,
0010
0000
0001
0000
,
1000
0000
0010
0000
,
0100
0000
0000
0001
0000
0000
0010
0000
,
0000
0100
0000
0000
1000
0000
0000
0000
,
0001
0000
0000
0000
0000
0000
0000
0100
,
0000
0000
0000
0000
0000
0010
0000
0000
,
0100
0000
0000
0000
0000
0000
0000
0001
,
0000
0000
0000
0000
0000
0010
0000
0000
,
0100
0000
0000
0000
0000
0000
0000
1000
,
0000
0000
0000
0000
0000
0010
0000
0000
,
0100
0000
0000
0000
0000
0000
0000
0001
,
0000
0000
0000
0000
0000
1000
0000
0000
,
0100
0010
0100
0010
,
0001
0000
0100
0010
,
0100
0000
0000
0010
0000
1000
0000
0001
,
2000
0000
3010
0000
,
0100
0001
0100
0001
,
0010
0000
0100
1000
,
0200
0000
0000
0300
,
0020
0000
0200
0330
,
0011
0000
0000
0000
,
0000
0000
0000
0000
0000
0000
0001
1000
,
0001
0000
0000
0000
,
0000
0000
0000
0000
0100
0001
0100
0001
,
0100
0000
0000
0000
,
0000
0000
0000
0000
0000
0000
0010
1000
,
0010
0000
0000
0000
,
0200
0000
0000
0000
,
0310
0000
0000
0000
0000
1000
0000
0001
,
0000
0100
0000
0000
0000
0010
0000
0000
,
0100
0001
0100
0010
,
0100
0000
0000
0000
,
0010
0000
0000
0000
0000
1000
0000
0100
,
0000
0010
0000
0001
0000
0100
0000
0000
,
0010
0000
1000
0000
,
0100
0010
0001
1000
,
0010
0000
0000
0000
0000
0100
0000
0010
,
0000
1000
0000
0001
0000
0010
0000
0000
,
0100
1000
0010
0100
,
0001
0010
0100
1000
,
0001
0000
0000
0000
,
1000
0000
0000
0000
,
0010
0000
0000
0000
,
0100
0010
0100
0000
,
0001
0000
0000
0000
,
1000
0000
0000
0000
,
0100
0000
0000
0000
,
0010
0000
0000
0000
,
0001
0000
0000
0000
,
0100
0000
0000
0000
,
0010
0000
0000
0000
,
1000
0000
0000
0000
,
0000
1001
0000
0000
;
