#TITLE:Try 2 Luv U (100 minimoo-G Mix);
#SUBTITLE:;
#ARTIST:S.F.M.P.;
#TITLETRANSLIT:;
#SUBTITLETRANSLIT:;
#ARTISTTRANSLIT:;
#GENRE:;
#CREDIT:SupremeX;
#BANNER:Try 2 Luv U (100 minimoo-G Mix)-bn.png;
#BACKGROUND:Try 2 Luv U (100 minimoo-G Mix)-bg.png;
#LYRICSPATH:;
#CDTITLE:;
#MUSIC:Try 2 Luv U (100 minimoo-G Mix).ogg;
#OFFSET:-0.701106;
#SAMPLESTART:42.200001;
#SAMPLELENGTH:12.000000;
#SELECTABLE:YES;
#BPMS:0.000000=115.010002
;
#STOPS:
;
#BGCHANGES:;
#KEYSOUNDS:;
#ATTACKS:;

//---------------dance-single - ----------------
#NOTES:
     dance-single:
     :
     Hard:
     7:
     0.369998,0.380631,0.108925,0.193644,0.006051,214.000000,205.000000,9.000000,16.000000,0.000000,0.000000,0.369998,0.380631,0.108925,0.193644,0.006051,214.000000,205.000000,9.000000,16.000000,0.000000,0.000000:
0000
0000
0000
0000
,
0000
0000
0000
0000
,
0000
0000
0000
0000
,
0000
0000
0000
0000
,
1000
0000
1001
0000
0010
1000
0010
0000
,
1000
0100
0010
0001
0100
0010
0100
0000
,
0001
0000
1001
0000
1000
0010
0100
0000
,
0001
0000
1000
0000
0010
0000
1000
0000
0001
0000
0100
0000
0010
0000
1000
0010
,
1000
0100
0010
0020
0000
0031
0010
0100
,
2000
0000
3100
1000
0100
0010
0100
1000
,
0000
1000
2000
0000
3002
0000
0203
0000
,
0301
1000
0010
0100
0001
1000
1000
0000
,
0010
0100
0010
0100
0001
1000
0001
1000
,
0010
0100
0010
0100
0100
0000
0001
0100
,
0000
0010
1000
0001
0100
0001
1000
0100
,
1000
0001
0100
0010
0010
0000
0100
0100
,
0000
0001
1000
0010
1000
0000
0200
1300
,
0000
1000
0100
0010
0001
0000
0002
0013
,
0000
0001
1000
0100
0100
1000
0100
0000
,
0100
0010
0001
0010
0100
0010
0001
0000
,
1000
0001
0100
0010
0010
0010
0000
0000
,
1000
0001
0100
0010
1000
1000
0001
0000
,
0100
0010
0010
0100
0001
0001
1000
0100
,
0100
1000
0010
0101
0000
0010
1000
0010
,
2000
3100
0110
0101
,
0010
1000
0010
1000
1000
0000
1001
0000
,
0010
1000
1000
0010
0100
0100
0001
1000
,
1000
0001
0100
0001
0001
1000
0010
0100
,
0020
0100
0100
0130
,
0001
0010
0100
1000
0100
0000
1100
0100
,
0010
0200
0302
2003
,
3020
0000
1030
1000
0000
0001
0100
0010
,
0020
1000
1000
1030
,
0001
0100
0010
1000
1000
0000
0001
0001
,
1100
0000
0001
0100
0010
1000
0001
0000
,
1000
0010
0100
0001
1000
0001
0100
0000
,
2002
0000
0000
0000
,
3003
0000
0000
0000
;

//---------------dance-single - ----------------
#NOTES:
     dance-single:
     :
     Medium:
     5:
     0.243784,0.313461,0.096822,0.048411,0.000000,141.000000,133.000000,8.000000,4.000000,0.000000,0.000000,0.243784,0.313461,0.096822,0.048411,0.000000,141.000000,133.000000,8.000000,4.000000,0.000000,0.000000:
0000
0000
0000
0000
,
0000
0000
0000
0000
,
0000
0000
0000
0000
,
0000
0000
0000
0000
,
0010
0010
1000
0001
,
1000
0001
1000
1000
,
0000
0010
0100
0010
,
0100
0000
0001
0001
0000
0000
0000
0000
,
1000
0000
0010
0000
1000
0000
0001
0001
,
0100
0000
0010
0000
1000
1000
1000
0000
,
0000
0001
0100
0001
,
1000
0000
0010
0020
0000
0000
0030
0000
,
1000
0000
0010
0000
0100
0001
0100
0000
,
0010
0000
1000
0000
1000
0000
0001
0100
,
0000
0010
1000
0010
,
0100
0001
1000
0000
1000
0000
0010
0000
,
0100
0001
1000
1001
,
0110
0000
1000
0010
1000
0000
0101
0000
,
1000
0000
0010
0000
0100
0001
0100
0000
,
0010
1000
1000
1000
,
0001
0000
0101
0000
1000
1000
0000
0000
,
0010
0000
0110
0000
0001
0001
0000
0000
,
0000
1000
1000
0000
0010
0010
0000
0100
,
0100
0000
0001
0001
0000
0000
0000
0000
,
0000
1000
0010
0000
1000
0000
1010
0000
,
0001
0000
0100
0001
0001
0000
0000
0000
,
0000
1000
0010
0000
0100
0001
0000
1000
,
0001
0000
0100
0010
0000
0000
0000
0000
,
1000
1000
1000
1000
,
0001
0001
0001
0001
,
0100
0010
1000
0001
,
0100
0000
0010
0100
0000
0001
1000
0001
,
2000
0000
0000
0000
,
3000
0000
0010
0010
0100
0000
0100
0000
,
0001
0000
1000
0010
1000
0000
0001
0100
,
0010
0000
1000
0001
0100
0000
0110
0000
,
2002
0000
0000
0000
,
3003
0000
0000
0000
;

//---------------dance-single - ----------------
#NOTES:
     dance-single:
     :
     Easy:
     3:
     0.183270,0.217849,0.048411,0.048411,0.000000,106.000000,102.000000,4.000000,4.000000,0.000000,0.000000,0.183270,0.217849,0.048411,0.048411,0.000000,106.000000,102.000000,4.000000,4.000000,0.000000,0.000000:
0000
0000
0000
0000
,
0000
0000
0000
0000
,
0000
0000
0000
0000
,
0000
0000
0000
0000
,
1000
0001
1000
0001
,
0000
0100
0000
0010
,
0000
1000
0001
1000
,
0001
0000
0100
0010
,
1000
1000
0001
0001
,
1000
0001
1000
0001
,
0000
0100
0010
0100
,
0010
0000
0000
0110
0000
0000
0000
0000
,
1000
1000
0010
0010
,
0100
0100
0100
0001
,
0000
1000
0001
1000
,
0001
0100
0110
0000
,
0001
0001
0001
0001
,
1000
1000
1000
1000
,
0010
0010
0010
0010
,
0100
0100
0100
0100
,
0001
1000
0001
0000
,
1000
0001
1000
0000
,
0000
0010
0000
0100
,
0010
0100
0000
0110
,
1000
0001
1000
1000
,
0001
1000
0001
0001
,
0100
0010
0100
0010
,
0100
0010
0100
0100
,
0002
0000
0000
0000
,
0003
0000
0000
0000
2000
0000
0000
3000
,
0000
0010
0010
0100
,
0100
0100
0000
0001
,
2000
0000
0000
0000
,
3000
0000
0002
0000
0000
0003
1000
0000
,
1000
0010
0010
0100
,
0100
0001
1000
0001
,
1001
0000
0000
0000
;

//---------------dance-single - Copied from----------------
#NOTES:
     dance-single:
     Copied from:
     Beginner:
     1:
     0.051869,0.065355,0.000000,0.048411,0.000000,30.000000,30.000000,0.000000,4.000000,0.000000,0.000000,0.051869,0.065355,0.000000,0.048411,0.000000,30.000000,30.000000,0.000000,4.000000,0.000000,0.000000:
0000
0000
0000
0000
,
0000
0000
0000
0000
,
0000
0000
0000
0000
,
0000
0000
0000
0000
,
0100
0000
0000
0000
,
0000
0100
0000
0000
,
0000
0010
0000
0000
,
0000
0010
0000
0000
,
1000
0000
0000
1000
,
0000
0000
0000
0001
,
0000
0000
0000
0001
,
0000
0000
0000
0000
,
0100
0000
0000
0000
,
0010
0000
0000
0000
,
0100
0000
0000
0000
,
0010
0000
0000
0000
,
1000
0000
0000
0000
,
0001
0000
0000
0000
,
1000
0000
0000
0000
,
0001
0000
0000
0000
,
0200
0000
0000
0000
0000
0300
0000
0000
,
0000
0000
0000
0000
,
0010
0000
0000
0000
0000
0000
0000
0010
,
0000
0000
0000
0000
,
2000
0000
0000
3000
,
0001
0000
0000
0000
,
0100
0000
0000
0000
0000
0000
0000
0100
,
0000
0000
0000
0000
,
0020
0000
0000
0000
,
0000
0000
0030
0000
,
0000
0100
0000
0000
,
0100
0000
0000
0000
,
0200
0000
0000
0000
,
0000
0000
0300
0000
,
0001
0000
0000
0000
,
0001
0000
0000
0000
,
1000
0000
0000
0000
;
