#TITLE:The setting sun;
#SUBTITLE:;
#ARTIST:DJ YASETAKA;
#TITLETRANSLIT:;
#SUBTITLETRANSLIT:;
#ARTISTTRANSLIT:;
#CREDIT:SupremeX;
#BANNER:The setting sun.png;
#BACKGROUND:The setting sun-bg.png;
#LYRICSPATH:;
#CDTITLE:CDTitle.png;
#MUSIC:The setting sun.ogg;
#OFFSET:-1.377;
#SAMPLESTART:85.320;
#SAMPLELENGTH:11.960;
#SELECTABLE:YES;
#BPMS:0.000=140.000;
#STOPS:;
#BGCHANGES:;

//---------------dance-single - ----------------
#NOTES:
     dance-single:
     :
     Hard:
     8:
     0.492,0.538,0.128,0.137,0.038: // measure 1
0000
0000
0000
0000
,  // measure 2
0000
0000
0000
0000
,  // measure 3
0000
0000
0000
0000
,  // measure 4
0000
0000
0000
0000
,  // measure 5
0020
0000
0000
0000
,  // measure 6
0030
0000
1000
0001
,  // measure 7
0200
0000
0000
0000
,  // measure 8
0020
0000
0000
0330
1000
0000
0100
0000
,  // measure 9
0010
0001
1010
0101
,  // measure 10
1000
0000
0010
0000
1000
0000
0001
0100
,  // measure 11
0001
0000
1000
0000
0001
0010
0100
1000
,  // measure 12
0010
0000
0100
0001
0100
0000
0010
1000
,  // measure 13
0010
0000
1000
0000
0010
0100
0001
1000
,  // measure 14
0010
0000
0000
0010
0000
0000
1000
0000
1000
0000
0000
0000
0001
0000
0100
0000
,  // measure 15
0010
0000
1000
0000
0001
0100
0010
1000
,  // measure 16
0001
0000
0100
0001
0100
0000
0010
1000
,  // measure 17
0010
0000
1000
0000
0001
0010
0100
1000
,  // measure 18
0010
0000
0000
0010
0000
0000
0000
0000
1000
0000
0000
0000
0100
0000
0000
0000
,  // measure 19
0010
0000
0001
0000
1000
0100
0010
0001
,  // measure 20
0100
0000
1010
0000
0101
0000
1000
0100
,  // measure 21
0010
0000
0000
0000
0000
0000
0001
0100
0001
0000
0100
0000
0010
0000
1000
0000
,  // measure 22
0010
0000
1000
0000
0001
0000
0100
0010
,  // measure 23
1000
0000
1000
0000
0001
0100
0010
1000
,  // measure 24
0001
0000
1000
0000
0010
0000
0100
0001
,  // measure 25
1000
0010
1000
0010
1000
0010
1000
0000
0100
0000
0010
0000
0001
0000
0100
0000
,  // measure 26
0010
0000
0010
1000
0100
0010
0001
1000
,  // measure 27
0010
1000
0001
0100
0020
0000
1030
0000
,  // measure 28
1001
0000
0100
0010
0001
0010
0100
1000
,  // measure 29
0010
1000
0001
0100
0002
0000
0103
0000
,  // measure 30
1001
0000
0010
1000
0010
0100
0001
1000
,  // measure 31
0001
0100
0010
1000
0020
0000
1030
0000
,  // measure 32
0101
0000
1000
0010
0100
0001
1000
0001
,  // measure 33
0100
0010
1000
0100
0010
0001
0100
0000
,  // measure 34
0110
0000
0001
0100
0010
1000
0001
0100
,  // measure 35
0010
0000
1000
0001
2000
0000
3020
0000
,  // measure 36
0130
0000
0100
0001
1000
0001
0100
0010
,  // measure 37
1000
0001
0100
0001
0020
0000
0230
0000
,  // measure 38
1300
0000
1000
0001
0010
0100
1000
0001
,  // measure 39
0100
0001
1000
0010
0200
0000
0302
0000
,  // measure 40
1003
0000
1000
0010
0100
0001
0100
0010
,  // measure 41
1000
0100
0010
0001
2000
0000
3020
0000
,  // measure 42
1030
0000
1000
0100
0010
0001
0100
0010
,  // measure 43
1000
0100
0010
0001
1000
0000
1001
0000
,  // measure 44
0010
0100
0001
0100
0010
1000
0010
1000
,  // measure 45
0100
0010
0001
1000
0100
0000
1100
0000
,  // measure 46
0001
0010
0100
1000
0010
0100
0001
0100
,  // measure 47
0010
1000
0001
1000
0100
0000
0011
0000
,  // measure 48
0001
0100
0010
1000
0001
0100
0010
1000
,  // measure 49
0001
1000
0010
0000
0110
0000
0101
0000
,  // measure 50
1000
0000
0010
1000
0010
0000
1000
0000
0100
0000
0010
0000
0001
0000
0100
0000
,  // measure 51
0010
0100
0001
1000
0001
0100
0010
0100
,  // measure 52
0001
0000
1000
0001
1000
0000
0001
0000
1000
0000
0100
0000
0010
0000
0001
0000
,  // measure 53
0100
0010
1000
0001
0100
0010
1000
0001
,  // measure 54
0100
0000
0001
0100
0001
0000
0100
0000
0001
0000
0010
0000
0100
0000
1000
0000
,  // measure 55
0010
0100
0001
1000
0010
0100
0001
1000
,  // measure 56
0100
0010
0001
0100
0001
1000
0010
1000
,  // measure 57
0001
0010
0100
1000
0010
0100
0001
0000
,  // measure 58
1001
1000
0100
0010
,  // measure 59
0001
0000
0100
0000
0010
1000
0010
1000
,  // measure 60
0001
0100
0010
1000
,  // measure 61
0100
0000
0010
0000
0001
0100
0001
0100
,  // measure 62
0010
1000
0001
1000
,  // measure 63
0010
0000
0100
0000
0001
0010
0100
1000
,  // measure 64
0010
0000
1000
0001
0001
0000
0100
0000
,  // measure 65
0001
0000
1000
0000
0010
0100
0010
0100
,  // measure 66
2002
0000
0000
0000
,  // measure 67
0000
0000
0000
3003
0000
0000
0000
0000
;

//---------------dance-single - ----------------
#NOTES:
     dance-single:
     :
     Medium:
     5:
     0.313,0.333,0.043,0.017,0.000:
0000
0000
0000
0000
,
0000
0000
0000
0000
,
0000
0000
0000
0000
,
0000
0000
0000
0000
,
0002
0000
0000
0000
,
0000
0003
0000
0000
,
2000
0000
0000
0000
,
0000
0000
0000
0000
0000
0000
0000
3000
,
0000
0000
0001
0010
,
0100
0000
1000
0000
0001
0000
0100
0100
,
0000
0000
0010
0000
1000
0000
0001
0100
,
0001
0000
1000
0000
0010
0000
1000
0001
,
1000
0010
0100
0001
,
1000
0000
0010
0000
1000
0000
0001
1000
,
1000
0010
0100
0001
,
1000
0000
0001
0000
0100
0000
0010
1000
,
0010
0000
0100
0000
0001
0000
1000
0001
,
1000
0010
0100
0001
,
1000
1000
0010
0100
,
0001
0001
1000
1000
,
0010
0000
0100
0000
0001
0010
0100
1000
,
0010
0000
0010
0000
1000
0000
1000
0100
,
1000
0010
0100
0001
,
1000
0010
1000
0001
,
0100
0000
0010
0000
1000
0100
0010
0001
,
1000
0010
1000
0001
,
0100
0010
1000
0001
,
1001
0100
0010
0001
,
0010
0100
1000
0001
,
1001
0100
0010
1000
,
0001
0100
0010
1000
,
0110
0001
1000
0001
,
0100
0001
1000
0010
,
1000
1000
1000
1000
,
0010
0000
0100
0001
0100
0000
0100
0000
,
0010
1000
0001
0100
,
0010
0000
1000
0100
1000
0000
1000
0000
,
0001
0010
0100
1000
,
0010
0000
0100
0001
0100
0000
0100
0000
,
0001
1000
0010
0100
,
0001
1000
0010
0010
,
0100
0001
1000
0010
,
1000
0000
0001
0100
0001
0000
0001
0000
,
1000
0100
0010
0001
,
1000
0000
0010
1000
0010
0000
0010
0000
,
0100
0001
1000
0010
,
0100
0000
0001
1000
0001
0000
0001
0000
,
1000
0010
0100
0001
,
1000
0000
0001
0000
1000
0100
1000
0000
,
0001
0010
0100
1000
,
0010
1000
0001
0001
,
0100
0010
0010
1000
,
0100
0010
0001
0010
,
0100
0000
1000
0010
1000
0000
0010
0000
,
0100
0001
1000
0010
,
1000
0000
0001
0000
0100
0010
1000
0010
,
1000
0001
0010
0100
,
1001
0010
0010
1000
,
1000
0000
0001
0000
0100
0010
0100
0000
,
0001
1000
0010
1000
,
0001
0100
0010
1000
,
0001
0001
1000
1000
,
0010
0010
0100
0001
,
1000
1000
0010
0010
,
0100
0100
0001
1000
,
0110
0000
0000
0000
;

//---------------dance-single - ----------------
#NOTES:
     dance-single:
     :
     Easy:
     3:
     0.222,0.256,0.017,0.094,0.000:
0000
0000
0000
0000
,
0000
0000
0000
0000
,
0000
0000
0000
0000
,
0000
0000
0000
0000
,
0020
0000
0000
0000
,
0000
0030
0000
0000
0000
0000
0000
0000
,
0200
0000
0000
0000
,
0000
0000
0000
0300
0000
0000
0000
0000
,
2002
0000
0000
3003
,
0100
0000
0010
0000
,
1000
0000
0001
1000
,
0001
0000
0100
0000
,
0010
0000
1000
0001
,
1000
0000
0010
0000
,
0100
0000
0001
1000
,
0001
0000
0100
0000
,
0010
0000
1000
0001
,
1000
0000
0010
0010
,
0010
0010
0010
0010
,
0100
0100
0100
0100
,
0100
0001
1000
0001
,
1000
0010
0100
0001
,
1000
0001
1000
0010
,
0100
0100
0100
0100
,
0001
1000
0001
1000
,
0002
0000
0000
0000
,
0000
0000
0000
0003
,
2000
0000
0000
0000
,
0000
0000
0000
3000
,
0020
0000
0000
0000
,
0000
0000
0000
0030
,
0200
0000
0000
0000
,
0000
0000
0000
0300
,
0001
0001
1000
1000
,
0010
0100
0001
1000
,
0010
0010
0100
0100
,
0001
1000
0010
0100
,
0001
0001
1000
1000
,
0010
0100
0001
1000
,
0010
0010
0100
0100
,
0001
1000
0001
0001
,
1000
0010
0100
0001
,
1000
1000
0010
0100
,
0001
1000
0010
0100
,
0100
0001
1000
0001
,
0100
0010
1000
0001
,
1000
0001
0001
0100
,
0010
1000
0001
0100
,
0010
1000
0001
1000
,
0001
0100
0100
0100
,
0100
0100
0100
0100
,
0010
0010
0010
0010
,
0010
0010
0010
0010
,
1000
0001
1000
0001
,
1000
0001
1000
0001
,
0100
0010
0100
0010
,
0100
0010
1000
0001
,
1001
0000
1000
0000
,
0001
0000
0100
0010
,
1000
0000
0001
0000
,
0100
0000
0010
1000
,
0002
0000
0000
0000
,
0000
0003
0000
0000
1000
0000
1000
0000
,
0020
0000
0000
0000
,
0000
0000
0000
0000
0000
0030
0000
0000
,
0200
0000
0000
0000
,
0000
0000
0000
0000
0000
0300
0000
0000
;

//---------------dance-single - ----------------
#NOTES:
     dance-single:
     :
     Beginner:
     1:
     0.076,0.083,0.000,0.000,0.000:
0000
0000
0000
0000
,
0000
0000
0000
0000
,
0000
0000
0000
0000
,
0000
0000
0000
0000
,
1000
0000
0000
0000
,
1000
0000
0000
0000
,
1000
0000
0000
0000
,
1000
0000
0000
0000
,
0001
0000
0000
0000
,
0001
0000
0000
0000
,
0001
0000
0000
0000
,
0100
0000
0000
0000
,
0100
0000
0000
0000
,
0010
0000
0000
0000
,
0010
0000
0000
0000
,
1000
0000
0000
0000
,
1000
0000
0000
0000
,
0001
0000
0000
0000
,
0100
0000
0000
0000
,
0100
0000
0000
0000
,
0100
0000
0000
0000
,
0010
0000
0000
0000
,
0010
0000
0000
0000
,
1000
0000
0000
0000
,
1000
0000
0000
0000
,
0001
0000
0000
0000
,
0001
0000
0000
0000
,
0001
0000
0000
0000
,
0001
0000
0000
0000
,
0100
0000
0000
0000
,
0100
0000
0000
0000
,
0100
0000
0000
0000
,
0100
0000
0000
0000
,
0010
0000
0000
0000
,
0010
0000
0000
0000
,
0010
0000
0000
0000
,
0010
0000
0000
0000
,
1000
0000
0000
0000
,
1000
0000
0000
0000
,
1000
0000
0000
0000
,
1000
0000
0000
0000
,
0010
0000
0000
0000
,
0010
0000
0000
0000
,
0100
0000
0000
0000
,
0100
0000
0000
0000
,
0001
0000
0000
0000
,
0001
0000
0000
0000
,
1000
0000
0000
0000
,
1000
0000
0000
0000
,
0010
0000
0000
0000
,
0100
0000
0000
0000
,
0010
0000
0000
0000
,
0100
0000
0000
0000
,
0001
0000
0000
0000
,
1000
0000
0000
0000
,
0001
0000
0000
0000
,
1000
0000
0000
0000
,
0010
0000
0000
0000
,
0010
0000
0000
0000
,
0100
0000
0000
0000
,
0100
0000
0000
0000
,
0001
0000
0000
0000
,
0001
0000
0000
0000
,
1000
0000
0000
0000
,
1000
0000
0000
0000
,
1000
0000
0000
0000
;
