#TITLE:The last of world music;
#SUBTITLE:;
#ARTIST:BEMANI Sound Team"猫叉Master";
#TITLETRANSLIT:;
#SUBTITLETRANSLIT:;
#ARTISTTRANSLIT:BEMANI Sound Team"Nekomata Master";
#CREDIT:SupremeX;
#BANNER:The last-bn.png;
#BACKGROUND:The last-bg.png;
#LYRICSPATH:;
#CDTITLE:;
#MUSIC:The last of world music.ogg;
#OFFSET:-0.218;
#SAMPLESTART:34.520;
#SAMPLELENGTH:12.000;
#SELECTABLE:YES;
#BPMS:0.000=127.510;
#STOPS:;
#BGCHANGES:;

//---------------dance-single - ----------------
#NOTES:
     dance-single:
     :
     Beginner:
     2:
     0.179,0.157,0.000,0.016,0.000:
0000
0000
0000
0000
,
0000
0000
0000
0000
,
0000
0000
0000
0000
,
0000
1000
0000
0000
0010
0000
0000
1000
,
0000
0000
0001
0000
0000
0100
0000
0000
,
0010
0000
0000
1000
0000
0000
0001
0000
,
0000
0100
0000
0000
0010
0000
0000
1000
,
0000
0000
0001
0000
0000
1000
0000
0000
,
0001
0000
0000
0100
0000
0000
0010
0000
,
0000
1000
0000
0000
0001
0000
0000
0001
,
0000
0000
0100
0000
0000
0100
0000
0000
,
0010
0000
0000
1000
0000
0000
1000
0000
,
0000
0010
0000
0000
0100
0000
0000
0100
,
0000
0000
0001
0000
0000
1000
0000
0000
,
0001
0000
0000
1000
0000
0000
1000
0000
,
0000
0010
0000
0000
0010
0000
0000
0100
,
0000
0000
0100
0000
0000
0001
0000
0000
,
0001
0000
0000
1000
0000
0000
1000
0000
,
0000
0010
0000
0000
0100
0000
0000
0001
,
0000
1000
0000
0010
,
0000
0100
0000
0000
0000
0000
0000
0000
,
0001
0000
0000
1000
0000
0000
0010
0000
,
0000
0100
0000
0000
0000
0010
0000
0000
,
1000
0000
0001
0000
,
0000
0100
0000
0000
0010
0000
0000
1000
,
0000
0000
0001
0000
0000
0100
0000
0000
,
0010
0000
0000
1000
0000
0000
0001
0000
,
0000
1000
0000
0000
0010
0000
0000
0010
,
0000
0000
0000
0000
0000
1000
0000
0000
,
0000
0000
0000
0010
0000
0000
0000
0000
,
0000
1000
0000
0000
0001
0000
0000
0100
,
0000
0000
0010
0000
0000
0010
0000
0000
,
1000
0000
0000
0001
0000
0000
1000
0000
,
0000
0010
0000
0000
0100
0000
0000
0100
,
0000
0000
0001
0000
0000
1000
0000
0000
,
0010
0000
0000
0010
0000
0000
0100
0000
,
0000
0001
0000
0000
1000
0000
0000
0010
,
0000
0000
0010
0000
0000
0100
0000
0000
,
0100
0000
0000
0001
0000
0000
0001
0000
,
0000
1000
0000
0000
1000
0000
0000
0010
,
0000
0000
0100
0000
0000
0001
0000
0000
,
1000
0000
0000
0010
0000
0000
0100
0000
,
0000
0001
0000
0000
1000
0000
0000
0010
,
0000
0000
0010
0000
0000
0100
0000
0000
,
0100
0000
0000
0001
0000
0000
0001
0000
,
0000
1000
0000
0000
1000
0000
0000
0010
,
0000
0000
0010
0000
0000
0100
0000
0000
,
0001
0000
0000
1000
0000
0000
1000
0000
,
0000
0010
0000
0000
0100
0000
0000
0001
,
0000
0000
1000
0000
0000
0010
0000
0000
,
0100
0000
0000
0001
0000
0000
1000
0000
,
0000
1000
0000
0000
0010
0000
0000
0100
,
0000
0000
0001
0000
0000
1000
0000
0000
,
0010
0000
0000
0100
0000
0000
0001
0000
,
0000
1000
0000
0000
0010
0000
0000
1000
,
0000
0000
1000
0000
0000
0001
0000
0000
,
0001
0000
0000
0100
0000
0000
0100
0000
,
0000
0010
0000
0000
0010
0000
0000
1000
,
0000
0000
1000
0000
0000
0001
0000
0000
,
0001
0000
0000
0100
0000
0000
0100
0000
,
0000
0010
0000
0000
0010
0000
0000
1000
,
0000
0000
0100
0000
0000
0010
0000
0000
,
0001
0000
0000
1000
0000
0000
0010
0000
,
0000
0100
0000
0000
0001
0000
0000
2000
,
0000
0000
0000
0000
,
0000
3000
0000
0002
0000
0000
0000
0000
,
0000
0000
0000
0000
,
0003
0000
0000
0000
;

//---------------dance-single - ----------------
#NOTES:
     dance-single:
     :
     Hard:
     9:
     0.701,0.793,0.219,0.281,0.559: // measure 1
0000
0000
0000
0000
,  // measure 2
0000
0000
0000
0000
,  // measure 3
0000
0000
0000
0000
,  // measure 4
0000
0100
1000
0100
0010
0001
0001
1000
,  // measure 5
0100
0010
0100
0100
1000
0001
1000
0010
,  // measure 6
0100
0100
0001
1000
0001
0100
0010
0010
,  // measure 7
1000
0001
1000
0100
1000
1000
0100
0010
,  // measure 8
0001
1000
0001
0001
1000
0010
0100
0001
,  // measure 9
1000
1000
0010
0100
0001
1000
0010
0010
,  // measure 10
0100
0000
0001
0000
0000
0000
1000
0001
0100
0000
0000
0000
0010
1000
0001
0000
,  // measure 11
1000
0000
0100
0000
0010
0000
0001
0000
1000
0000
0100
0000
0000
0000
0010
0001
,  // measure 12
0010
0000
0000
0000
0001
1000
0001
0000
1000
0000
0100
0000
0010
0000
0001
0000
,  // measure 13
1000
0200
0000
0000
2300
0000
3001
0010
,  // measure 14
0100
0000
1000
0000
0001
0000
0010
0000
0001
0000
1000
0000
0000
0000
0001
0010
,  // measure 15
0100
0000
0000
0000
1000
0100
0010
0000
0001
0000
0010
0000
0100
0000
1000
0000
,  // measure 16
1000
0100
0010
0000
0000
0000
0001
0010
0100
0000
0000
0000
1000
0010
1000
0000
,  // measure 17
0001
0000
0100
0000
0010
0000
1000
0000
0001
0000
1000
0010
0000
0010
0000
1000
,  // measure 18
0000
0000
0000
0100
0000
0000
0000
0000
0010
0000
0001
0000
0010
0000
0000
0000
0100
0000
0000
0000
1000
0000
0000
0000
0100
0000
0000
0000
0010
0000
0000
0000
,  // measure 19
0100
0000
1000
0000
0100
1000
0100
0000
0010
0000
0010
0001
0100
0010
1000
0001
,  // measure 20
0010
0100
1000
0100
0010
0001
1000
0100
1000
0001
0100
0000
0010
1000
0001
0000
,  // measure 21
1000
0000
0010
0100
0010
1000
0100
0010
0001
0010
0100
1000
0100
0010
0100
1000
,  // measure 22
0100
0010
0001
0000
1000
0001
1000
0000
0100
0000
0010
0001
0010
0100
1000
0100
,  // measure 23
0010
0001
0010
0100
0010
0001
0010
0100
0010
0001
1000
0000
0100
1000
0100
0000
,  // measure 24
0010
0000
0010
0001
1000
0100
0010
0001
0100
0001
1000
0010
0100
0001
1000
0010
,  // measure 25
0100
0001
1000
0000
0010
0100
0010
0000
1000
0000
0100
0010
0100
1000
0100
0010
,  // measure 26
0001
0010
0100
0010
0001
1000
0010
0100
0001
1000
0010
0000
0100
0001
0100
0000
,  // measure 27
0010
0000
1000
0100
0010
0100
1000
0100
0010
0001
0010
0100
0010
0001
1000
0100
,  // measure 28
0010
0001
1000
0000
0000
0010
0100
0000
1001
0000
0000
0100
0010
0000
0220
0000
,  // measure 29
0330
0000
0001
1000
0002
0000
0000
0003
0010
0100
2000
0000
0000
3000
0100
0010
,  // measure 30
0001
0000
0100
0000
0010
0000
0200
0000
0000
0300
0010
1000
0100
0000
0010
0000
,  // measure 31
0001
0000
0010
0000
0100
0000
1000
0000
0220
0000
0330
0000
0001
0010
0200
0000
,  // measure 32
0000
0300
1000
0100
0010
0000
0001
0000
0100
0000
0200
0000
0000
0300
0010
1000
,  // measure 33
0010
0000
1000
0000
1000
0000
0100
0000
0010
0000
0001
0010
0001
0000
1000
0000
,  // measure 34
0100
0010
0100
1000
0001
1000
0010
0110
,  // measure 35
0000
0000
0001
1000
0002
0000
0000
0003
1000
0100
2000
0000
0000
3000
0010
0100
,  // measure 36
0001
0000
0001
0000
1000
0000
0020
0000
0000
0030
0100
0001
1000
0000
0100
0000
,  // measure 37
0010
0000
0001
0000
0010
0000
0100
0000
0220
0000
0330
0000
1000
0100
2000
0000
,  // measure 38
0000
3000
0100
0010
0001
0000
0100
0000
0001
0000
0200
0000
0000
0300
0010
1000
,  // measure 39
0010
0000
0000
1100
0000
0000
0011
0000
0000
0000
1000
0100
1000
0000
0100
0000
,  // measure 40
0010
0001
0010
0100
0010
0001
1000
0200
,  // measure 41
0000
0300
1000
0100
2000
0000
0000
3000
0001
0000
0200
0000
0000
0300
0001
0100
,  // measure 42
0001
0000
0010
0000
0100
0000
2000
0000
0000
3000
0001
0100
0020
0000
0000
0030
,  // measure 43
0100
0000
0002
0000
0000
0003
1000
0001
1000
0000
0100
0000
0010
0000
0001
0000
,  // measure 44
0000
0000
0100
0010
0200
0000
0000
0300
0001
0000
2000
0000
0000
3000
0100
0010
,  // measure 45
0001
0000
1000
0000
0100
0000
0020
0000
0000
0030
0001
0010
0002
0000
0000
0003
,  // measure 46
1000
0000
2000
0000
0000
0000
3001
0000
0002
0000
0000
0000
0003
0000
0100
0001
,  // measure 47
1000
0010
0000
0000
1000
0100
0010
0001
0000
0000
1000
0010
0100
0010
0100
0000
,  // measure 48
0001
1000
0010
0100
0001
1000
0010
0100
0001
0010
0100
1000
0001
0000
1000
0010
,  // measure 49
0100
0001
1000
0010
1000
0001
0010
0100
1000
0010
0100
0001
1000
0001
1000
0000
,  // measure 50
0010
0010
0100
0001
1000
0010
0010
0100
,  // measure 51
0001
0100
0010
2000
0000
3001
0100
0001
,  // measure 52
1000
0000
2000
0000
0000
0000
3100
0000
0010
0000
0001
0000
1000
0000
0100
1000
,  // measure 53
0100
0010
0000
0000
0001
0010
0100
1000
0000
0000
0010
1000
0001
1000
0010
0000
,  // measure 54
0100
0001
1000
0001
0100
0010
1000
0001
0100
0000
0000
0010
1000
0001
0100
0000
,  // measure 55
0000
0010
1000
0100
0010
0001
0010
0100
1000
0100
0010
0001
0010
0100
1000
0000
,  // measure 56
0001
1000
0100
0010
0001
0010
0100
1000
,  // measure 57
0010
0100
0010
2000
0000
3001
0100
0001
,  // measure 58
0010
0200
0000
1300
0100
0010
0001
1100
,  // measure 59
0000
0011
0000
0000
1000
0000
0001
0000
0100
0000
0110
0000
0000
0110
0000
0000
,  // measure 60
0001
0000
0010
0000
0100
0000
1001
0000
0000
1001
0000
0000
0010
0000
0100
0000
,  // measure 61
0001
0000
1010
0000
0000
0101
0000
0000
1000
0000
0001
0000
1000
0000
0110
0000
,  // measure 62
0000
1001
0000
0000
0010
0000
1000
0000
0100
0000
0011
0000
0000
0110
0000
0000
,  // measure 63
1000
0000
0001
0000
1000
0000
1100
0000
0000
0110
0000
0000
0001
0000
0010
0000
,  // measure 64
0100
0000
1001
0000
0000
0110
0000
0000
1000
0000
0100
0000
0010
0000
0001
0000
,  // measure 65
0000
0101
0000
0000
1010
0000
0100
0000
0001
0000
1001
0000
0000
0110
0000
0000
,  // measure 66
0001
1000
0010
2002
0000
0000
0000
0000
,  // measure 67
0000
0000
0000
0000
,  // measure 68
0000
0000
0000
0000
0000
3003
0000
0000
;

//---------------dance-single - ----------------
#NOTES:
     dance-single:
     :
     Medium:
     7:
     0.461,0.448,0.063,0.016,0.004:
0000
0000
0000
0000
,
0000
0000
0000
0000
,
0000
0000
0000
0000
,
0000
0100
1000
0100
0010
0000
0001
0010
,
0100
1000
0010
0000
0100
0010
0100
0001
,
1000
0000
0001
0010
0100
1000
0010
0000
,
0100
0001
1000
0001
1000
0000
0010
0100
,
0001
1000
0001
0000
1000
0100
1000
0100
,
1000
0000
0001
0100
0001
0100
0001
0000
,
1000
0010
0000
0010
1000
0000
1000
0001
,
0000
0001
0100
0010
1000
0001
0000
0001
,
1000
0000
0010
0100
0001
1000
0001
0100
,
0010
0100
0000
0001
1000
0000
1000
0001
,
0010
0100
1000
0100
0010
0100
0000
1000
,
1000
0000
0010
0100
0010
1000
0001
0100
,
0001
1000
0000
0010
0100
0000
0001
0010
,
0100
0010
0001
0010
0100
1000
0000
0100
,
0100
0000
0010
0010
0001
1000
0100
0010
,
0001
1000
0000
1100
0000
0011
0000
1000
,
0010
0100
0010
1000
0010
0100
0000
0001
,
0100
0010
0100
0001
0100
0010
1000
0001
,
0100
0000
0100
0001
1000
0100
1000
0001
,
0100
0001
1000
0010
0100
0001
1000
0010
,
0000
0010
1000
0100
0010
0001
1000
0100
,
1000
0010
0100
0001
1000
0100
1000
0001
,
0100
0001
1000
0010
0100
0001
0000
0001
,
0100
0010
1000
0100
0010
0100
1000
0001
,
0100
0001
0000
1000
0010
0000
0010
1000
,
0001
1000
0010
0000
0010
0100
0000
0100
,
0001
0000
1000
0100
0000
0100
1000
0000
,
0001
0100
0010
1000
0001
0000
0001
1000
,
0000
1000
0100
0000
0100
0010
0001
1000
,
0010
0000
0010
1000
0100
0010
0001
0000
,
1000
0100
1000
0001
0100
0000
0100
0001
,
0000
0001
1000
0000
1000
0010
0000
0010
,
0100
0001
0100
0010
0000
0010
1000
0100
,
0010
0100
1000
0100
0010
0000
0001
0001
,
0000
0100
0001
1000
0001
0100
0000
0100
,
0010
0000
0000
0011
0000
0000
1001
0000
0000
0000
0000
0000
1000
0000
0000
0000
,
0000
1000
0000
0000
0001
0100
0010
1000
,
0000
0001
0100
0000
0100
0110
0000
0010
,
1010
0000
1000
0001
0000
0001
1000
0000
,
1000
0100
1000
0001
1000
0001
0010
0001
,
0000
1000
0010
0000
0010
1000
0000
1000
,
0001
0000
0100
0010
1000
0001
0100
0010
,
1000
0001
0000
0001
1000
0000
0000
0010
,
1000
0010
0100
0010
1000
0001
1000
0010
,
0100
0010
1000
0001
1000
0100
0010
0100
,
1000
0001
0010
0100
0010
0001
1000
0001
,
0000
1000
0010
0000
0010
1000
0000
1000
,
0001
0010
0100
1000
0000
0010
0100
0001
,
1000
0001
0000
1000
0010
0000
0010
1000
,
0100
0010
0001
1000
0100
1000
0001
0100
,
0001
1000
0100
0010
0001
1000
0100
1000
,
0001
0100
0001
0010
0100
1000
0010
0100
,
0000
0100
0001
1000
0100
1000
0001
1000
,
0010
0100
0001
1000
0000
0010
0100
0001
,
1000
0010
0000
0100
0001
1000
0010
0100
,
0000
0001
1000
0000
0010
1000
0000
1001
,
0000
0000
0100
0010
0000
0100
0001
1000
,
0001
0100
0000
0010
1000
0010
0100
0001
,
0000
1000
0001
0100
0001
1000
0000
0001
,
1000
0010
0100
0001
0000
1000
0001
0010
,
0100
1000
0000
0010
0100
0001
1000
0001
,
0000
0000
1000
0000
0000
0001
0000
0000
,
1000
0000
0000
0220
0000
0000
0000
0000
,
0000
0000
0000
0000
,
0000
0000
0330
0000
;

//---------------dance-single - ----------------
#NOTES:
     dance-single:
     :
     Easy:
     4:
     0.266,0.316,0.375,0.078,0.000:
0000
0000
0000
0000
,
0000
0000
0000
0000
,
0000
0000
0000
0000
,
0000
0100
0000
0000
0100
0000
0000
0001
,
1000
0000
0010
0000
0000
0010
0000
0000
,
1000
0001
0000
0100
0010
0000
1000
0000
,
0000
1000
0000
0000
0001
0100
0000
0100
,
0010
0000
0010
0000
0000
1000
0000
0000
,
0001
0000
0000
0100
0010
0000
1000
0000
,
0000
0001
0000
0000
0010
0000
0000
0100
,
0000
0000
1000
0000
0000
1100
0000
0000
,
0110
0000
0000
0001
0000
0000
0001
0000
,
0000
1100
0000
0000
0110
0000
0000
0001
,
0000
0000
0001
0000
0000
1010
0000
0000
,
0101
0000
0000
1000
0000
0000
0001
0000
,
0000
1010
0000
0000
0101
0000
0000
1000
,
0000
0000
0010
0000
0010
0100
0000
0100
,
0001
0000
0000
0000
,
0000
1100
0000
0000
0011
0000
0000
0000
,
1000
0000
0000
0001
0000
0000
0110
0000
,
0000
1000
0000
0000
0001
0000
0000
1000
,
0000
0000
0000
1100
0000
0000
0000
0010
,
0000
0000
0001
0000
0000
1001
0000
0000
,
0110
0000
0000
1000
0000
0000
0001
0000
,
0000
1100
0000
0000
0011
0000
0000
1000
,
0000
0000
1000
0000
0000
0110
0000
0000
,
0011
0000
0000
1001
0000
0000
1010
0000
,
0000
0101
0000
0000
0010
0000
0000
0010
,
0000
0000
1000
0000
0000
1000
0000
0000
,
0001
0000
0000
0001
0000
0000
1000
0000
,
0100
0100
0100
0100
0100
0000
0000
1000
,
0000
0000
0010
0000
0000
0010
0000
0000
,
1001
0000
0000
1001
0000
0000
0100
0000
,
0001
0001
0001
0001
0001
0000
0000
0010
,
0000
0000
0100
0000
0000
1000
0000
0000
,
0001
0000
0000
0100
0000
0000
0001
0000
,
1000
1000
1000
1000
1000
0000
0000
0100
,
0000
0000
0010
0000
0000
0001
0000
0000
,
1000
0000
0000
0100
0000
0000
1000
0000
,
0000
0001
0000
0000
1000
0000
0000
0001
,
0000
0000
0100
0000
0000
0100
0000
0001
,
1000
0000
0000
1000
0000
0100
0100
0000
,
0000
0010
0000
0001
1000
0000
0000
0010
,
0000
0100
0010
0000
0000
1000
0000
1000
,
0001
0000
0000
0001
0000
0000
0100
0000
,
0000
0100
0000
0000
0010
0000
0000
1000
,
0000
0000
0001
0000
0000
1000
0000
0000
,
0010
0000
0000
0100
0000
0000
0001
0000
,
0000
0110
0000
0000
1100
0000
0000
1000
,
0000
0000
1000
0000
0000
0001
0000
0000
,
0001
0000
0000
0200
0000
0000
0310
0000
,
0000
2000
0000
0000
3001
0000
0000
0110
,
0000
0000
1001
0000
0000
0100
0000
0000
,
0001
0000
0000
1100
0000
0000
1001
0000
,
0000
0010
0000
0000
0100
0000
0000
0101
,
0000
0000
1010
0000
0000
1001
0000
0000
,
0110
0000
0000
2002
0000
0000
0000
3003
,
0000
0220
0000
0000
0000
0330
0000
2002
,
0000
0000
0000
0000
0000
0000
0000
3003
,
0000
0000
0000
0100
0000
0000
0010
0000
,
0000
1000
0000
0000
0000
0001
0000
0110
,
0000
0000
1100
0000
0000
1001
0000
0000
,
0110
0000
0000
0101
0000
0000
1010
0000
,
0000
1001
0000
0000
0110
0000
0000
1001
,
0000
0000
0000
0000
0000
0110
0000
0000
,
1100
0000
0000
0022
0000
0000
0000
0000
,
0000
0000
0000
0000
,
0000
0000
0033
0000
;
