#TITLE:The King of Pirates;
#SUBTITLE:;
#ARTIST:RiraN;
#TITLETRANSLIT:;
#SUBTITLETRANSLIT:;
#ARTISTTRANSLIT:;
#CREDIT:SupremeX;
#BANNER:The King of Pirates-bn.png;
#BACKGROUND:The King of Pirates-bg.png;
#LYRICSPATH:;
#CDTITLE:;
#MUSIC:The King of Pirates.ogg;
#OFFSET:-0.472;
#SAMPLESTART:67.620;
#SAMPLELENGTH:12.000;
#SELECTABLE:YES;
#BPMS:0.000=150.000;
#STOPS:104.000=0.200
,119.500=0.200
,135.000=0.200
,150.500=0.200
;
#BGCHANGES:;

//---------------dance-single - ----------------
#NOTES:
     dance-single:
     :
     Hard:
     9:
     0.575,0.603,0.242,0.225,0.467: // measure 1
0000
0000
0000
0000
,  // measure 2
0000
0000
0000
0000
,  // measure 3
0200
0000
0320
0000
,  // measure 4
2030
0000
3001
0001
,  // measure 5
0020
0000
0230
0000
,  // measure 6
1300
0100
0010
0001
,  // measure 7
2000
0000
3020
0000
,  // measure 8
0230
0000
0000
0300
0001
0000
0001
0000
,  // measure 9
0020
0000
0230
0000
,  // measure 10
2300
0000
3100
0010
,  // measure 11
0001
0000
0000
0001
0000
0000
1000
0100
1000
0000
0000
1000
0000
0000
0010
0100
,  // measure 12
0010
0000
0000
0010
0000
0000
0100
0001
0100
0000
0000
0000
0010
1000
0010
0000
,  // measure 13
1000
0000
0000
0100
0000
0000
0010
0001
0010
0000
0000
0100
0000
0000
0100
1000
,  // measure 14
0100
0000
0000
0100
0000
1000
0100
1000
0100
0000
0000
0000
1001
0000
0000
0000
,  // measure 15
0100
0000
0000
0010
0000
0000
0100
0001
0100
0000
0000
0100
0000
0000
0010
1000
,  // measure 16
0010
0000
0000
1000
0000
0010
0100
0010
0100
0000
0000
0000
0001
0100
0010
0000
,  // measure 17
0100
0000
0000
0010
0000
0000
1000
0010
0100
0000
0000
0100
0000
0000
0001
1000
,  // measure 18
0010
0000
0000
0010
0000
0100
0001
1000
0000
0000
0001
0000
0000
0100
0000
0000
,  // measure 19
0110
0000
0000
0001
0000
0000
1000
0100
1000
0000
0000
1000
0000
0000
0100
1000
,  // measure 20
0100
0000
0000
0100
0000
0000
0010
0001
0010
0000
0000
0001
0000
0000
0100
0010
,  // measure 21
0100
0000
0000
0010
0000
0000
1000
0001
0100
0000
0000
0100
0000
0000
0010
1000
,  // measure 22
0001
0000
0000
0001
0000
0000
1000
0100
1000
0000
0000
1000
0000
0000
0010
0100
,  // measure 23
0001
0100
0010
1000
0001
0010
0100
1000
,  // measure 24
0001
0100
0001
0010
0100
1000
0010
0100
,  // measure 25
0001
1000
0100
1000
0010
0100
0001
1000
,  // measure 26
2002
0000
0000
3003
,  // measure 27
0001
0010
0100
1000
0001
0100
0001
1000
,  // measure 28
0010
0100
0010
1000
0001
0100
0100
0000
,  // measure 29
0010
1000
0001
0100
0001
1000
0010
0100
,  // measure 30
0001
0100
0010
1000
0001
0100
0010
0000
,  // measure 31
1000
0001
1000
0010
0100
0010
1000
0001
,  // measure 32
0010
0100
1000
0001
0100
0001
0000
1000
,  // measure 33
0010
0100
0010
1000
0001
0100
0001
1000
,  // measure 34
0010
0100
0001
0010
0100
1000
0000
0010
,  // measure 35
1000
0100
0010
0001
1000
0100
1000
0010
,  // measure 36
0100
0001
0100
0010
1000
0000
1000
0001
,  // measure 37
0010
0100
1000
0010
0100
0001
1000
0001
,  // measure 38
0100
0010
1000
0001
0100
0000
0001
1000
,  // measure 39
0001
0010
0001
1000
0100
0010
0001
1000
,  // measure 40
0010
0100
0001
1000
0000
0010
0010
1000
,  // measure 41
0100
0000
0010
0000
0001
0000
0100
0000
0110
0000
0000
0110
0000
0000
0001
1000
,  // measure 42
0001
0000
1000
0000
0000
0100
0000
0000
0110
0000
0000
0110
0000
0000
0001
0100
,  // measure 43
0001
0000
0000
0100
0000
0000
0010
1000
0010
0000
0000
0010
0000
0000
0100
0001
,  // measure 44
0100
0000
0000
0000
1000
0010
0100
0000
0010
0000
0000
0100
0000
0000
0001
1000
,  // measure 45
0010
0000
0000
0010
0000
0000
0100
0001
1000
0000
0000
1000
0000
0010
0100
0020
,  // measure 46
0000
0000
0000
0000
0130
0000
0000
0000
0001
0000
0000
0001
0000
0000
1000
0010
,  // measure 47
0100
0000
0000
0100
0000
0000
0001
0100
0010
0000
0000
0010
0000
1000
0001
1000
,  // measure 48
0001
0000
0000
0000
0100
0010
0100
0000
0010
0000
0000
0010
0000
0000
0100
0001
,  // measure 49
0100
0000
0000
0100
0000
0000
0010
1000
0010
0000
0000
0010
0000
1000
0001
0100
,  // measure 50
0000
0000
0010
0000
0000
1000
0000
0000
0110
0000
0000
0011
0000
0000
1000
0100
,  // measure 51
1000
0000
0000
1000
0000
0000
0010
1000
0010
0000
0000
0010
0000
0000
0100
0001
,  // measure 52
0100
0000
0000
0100
0010
1000
0001
0000
1000
0000
0000
0010
0000
0000
0100
0010
,  // measure 53
0100
0000
0000
0100
0000
0000
0010
1000
0010
0000
0000
0010
0000
1000
0001
0200
,  // measure 54
0000
0000
0000
0000
0310
0000
0000
0000
1001
0000
0000
0110
0000
0000
0100
0001
,  // measure 55
0100
0000
0000
0100
0000
0000
0010
1000
0010
0000
0000
0010
0000
1000
0001
0100
,  // measure 56
0001
0000
0000
0000
1000
0100
1000
0000
0100
0000
0000
0010
0000
0000
0001
0010
,  // measure 57
0001
0000
0000
0001
0000
0000
1000
0100
1000
0000
0000
1000
0000
0010
0100
0010
,  // measure 58
0000
0000
0110
0000
0000
0101
0000
0000
0001
0000
0000
0000
0000
0000
0000
0000
,  // measure 59
1100
0000
0110
0000
0022
0000
0000
0033
,  // measure 60
2100
0000
3100
0000
,  // measure 61
0110
1001
0120
0000
,  // measure 62
2030
0000
3200
0000
,  // measure 63
0310
0101
1020
0000
,  // measure 64
0230
0000
0302
0000
,  // measure 65
1003
1100
0120
0000
,  // measure 66
2030
0000
3002
0000
,  // measure 67
0103
0110
0101
0000
,  // measure 68
1010
0000
0100
0001
,  // measure 69
1001
0000
0010
1000
,  // measure 70
0100
0010
0001
1000
,  // measure 71
1100
0000
0001
0010
,  // measure 72
0100
0000
0000
0000
1000
0000
0000
0000
0010
0000
0100
0000
0000
0001
0000
0000
,  // measure 73
1000
0000
0000
0010
0000
0000
1000
0000
0000
0000
0000
0000
0000
0000
0000
0000
;

//---------------dance-single - ----------------
#NOTES:
     dance-single:
     :
     Medium:
     6:
     0.433,0.542,0.558,0.333,0.192:
0000
0000
0000
0000
,
0000
0000
0000
0000
,
2000
0000
0000
0000
,
3020
0000
0000
0000
0000
0000
0000
0000
0000
0000
0000
0000
0000
0000
0000
0030
,
0200
0000
0000
0000
0000
0000
0000
0000
0000
0000
0000
0000
0000
0000
0000
0300
,
0002
0000
0000
0000
0000
0000
0000
0000
0000
0000
0000
0000
0000
0000
0000
0003
,
2000
0000
0000
0000
,
3020
0000
0000
0000
,
0230
0000
0000
0000
,
0302
0000
0000
0003
,
1000
0000
0000
0100
0000
0000
0000
0000
0100
0000
0000
1000
0000
0000
0000
0000
,
0010
0000
0000
0100
0000
0000
0000
0000
1001
0000
0000
0000
1001
0000
0000
0000
,
0010
0000
0000
0100
0000
0000
0000
0000
0100
0000
0000
0001
0000
0000
0000
0000
,
1000
0010
0101
1010
,
0100
0000
0000
0001
0000
0000
0000
0000
0001
0000
0000
0100
0000
0000
0000
0000
,
0010
0000
0000
1000
0000
0000
0000
0000
0101
0000
0000
0000
1010
0000
0000
0000
,
0100
0000
0000
0001
0000
0000
0000
0000
0010
0000
0000
0100
0000
0000
0000
0000
,
1000
0101
1010
0100
,
0001
0000
0000
1000
0000
0000
0000
0000
1000
0000
0000
0001
0000
0000
0000
0000
,
0100
0000
0000
0100
0000
0000
0000
0000
0010
0000
0000
0010
0000
0000
0000
0000
,
1000
0000
0000
1000
0000
0000
0000
0000
0001
0000
0000
0001
0000
0000
0000
0000
,
1000
0000
0000
0100
0000
0000
0000
0000
0010
0000
0000
0001
0000
0000
0000
0000
,
1000
0000
1000
0000
0010
0100
0001
0000
,
1000
0100
1000
0000
0100
0010
0001
0000
,
1000
0010
0100
0000
0100
0001
1000
0010
,
1000
0001
0100
0010
1010
0000
0101
0000
,
0110
1000
0000
1000
0000
0010
0000
0100
,
0010
1000
0001
0100
0010
0100
0001
0000
,
0000
1000
0000
1000
0000
0010
0000
0010
,
0000
1000
0001
0010
0100
1000
0100
0000
,
0010
0001
0100
0010
,
1000
0001
0100
0001
0100
0010
0000
0000
,
1000
0010
0100
0001
,
1000
0010
0100
0010
1000
0001
0000
1100
,
0000
0110
0000
0011
0000
0001
0000
1000
,
0000
0001
0010
0100
1000
0000
0000
1010
,
0000
0101
0000
1001
0000
0100
0000
0010
,
0000
1000
0001
0010
0100
0000
1100
0000
,
0110
0011
0100
1000
,
0010
0100
0010
1000
0000
0000
0001
0000
,
0100
0010
1000
0001
,
1000
0000
0000
0000
0010
0000
0000
0000
0110
0000
0000
0110
0000
0000
0000
0000
,
1000
0000
0000
1000
0000
0000
0000
0000
0101
0000
0000
0101
0000
0000
0000
0000
,
2020
0000
0000
0000
3030
0000
0000
0000
0100
0000
0000
0100
0000
0000
0000
0000
,
1001
0000
0000
1001
0000
0000
0000
0000
0010
0000
0000
0010
0000
0000
0000
0000
,
1100
0000
0000
0000
0110
0000
0000
0000
0001
0000
0000
0001
0000
0000
0000
0000
,
0110
0000
0000
0110
0000
0000
0000
0000
1000
0000
0000
1000
0000
0000
0000
0000
,
0220
0000
0330
0000
0001
0001
0000
0000
,
1000
0000
0000
1000
0000
0000
0000
0000
0001
0000
0000
0001
0000
0000
0000
0000
,
0110
0000
0000
0000
1001
0000
0000
0000
0100
0000
0000
0100
0000
0000
0000
0000
,
0010
0000
0000
0010
0000
0000
0000
0000
0001
0000
0000
0001
0000
0000
0000
0000
,
2000
0000
0000
0000
3000
0000
0000
0000
0110
0000
0000
0110
0000
0000
0000
0000
,
0011
0000
0000
0011
0000
0000
0000
0000
0100
0000
0000
0100
0000
0000
0000
0000
,
1000
0000
0000
0000
1001
0000
0000
0000
0010
0000
0000
0010
0000
0000
0000
0000
,
0100
0000
0000
0100
0000
0000
0000
0000
0001
0000
0000
0001
0000
0000
0000
0000
,
2020
0000
0000
0000
3030
0000
0000
0000
0100
0000
0000
0100
0000
0000
0000
0000
,
0001
0000
0000
0001
0000
0000
0000
0000
1000
0000
0000
1000
0000
0000
0000
0000
,
0010
0000
0000
0000
0100
0000
0000
0000
2002
0000
0000
0000
3000
0003
0000
0000
,
0110
1001
0220
0330
,
1001
0000
0110
0000
,
0011
1100
0220
0330
,
2002
3003
0220
0330
,
0101
1010
0220
0330
,
2002
3003
0220
0330
,
0011
1100
0022
0033
,
2200
3300
0110
0000
,
0011
1001
0110
0000
,
2000
0000
3002
0000
,
0203
0000
0000
0000
0000
0000
0300
0000
0010
0000
0000
0110
0000
0000
0000
0000
,
1000
0000
0000
1001
0000
0000
0000
0000
0010
0000
0000
0101
0000
0000
0000
0000
,
0010
0000
2000
0000
,
3002
0000
0000
0000
0000
0000
0000
0000
0013
0000
0000
0100
0000
0000
1000
0000
,
0000
0001
0000
0000
1000
0000
0000
0000
0000
0000
0000
0000
0000
0000
0000
0000
;

//---------------dance-single - ----------------
#NOTES:
     dance-single:
     :
     Easy:
     4:
     0.337,0.363,0.308,0.000,0.000:
0000
0000
0000
0000
,
0000
0000
0000
0000
,
0010
0000
1000
0000
,
0001
0000
0100
0000
,
0010
0000
1000
0000
,
0001
0000
0100
0000
,
0010
1000
0001
0100
,
0010
1000
0001
0001
,
1000
0010
0100
0001
,
1000
0001
0010
0010
,
0100
0100
1000
1000
,
0001
0100
0010
0000
,
1000
0001
0100
0010
,
1000
0001
0100
0101
,
0010
0010
1000
1000
,
0001
0100
0010
1010
,
0001
0010
0100
1000
,
0010
0100
0001
1001
,
1000
1000
0010
0010
,
0100
0100
0001
0001
,
1000
1000
0010
0010
,
0100
0001
0010
0100
,
1000
0010
0100
0010
,
1000
0001
0100
0001
,
1000
0010
1000
0010
,
0100
0001
1000
0001
,
1001
0000
0000
1000
0000
0010
0000
0100
,
0000
0001
0000
1000
0000
0010
0000
0010
,
0000
0100
0000
0100
0000
0001
0000
1000
,
0000
0010
0000
0100
0000
0001
0000
0000
,
1000
0010
0100
0001
,
1000
0010
0110
0000
,
0001
0001
1000
1000
,
0010
0000
0100
0000
0001
0000
0000
1000
,
0000
0010
0000
0100
0000
0001
0000
1000
,
0000
0010
0000
0110
0000
0000
0000
0001
,
0000
0001
0000
1000
0000
1000
0000
0010
,
0000
0100
0000
0101
0000
0000
1001
0000
,
0010
0100
1000
0010
,
0100
0100
0000
0001
,
0010
0100
1000
0000
,
1001
0000
0110
0000
,
0011
0000
1100
0000
,
0110
0001
0001
1000
,
0010
0100
0001
1000
,
0001
0100
0011
0000
,
1100
0000
0110
0000
,
1001
0010
0100
0001
,
1000
0010
0100
0001
,
0001
1000
0010
0100
,
0010
1000
0001
0100
,
0001
1000
0010
0100
,
0001
0010
0100
1000
,
0010
0110
0001
0001
,
1000
1000
0010
0100
,
0001
1000
0010
1000
,
0001
0100
0010
1000
,
0001
0100
1001
0000
,
0110
0110
1001
0000
,
1100
0000
0011
0000
,
1001
1001
1001
0000
,
1100
0000
0011
0000
,
0110
0110
0110
0000
,
1100
0000
0011
0000
,
1001
1001
1001
0010
,
0100
0001
1000
0010
,
0100
0001
1000
0000
,
0001
0000
1000
0000
,
0010
0000
0100
0001
,
1000
0010
0100
0001
,
0001
0000
1000
0010
,
0100
0001
1000
0001
,
1000
0010
0100
0000
;

//---------------dance-single - Copied from----------------
#NOTES:
     dance-single:
     Copied from:
     Beginner:
     2:
     0.086,0.091,0.000,0.000,0.000:
0000
0000
0000
0000
,
0000
0000
0000
0000
,
0010
0000
0000
0000
,
0010
0000
0000
0000
,
0010
0000
0000
0000
,
0010
0000
0000
0000
,
0100
0000
0000
0000
,
0100
0000
0000
0000
,
0100
0000
0000
0000
,
0100
0000
0000
0000
,
0001
0000
0000
0000
,
0001
0000
0000
0000
,
0001
0000
0000
0000
,
0001
0000
0000
0000
,
1000
0000
0000
0000
,
1000
0000
0000
0000
,
1000
0000
0000
0000
,
1000
0000
0000
0000
,
0010
0000
0000
0000
,
0100
0000
0000
0000
,
0010
0000
0000
0000
,
0100
0000
0000
0000
,
0001
0000
0000
0000
,
1000
0000
0000
0000
,
0001
0000
0000
0000
,
1000
0000
0000
0000
,
0000
0010
0000
0000
0000
0000
0000
0000
,
0000
0000
0000
0000
,
0010
0000
0000
0000
,
0000
0000
0000
0000
,
0100
0000
0000
0000
,
0000
0100
0000
0000
,
0010
0000
0000
0000
,
0000
0000
0010
0000
0000
0000
0000
1000
,
0000
0000
0000
0000
,
0000
0000
0000
1000
0000
0000
0000
0000
,
0000
0001
0000
0000
0000
0000
0000
0000
,
0000
0000
0000
0001
0000
0000
0000
0000
,
1000
0000
0000
0000
,
0010
0000
0000
0000
,
1000
0000
0000
0000
,
0001
0000
0100
0000
,
0000
0000
0100
0000
,
0000
0000
0010
0000
,
0000
0000
0010
0000
,
0000
0000
1000
0000
,
0000
0000
1000
0000
,
0000
0000
0001
0000
,
0000
0000
0001
0000
,
0000
0000
1000
0000
,
0000
0000
1000
0000
,
0000
0000
0010
0000
,
0000
0000
0010
0000
,
0000
0000
0100
0000
,
0000
0000
0100
0000
,
0000
0000
0001
0000
,
0000
0000
0001
0000
,
0000
0000
1000
0000
,
0000
0000
1000
0000
,
0000
0000
0010
0000
,
0000
0000
0100
0000
,
0000
0000
0010
0000
,
1000
0000
0001
0000
,
0000
0000
0001
0000
,
0000
0000
0100
0000
,
0000
0000
0010
0000
,
0000
0000
1000
0000
,
0000
0000
0001
0000
,
0000
0000
1000
0000
,
0000
0000
0010
0000
,
0000
0000
0100
0000
,
0000
0000
0010
0000
,
1000
0000
0001
0000
;
