#TITLE:THE SAFARI (STARDOM Remix);
#SUBTITLE:;
#ARTIST:BEMANI Sound Team "SYUNN";
#TITLETRANSLIT:;
#SUBTITLETRANSLIT:;
#ARTISTTRANSLIT:;
#CREDIT:SupremeX;
#BANNER:THE SAFARI-bn.png;
#BACKGROUND:THE SAFARI-bg.png;
#LYRICSPATH:;
#CDTITLE:;
#MUSIC:THE SAFARI (STARDOM Remix).ogg;
#OFFSET:-2.506;
#SAMPLESTART:74.120;
#SAMPLELENGTH:12.000;
#SELECTABLE:YES;
#BPMS:0.000=134.000;
#STOPS:;
#BGCHANGES:;

//---------------dance-single - ----------------
#NOTES:
     dance-single:
     :
     Hard:
     7:
     0.405,0.514,0.143,0.321,0.112:
0000
0000
0000
0000
,
0000
0000
0000
0000
,
0000
0000
0000
0000
,
0000
0000
0000
0000
,
2000
0000
0000
0000
3000
0010
1000
0010
,
0200
0000
0000
0000
0300
0010
1000
0100
,
0020
0000
0000
0000
0030
0001
0100
0010
,
1000
0101
1010
1001
,
0200
0000
0000
0000
0300
0010
1000
0001
,
0002
0000
0000
0000
0003
0001
1000
0100
,
2000
0000
0000
0000
3000
0100
0010
0001
,
0020
0000
0000
0000
0030
0100
1000
0100
,
0200
0000
0000
0000
0300
0001
1000
0001
,
0002
0000
0000
0000
0003
0010
0100
1000
,
2000
0000
0000
0000
3000
0001
1000
0100
,
0200
0000
0000
0000
0300
1000
1000
0000
,
0001
0000
0000
0001
0000
0000
0100
0000
0000
0010
0000
0000
0100
0000
0100
0000
,
0001
0000
0000
0001
0000
0000
1000
0000
0000
1000
0000
0010
0100
0010
0100
0010
,
0100
0000
0000
0001
0000
0000
1000
0000
0000
0001
0000
0000
1000
0000
1000
0000
,
0000
0000
0000
0010
0000
0000
0010
0000
0100
0000
0100
0000
0001
0000
0001
0000
,
1000
0100
1000
0001
0100
0010
1000
0100
,
0000
0010
0001
0010
0100
1000
0001
0100
,
0000
0010
1000
0100
0010
0001
0010
0100
,
1000
2002
0000
0000
3003
0000
0000
0000
,
0010
0010
0100
0100
,
0001
0000
1000
0000
0100
0000
1000
0100
0000
0000
0010
0000
0001
0000
0010
0000
,
0200
1300
2000
3100
,
0010
0010
0001
0001
0100
0100
0010
0000
,
0011
0000
0000
0000
1000
0100
1000
0000
0100
1000
0100
0000
1000
0001
1000
0000
,
0001
0000
1000
0000
1000
0000
0010
0100
0000
0000
0100
0000
0001
0000
1000
0000
,
0100
1100
0010
0011
,
1000
0000
0000
0000
1000
0000
0000
0000
0110
0000
0000
0000
0001
1000
0001
1000
,
0001
0000
0000
0000
1000
0010
1000
0000
0010
1000
0010
0000
0100
0001
0100
0000
,
0001
0000
1000
0000
0010
0000
1000
0100
0000
0000
0010
0000
0001
0000
0010
0000
,
0200
1300
0002
1003
,
0100
0100
0010
0010
1000
1000
0001
0000
,
1001
0000
0000
0000
1000
0100
1000
0000
0010
0100
0010
0000
1000
0010
1000
0000
,
0001
0000
0010
0000
0100
0000
1000
0100
0000
0000
1000
0000
0001
0000
0100
0000
,
0001
0110
1000
1001
,
0220
0000
0000
0330
,
0002
0000
0000
0000
0003
1000
1000
0010
,
0020
0000
0000
0000
0030
0100
0100
0001
,
0002
0000
0000
0000
0003
0010
0100
1000
,
0200
0000
0000
0000
0300
0010
0001
1000
,
2000
0000
0000
0000
3000
0010
0100
0010
,
0200
0000
0000
0000
0300
0001
1000
0001
,
0002
0000
0000
0000
0003
1000
0100
0010
,
0001
1100
1001
0110
,
0002
0000
0000
0000
0003
1000
0010
1000
,
2000
0000
0000
0000
3000
0001
0100
0001
,
0200
0000
0000
0000
0300
0010
1000
0100
,
0020
0000
0000
0000
0030
0001
1000
0001
,
0002
0000
0000
0000
0003
0010
0100
1000
,
2000
0000
0000
0000
3000
0100
0010
0001
,
0020
0000
0000
0000
0030
0100
1000
0001
,
0200
0000
0000
0000
0300
0010
0010
0000
,
2002
0000
0000
0000
,
0000
0000
0000
0000
0000
3003
0000
0000
;

//---------------dance-single - ----------------
#NOTES:
     dance-single:
     :
     Medium:
     5:
     0.303,0.358,0.071,0.250,0.000:
0000
0000
0000
0000
,
0000
0000
0000
0000
,
0000
0000
0000
0000
,
0000
0000
0000
0000
,
2000
0000
0000
3000
0000
0010
0010
0100
,
0200
0000
0000
0000
0300
0001
0001
1000
,
2000
0000
0000
3000
0000
0010
0010
0100
,
0100
0100
0010
0100
,
0002
0000
0000
0000
0003
0000
1000
1000
,
2000
0000
0000
0000
3000
0010
0010
0010
,
0020
0000
0000
0000
0030
0100
0100
0100
,
0200
0000
0000
0000
0300
0001
0001
0001
,
0002
0000
0000
0000
0003
1000
1000
1000
,
2000
0000
0000
0000
3000
0010
0010
0010
,
0020
0000
0000
0030
0000
0100
0010
0100
,
0200
0000
0000
0300
0000
0001
0001
0000
,
1000
0000
0010
0000
1000
0000
0001
0100
,
0001
1000
1000
0010
,
0010
0000
0100
0000
0100
0000
0001
0001
,
0000
1000
0010
1000
,
0001
0100
0001
0000
1000
0010
1000
0000
,
0001
0010
0100
0000
1000
0100
0010
0000
,
0001
0100
0010
0000
1000
0010
0100
0000
,
0001
1000
0001
1001
,
0010
0010
0100
0010
,
0100
0001
0001
1000
,
0010
1000
1000
0010
,
0100
0001
0010
0100
,
1000
1000
1000
1000
,
0010
0010
0010
0010
,
0100
0101
0010
1010
,
0001
0100
0001
0100
,
0010
1000
0010
1000
,
0001
0100
0010
0000
1000
0001
0100
0000
,
0010
0100
0010
0100
,
0001
0001
1000
1000
,
0010
0100
0001
1000
,
0010
1000
1000
0001
,
0100
0110
0010
0110
,
0002
0000
0000
0003
,
2000
0000
0000
0000
3000
0010
0100
0010
,
0200
0000
0000
0000
0300
0001
0100
0001
,
0002
0000
0000
0003
0000
1000
0010
1000
,
2000
0000
0000
3000
0000
0010
0100
0010
,
0020
0000
0000
0030
0000
0100
0010
0100
,
0200
0000
0000
0300
0000
0001
1000
0001
,
0002
0000
0000
0000
0003
1000
0001
1000
,
2000
0000
0000
0000
0000
3000
0000
0000
,
0020
0000
0030
0000
,
2002
0000
0000
0000
0000
3003
0000
0000
,
0220
0000
0000
0000
0000
0330
0000
0000
,
0200
0000
0000
0000
0000
0300
0000
0000
,
0001
1000
0001
1000
,
0010
0100
0001
1000
,
0010
0100
0010
0000
0100
0010
0100
0000
,
0001
1000
0001
0000
1000
0001
1000
0000
,
2002
0000
0000
0000
,
0000
3003
0000
0000
;

//---------------dance-single - ----------------
#NOTES:
     dance-single:
     :
     Easy:
     3:
     0.227,0.254,0.045,0.312,0.000:
0000
0000
0000
0000
,
0000
0000
0000
0000
,
0000
0000
0000
0000
,
0000
0000
0000
0000
,
2000
0000
0000
0000
0000
3000
0000
0000
,
0002
0000
0003
0000
,
2000
0000
3000
0000
,
0002
0000
0000
0003
,
0200
0000
0300
0000
,
0020
0000
0030
0000
,
0200
0000
0300
0000
,
0020
0000
0030
0000
,
2000
0000
3000
0000
,
0002
0000
0003
0000
,
2000
0000
3000
0000
,
0002
0000
0003
0000
,
0100
0010
0100
0010
,
0010
1000
1000
0001
,
0001
0100
0010
0100
,
0001
0001
1000
1000
,
0010
0100
0001
0001
,
1000
0010
0100
0001
,
1000
1000
0010
0100
,
0001
1000
0001
1000
,
0010
0010
0010
0010
,
0100
0100
0100
0100
,
0002
0003
2000
3000
,
0010
0100
0001
1000
,
0010
0100
0100
0100
,
0001
0001
0001
0001
,
2000
3000
0002
0003
,
0100
0010
0100
0010
,
1000
0001
1000
0001
,
0100
0010
1000
0001
,
2000
3000
0002
0003
,
0100
0010
1000
0001
,
1000
1000
0001
0001
,
0100
0010
0100
0010
,
2000
3000
0002
0003
,
2000
0000
0000
0000
0000
3000
0000
0000
,
0020
0000
0000
0030
0000
0000
0000
0000
,
0220
0000
0330
0000
,
0200
0000
0300
0000
,
0220
0000
0000
0330
0000
0000
0000
0000
,
0001
1000
0001
1000
,
0010
0100
0010
0100
,
0001
1000
0001
1000
,
0010
0100
0010
0100
,
0020
0000
0030
0000
,
0220
0000
0330
0000
,
0200
0000
0300
0000
,
0220
0000
0000
0330
0000
0000
0000
0000
,
0001
1000
0001
1000
,
0010
0100
0010
0100
,
0001
1000
0001
1000
,
0010
0100
0010
0100
,
2002
0000
0000
0000
,
3003
0000
0000
0000
;

//---------------dance-single - Copied from----------------
#NOTES:
     dance-single:
     Copied from:
     Beginner:
     2:
     0.112,0.200,0.000,0.107,0.000: // measure 1
0000
0000
0000
0000
,  // measure 2
0000
0000
0000
0000
,  // measure 3
0000
0000
0000
0000
,  // measure 4
0000
0000
0000
0000
,  // measure 5
0010
0000
0000
0000
,  // measure 6
0010
0000
0000
0000
,  // measure 7
0010
0000
0000
0000
,  // measure 8
0010
0000
0000
0000
,  // measure 9
2000
0000
3000
0000
,  // measure 10
0000
0000
0000
0000
,  // measure 11
0002
0000
0000
0003
0000
0000
0000
0000
,  // measure 12
0000
0000
0000
0000
,  // measure 13
0200
0000
0000
0300
0000
0000
0000
0000
,  // measure 14
0000
0000
0000
0000
,  // measure 15
0020
0000
0000
0030
0000
0000
0000
0000
,  // measure 16
0000
0000
0000
0000
,  // measure 17
1000
0010
1000
0010
,  // measure 18
1000
0010
1000
0000
,  // measure 19
0001
0100
0001
0100
,  // measure 20
0001
0100
0000
0000
,  // measure 21
0010
1000
0010
1000
,  // measure 22
0000
0000
0000
0000
,  // measure 23
0001
0100
0001
0100
,  // measure 24
0000
0000
0000
0000
,  // measure 25
0010
0000
0010
0000
,  // measure 26
0010
0000
0010
0000
,  // measure 27
1000
0000
1000
0000
,  // measure 28
1000
0000
1000
0000
,  // measure 29
0001
0000
0001
0000
,  // measure 30
0001
0000
0001
0000
,  // measure 31
0100
0000
0100
0000
,  // measure 32
0010
0000
0010
0000
,  // measure 33
1000
0000
0001
0000
,  // measure 34
1000
0000
0001
0000
,  // measure 35
0100
0000
0010
0000
,  // measure 36
0100
0000
0000
0000
,  // measure 37
0001
0000
1000
0000
,  // measure 38
0001
0000
1000
0000
,  // measure 39
0010
0000
0100
0000
,  // measure 40
0010
0000
0000
0000
,  // measure 41
2000
0000
3000
0000
,  // measure 42
0002
0000
0000
0003
0000
0000
0000
0000
,  // measure 43
0200
0000
0000
0300
0000
0000
0000
0000
,  // measure 44
0020
0000
0000
0030
0000
0000
0000
0000
,  // measure 45
2000
0000
0000
3000
0000
0000
0000
0000
,  // measure 46
0020
0000
0000
0030
0000
0000
0000
0000
,  // measure 47
0200
0000
0000
0300
0000
0000
0000
0000
,  // measure 48
0002
0000
0000
0003
0000
0000
0000
0000
,  // measure 49
1000
0000
0000
0000
,  // measure 50
1000
0000
0000
0000
,  // measure 51
0010
0000
0000
0000
,  // measure 52
0010
0000
0000
0000
,  // measure 53
0100
0000
0000
0000
,  // measure 54
0100
0000
0000
0000
,  // measure 55
0001
0000
0000
0000
,  // measure 56
0001
0000
0000
0000
,  // measure 57
1000
0000
0000
0000
;
