#TITLE:Supersonic Generation;
#SUBTITLE:;
#ARTIST:Massive New Krew;
#TITLETRANSLIT:;
#SUBTITLETRANSLIT:;
#ARTISTTRANSLIT:;
#CREDIT:SupremeX;
#BANNER:Supersonic Generation-bn.png;
#BACKGROUND:Supersonic Generation-bg.png;
#LYRICSPATH:;
#CDTITLE:;
#MUSIC:Supersonic Generation.ogg;
#OFFSET:-2.007;
#SAMPLESTART:92.160;
#SAMPLELENGTH:12.000;
#SELECTABLE:YES;
#BPMS:0.000=155.010;
#STOPS:;
#BGCHANGES:;

//---------------dance-single - ----------------
#NOTES:
     dance-single:
     :
     Hard:
     9:
     0.706,0.817,0.056,0.024,0.488: // measure 1
0000
0000
0000
0000
,  // measure 2
0000
0000
0000
0000
,  // measure 3
0000
0000
0000
0000
,  // measure 4
0000
0000
0000
0000
,  // measure 5
0000
0000
1000
0100
1000
0100
0110
0000
,  // measure 6
0000
0000
0001
1000
0100
0010
0011
0000
,  // measure 7
0000
0000
0100
1000
0100
0010
0101
0000
,  // measure 8
0000
0001
1000
0100
1000
0001
1000
0100
,  // measure 9
1000
0000
0000
0000
0001
0000
0100
0001
0100
0000
0001
1000
0010
0000
1000
0000
,  // measure 10
0010
0000
0100
0000
0000
0000
0001
1000
0100
0000
1000
0100
1000
0000
0100
0000
,  // measure 11
0010
0000
0000
0000
0000
0000
0001
0100
0010
0000
1000
0001
0100
0000
0010
0000
,  // measure 12
0100
0000
0001
0000
0000
0000
1000
0100
1000
0000
0100
1000
0100
0000
0010
0000
,  // measure 13
0001
0000
1000
0000
0001
0000
0100
0010
0100
0000
0010
0100
0010
0000
1000
0000
,  // measure 14
0001
0000
0100
0000
0000
0000
0100
0010
1000
0000
0010
1000
0001
0000
1000
0000
,  // measure 15
0001
0000
0000
0000
1000
0000
0100
1000
0100
0000
1000
0010
1000
0000
0001
0000
,  // measure 16
0100
0000
0001
0000
1000
0000
0010
1000
0001
0000
1000
0010
0100
0000
0001
0000
,  // measure 17
1000
0000
0001
0000
1000
0000
0010
0100
0001
0000
0100
0010
1000
0000
0010
0000
,  // measure 18
0100
0000
0010
0000
0000
0000
1000
0001
0100
0000
0010
1000
0001
0000
1000
0000
,  // measure 19
0100
0000
0000
0000
0000
0000
1000
0100
1000
0000
0100
1000
0100
0000
0010
0000
,  // measure 20
0001
0000
1000
0000
0000
0000
0100
1000
0100
0000
0010
0001
0100
0000
0010
0000
,  // measure 21
0100
0000
1000
0000
0100
0000
0010
0001
0010
0000
0001
0010
0001
0000
0001
0000
,  // measure 22
0010
0000
0100
0000
0000
0000
1000
0010
0100
0000
0001
0100
0001
0000
1000
0000
,  // measure 23
0100
0000
0000
0000
0000
0000
0100
1000
0100
0000
1000
0001
0100
0000
0010
0000
,  // measure 24
1000
0000
0010
0000
0000
0000
0100
0001
1000
0000
0001
1000
0010
0000
0100
0000
,  // measure 25
0010
0000
0100
0000
0000
0000
0001
0100
0001
0000
1000
0001
1000
0000
0001
0000
,  // measure 26
0010
0000
0100
0000
0000
0000
1000
0100
1000
0000
0100
1000
0100
0000
0010
0000
,  // measure 27
0001
0000
0000
0000
0000
0000
1000
0010
0100
0000
0001
1000
0010
0000
0100
0000
,  // measure 28
0001
0000
1000
0000
0000
0000
0010
0100
0010
0000
0100
0010
0100
0000
0001
0000
,  // measure 29
1000
0000
0100
0000
1000
0000
0001
1000
0010
0000
0100
0010
0100
0000
0010
0000
,  // measure 30
1000
0000
0100
0000
0000
0000
0100
1000
0100
0000
0010
0001
0010
0000
0100
0000
,  // measure 31
1000
0000
0000
0100
1000
0000
0000
0100
1000
0000
0000
0010
0100
0000
0000
0010
,  // measure 32
0100
0000
0000
0001
0100
0000
0000
0001
0100
0000
0000
0010
1000
0000
0000
0010
,  // measure 33
1000
0001
0200
0000
0000
0000
0000
0000
,  // measure 34
0000
0000
0300
0002
0000
0000
1000
1000
,  // measure 35
1000
1003
0100
1000
0100
0010
0100
1000
,  // measure 36
0100
1000
0100
1000
0100
0000
0010
0000
0001
0000
1000
0000
0000
0000
1000
0000
,  // measure 37
0100
0010
0100
1000
0100
0010
0000
0001
,  // measure 38
0010
0001
0010
0001
0010
0000
0100
0000
1000
0000
1000
0000
0000
0000
0100
0000
,  // measure 39
0001
0100
0010
0000
1000
0000
0010
0000
0100
0000
0010
0000
1000
0000
0001
0000
,  // measure 40
0100
0001
0100
0010
1000
0000
0001
0000
0001
0000
0100
0000
0000
0000
0010
0000
,  // measure 41
1000
0100
1000
0100
0010
0001
0000
0001
,  // measure 42
0100
0010
1000
0010
0100
0000
0010
0000
0001
0000
1000
0000
0000
0000
1000
0000
,  // measure 43
0100
1000
0100
1000
0100
0000
0010
0000
0001
0000
0100
0000
0010
0000
0010
0000
,  // measure 44
1000
0100
1000
0100
1000
0000
0001
0000
0100
0000
0010
0000
0000
0000
0010
0000
,  // measure 45
0100
0001
1000
0010
0100
0010
0000
1000
,  // measure 46
0100
1000
0100
1000
0010
0000
0001
0000
1000
0000
0001
0000
0000
0000
1000
0000
,  // measure 47
0010
0100
0010
0100
0010
0000
1000
0000
0001
0000
0100
0000
0010
0000
1000
0000
,  // measure 48
0010
0100
0001
1000
0010
0000
0100
0000
0001
0000
0001
0000
0000
0000
1000
0000
,  // measure 49
0100
1000
0001
1000
0100
1000
0000
1000
,  // measure 50
0001
0100
0010
1000
0010
0000
0100
0000
0001
0000
0100
0000
0000
0000
0001
0000
,  // measure 51
1000
0100
1000
0100
1000
0000
0001
0000
0100
0000
0010
0000
0000
0000
0010
0000
,  // measure 52
1000
0001
0100
0010
1000
0000
0001
0000
0010
0000
0100
0000
0000
0000
1000
0000
,  // measure 53
0100
1000
0100
1000
0100
0000
0010
0000
0001
0000
1000
0000
0000
0000
0010
0100
,  // measure 54
0001
1000
0001
0000
1000
0000
0100
0000
0010
0000
0100
0000
0000
0000
0010
0000
,  // measure 55
0001
0000
0000
0000
1000
0010
0100
0001
1000
0100
1000
0100
0010
0001
0010
0001
,  // measure 56
0010
0000
0000
0000
0100
1000
0100
0010
0001
0100
0010
1000
0001
1000
0010
0100
,  // measure 57
0001
0000
0000
0000
1000
0100
0010
0001
1000
0100
0010
0001
1000
0100
0010
0001
,  // measure 58
0100
0000
0010
1000
0010
0100
0010
1000
,  // measure 59
1001
0000
0001
0010
0100
1000
0001
0100
,  // measure 60
0001
0100
0001
0000
0100
0000
0010
0000
1000
0000
0010
0000
0000
0000
1000
0000
,  // measure 61
0100
0000
0010
0000
0001
0000
0100
0001
0100
0000
0101
0000
0000
0000
0010
0000
,  // measure 62
1000
0000
0001
0000
0100
0000
0010
0100
0010
0000
0110
0000
0000
0000
0001
0000
,  // measure 63
0100
0001
0100
0000
0001
0000
1000
0000
0001
0000
0010
0000
0100
0000
1000
0000
,  // measure 64
0100
1000
0100
1000
0100
0000
0010
0000
0001
0000
0001
0000
0000
0000
1000
0000
,  // measure 65
0010
0000
0100
0000
0001
0000
0010
0001
0010
0000
0001
0000
0000
0000
0010
0000
,  // measure 66
0100
1000
0100
1000
0100
1000
0000
0100
,  // measure 67
0010
0001
0010
0001
0010
0000
0100
0000
1000
0000
0100
0000
0010
0000
0001
0000
,  // measure 68
0100
0010
1000
0001
0100
0000
0010
0000
1000
0000
0110
0000
0000
0000
0001
0000
,  // measure 69
0100
0000
0001
0000
1000
0000
0100
1000
0100
0000
1000
0000
0000
0000
0001
0000
,  // measure 70
0010
0000
0100
0000
1000
0000
0100
1000
0100
0000
1000
0000
0000
0000
0001
0100
,  // measure 71
0010
1000
0010
0000
0100
0000
0001
0000
0100
0000
0010
0000
1000
0000
0010
0100
,  // measure 72
0001
0100
0010
0000
1000
0000
0100
0000
1000
0000
0001
0000
0000
0000
0001
0000
,  // measure 73
0010
0000
0100
0000
0010
0000
0001
0100
0001
0000
1000
0000
0000
0000
0001
0000
,  // measure 74
0010
0000
0100
0000
1000
0000
0001
0010
0100
0000
1000
0000
0010
1000
0010
0100
,  // measure 75
0001
0000
1000
0100
2000
0000
0000
0000
0000
0000
0000
0000
0000
0000
0000
0000
,  // measure 76
3000
0000
0000
0000
;

//---------------dance-single - ----------------
#NOTES:
     dance-single:
     :
     Easy:
     3:
     0.302,0.302,0.048,0.089,0.000:
0000
0000
0000
0000
,
0000
0000
0000
0000
,
0000
0000
0000
0000
,
0000
0000
0000
0000
,
0000
1000
0010
1000
,
0000
0001
0100
0001
,
0000
1000
0010
1000
,
0000
0001
0100
0001
,
0100
0010
1000
0010
,
0010
1000
0001
0100
,
0100
0010
1000
0001
,
0001
1000
0001
1000
,
1000
0010
0100
0010
,
0010
1000
0001
0100
,
0100
0001
1000
0001
,
0001
1000
0010
0010
,
0010
0100
0001
1000
,
0010
1000
0001
0100
,
0101
1000
0010
0100
,
0010
1000
0001
0100
,
1000
0001
0100
0010
,
1000
0010
0100
0001
,
1001
1000
1000
0010
,
0010
0100
0100
0001
,
0001
1000
0100
1000
,
0010
0000
0100
0001
,
0100
0000
0010
1000
,
0010
0000
0100
0001
,
0001
0000
1000
0100
,
1000
0010
0100
0010
,
0100
0001
0001
0001
,
0001
1000
1000
1000
,
1000
0020
0000
0000
,
0000
0030
0000
0000
,
0000
0100
0010
1000
,
0002
0003
1000
0000
,
0010
0100
0010
1000
,
0001
0100
0010
1000
,
1000
0001
0100
0010
,
2000
3000
0001
0000
,
1000
0010
0100
0001
,
1000
0000
1000
0000
0000
0101
0000
0000
,
0000
1000
0010
1000
,
0010
0100
0010
0000
,
1000
0001
1000
0000
,
0001
0100
0010
0000
,
1000
0010
0100
0100
,
0001
1000
0010
0010
,
1000
0001
0100
0100
,
0001
1000
0001
0001
,
0000
1000
0100
1000
,
0100
0010
0100
0010
,
0100
0001
0100
0001
,
0100
0001
0010
0001
,
0010
0000
2000
0000
0000
0000
0000
3000
,
0000
0000
2002
0000
0000
0000
0000
3003
,
0000
0000
0002
0000
0000
0000
0000
0003
,
0000
0000
0220
0000
0000
0000
0000
0330
,
0000
1000
0010
1000
,
0001
0100
0010
0010
,
1000
0001
0100
0010
,
1000
0001
0100
0100
,
0010
1000
0001
1000
,
0010
0100
0001
0001
,
1000
0010
0100
0001
,
1000
0001
1000
1000
,
0010
0100
0001
1000
,
0001
0010
0010
0100
,
1000
0010
0100
0001
,
1000
0001
0001
0100
,
0100
0010
1000
0001
,
1000
0001
0001
0100
,
0100
0010
0010
1000
,
1000
0001
0100
0010
,
1000
2002
0000
0000
,
3003
0000
0000
0000
;

//---------------dance-single - Copied from----------------
#NOTES:
     dance-single:
     Copied from:
     Medium:
     6:
     0.438,0.454,0.097,0.056,0.000:
0000
0000
0000
0000
,
0000
0000
0000
0000
,
0000
0000
0000
0000
,
0000
0000
0000
0000
,
0000
2000
0000
3100
,
0000
0010
0001
0010
0100
0010
0001
0000
,
0000
0020
0000
0031
,
0000
0100
1000
0100
0010
0100
1000
0000
,
0001
0000
0010
0000
0100
0000
1000
0100
,
1000
0000
0100
0000
0010
0000
0001
0100
,
0001
0000
1000
0000
1000
0000
0001
0010
,
0100
0000
1000
0000
0100
0000
1000
0100
,
0010
0000
0001
0000
0100
0000
0010
1000
,
0010
0000
0100
0000
0001
0000
1000
0001
,
1000
0000
0100
0000
0100
0000
0010
0001
,
0010
0100
1000
0001
,
1000
0000
0010
0000
0100
0000
0001
1000
,
0010
0000
0010
0000
0100
0000
0001
1000
,
0010
0000
0100
0000
0001
0000
1000
0100
,
1000
0000
0001
0000
1000
0000
0010
0100
,
0001
1000
0000
0000
0001
0000
0100
0010
,
1000
0000
0001
0000
1000
0000
0100
1000
,
0100
0000
1000
0010
0100
0000
0001
1000
,
0010
0100
1001
1100
,
0011
0000
1000
0001
1000
0000
0001
0100
,
0010
0000
0010
0000
1000
0000
0001
0100
,
0001
0000
1000
0000
1000
0000
0010
0100
,
0001
0000
0100
0000
0001
0000
1000
0010
,
0100
0000
0100
0000
0001
0000
1000
0100
,
1000
0001
0000
0001
0100
0000
0010
1000
,
0001
0000
1000
0010
1000
0001
0100
0001
,
0100
0000
0001
1000
0010
0100
0001
1000
,
0010
0200
0000
0000
,
0300
0000
0020
0000
0000
0000
0000
0030
,
0000
0000
1000
0100
1000
0010
0100
0010
,
0100
0001
0100
0001
0100
0000
0000
0010
,
1000
0010
1000
0001
0100
0001
0000
1000
,
0100
1000
0100
1000
0100
0010
0000
0010
,
0001
0000
1000
0000
0001
0000
0100
0010
,
0100
0000
0001
1000
0100
1000
0000
0001
,
0100
0001
1000
0010
0100
0010
0000
1000
,
0001
0000
1000
0000
0010
0010
0000
1000
,
0001
1000
0100
1000
,
0001
0100
0010
1000
0001
0100
0000
0000
,
0010
0000
1000
0000
0010
0010
0000
0100
,
0001
0000
1000
0000
0100
0100
0000
1000
,
0010
0000
0100
0001
0100
0010
1000
0000
,
0010
1000
0001
1000
0010
0010
0000
0000
,
0100
0000
0001
0000
1000
1000
0000
0010
,
0100
0000
0001
0000
1000
1000
0000
0001
,
0100
0000
0100
0001
1000
0010
0000
0100
,
0001
0100
0010
1000
0010
0100
0000
0001
,
1000
0000
0010
0100
0010
0100
0000
0001
,
1000
0000
0010
0100
0010
1000
0000
0001
,
1000
0000
0010
0100
0001
1000
0010
0100
,
0001
0000
1000
0100
1000
0100
0010
0001
,
0010
0000
0100
1000
0100
0010
0001
0010
,
0100
2200
0000
0000
,
3300
0010
0001
0010
,
0100
1000
0010
0000
0100
0001
0000
0000
,
1000
0000
0010
0000
1000
1000
0000
0001
,
0100
0000
0100
0000
0001
0001
0000
1000
,
0010
0000
0010
0000
1000
0001
0100
0000
,
0100
0000
0001
0000
0010
0010
0000
0100
,
1000
0000
1000
0000
0001
0001
0000
0100
,
0010
0000
0010
0000
0100
0100
0000
0001
,
0001
1000
0100
1100
,
0010
0011
0100
1100
,
0010
0000
0001
0000
0010
0010
0000
0100
,
1000
0000
1000
0000
0001
0001
0000
0100
,
0001
0101
1010
1001
,
0010
0110
0001
1001
,
1000
0000
0010
0000
0100
0100
0000
0001
,
1000
0000
0010
0100
0010
0100
0000
0001
,
1000
0100
0020
0000
0000
0000
0000
0000
,
0030
0000
0000
0000
;

//---------------dance-single - Copied from----------------
#NOTES:
     dance-single:
     Copied from:
     Beginner:
     1:
     0.085,0.120,0.016,0.032,0.000:
0000
0000
0000
0000
,
0000
0000
0000
0000
,
0000
0000
0000
0000
,
0000
0000
0000
0000
,
0000
0020
0000
0000
,
0000
0030
0000
0000
,
0000
0200
0000
0000
,
0000
0300
0000
0000
,
0000
0001
0000
0000
,
0000
0001
0000
0000
,
0000
1000
0000
0000
,
0000
1000
0000
0000
,
0000
0001
0000
0000
,
0000
0001
0000
0000
,
0000
1000
0000
0000
,
0000
1000
0000
0000
,
0000
0010
0000
0000
,
0000
0100
0000
0000
,
0000
0010
0000
0000
,
0000
0100
0000
0000
,
0000
0010
0000
0000
,
0000
0100
0000
0000
,
0000
0010
0000
0000
,
0000
0100
0000
0000
,
0000
0001
0000
0000
,
0000
1000
0000
0000
,
0000
0001
0000
0000
,
0000
1000
0000
0000
,
0000
0001
0000
0000
,
0000
1000
0000
0000
,
0000
0001
0000
0000
,
0000
1000
0000
0000
,
0000
0220
0000
0000
,
0000
0330
0000
0000
0000
0000
0000
0000
,
0000
0001
0000
0000
,
0000
0001
0000
0000
,
0000
1000
0000
0000
,
0000
1000
0000
0000
,
0000
0010
0000
0000
,
0000
0010
0000
0000
,
0000
0100
0000
0000
,
0000
0100
0000
0000
,
0000
0001
0000
0000
,
0000
0001
0000
0000
,
0000
1000
0000
0000
,
0000
1000
0000
0000
,
0000
0010
0000
0000
,
0000
0010
0000
0000
,
0000
0100
0000
0000
,
0000
0100
0000
0000
,
0000
0001
0000
0000
,
0000
0010
0000
0000
,
0000
0100
0000
0000
,
0000
1000
0000
0000
,
0000
0001
0000
0000
,
0000
0010
0000
0000
,
0000
0100
0000
0000
,
0000
1000
0000
0000
,
0000
0001
0000
0000
,
0000
0001
0000
0000
,
0000
0010
0000
0000
,
0000
0010
0000
0000
,
0000
0100
0000
0000
,
0000
0100
0000
0000
,
0000
1000
0000
0000
,
0000
1000
0000
0000
,
0000
0001
0000
0000
,
0000
0001
0000
0000
,
0000
0010
0000
0000
,
0000
0010
0000
0000
,
0000
0100
0000
0000
,
0000
0100
0000
0000
,
0000
1000
0000
0000
,
0000
1000
0000
0000
,
0000
1001
0000
0000
;
