#TITLE:Stay my side;
#SUBTITLE:;
#ARTIST:DJ Yoshitaka feat RINA;
#TITLETRANSLIT:;
#SUBTITLETRANSLIT:;
#ARTISTTRANSLIT:;
#CREDIT:SupremeX;
#BANNER:Stay my side-bn.png;
#BACKGROUND:Stay my side-bg.png;
#LYRICSPATH:;
#CDTITLE:;
#MUSIC:Stay my side.ogg;
#OFFSET:-2.938;
#SAMPLESTART:59.860;
#SAMPLELENGTH:12.000;
#SELECTABLE:YES;
#BPMS:0.000=100.000;
#STOPS:;
#BGCHANGES:;

//---------------dance-single - ----------------
#NOTES:
     dance-single:
     :
     Hard:
     8:
     0.388,0.352,0.206,0.039,0.059: // measure 1
0000
0000
0000
0000
,  // measure 2
0000
0000
0000
0000
,  // measure 3
0000
0000
0000
0000
,  // measure 4
0000
0000
0000
0000
,  // measure 5
1000
0000
0000
0010
0100
0000
0010
0000
1000
0000
0010
0000
0100
0000
0001
0000
,  // measure 6
1000
0000
0000
0100
1000
0000
0100
0000
0010
0000
0001
0000
0100
0000
0010
0000
,  // measure 7
1000
0000
0000
0001
0100
0000
0001
0000
1000
0000
0010
0000
0100
0000
0001
0000
,  // measure 8
1000
0000
0000
0010
0100
0000
0010
0000
0100
0000
0001
0000
1000
0000
1000
0000
,  // measure 9
0001
0010
0100
1000
0010
0100
0010
1000
,  // measure 10
0001
1000
0100
0000
0010
0001
0011
0000
,  // measure 11
0100
1000
0100
0010
0001
0100
0001
0000
,  // measure 12
1000
0100
1100
0000
0010
0001
0011
0000
,  // measure 13
0100
1000
0100
0001
0100
1000
0100
0000
,  // measure 14
0010
0001
0010
1000
0010
0001
0010
0000
,  // measure 15
0100
1000
1100
0000
0010
0100
0110
0000
,  // measure 16
0001
0010
0011
0000
0100
1000
0100
0010
,  // measure 17
1001
0000
0100
0010
1000
0001
0110
0000
,  // measure 18
1000
0100
1000
0100
0010
0001
0011
0000
,  // measure 19
0100
1000
0100
0010
0001
1000
0110
0000
,  // measure 20
0001
1000
0100
1000
0001
0100
1001
0000
,  // measure 21
0010
0100
0001
1000
0100
1000
1100
0000
,  // measure 22
0010
0001
0010
0100
1000
0100
0110
0000
,  // measure 23
0001
0100
0010
1000
0001
0100
0110
0000
,  // measure 24
0001
1000
0100
0010
0001
0000
1000
0100
,  // measure 25
1000
0000
0001
1000
0001
0000
0100
0010
,  // measure 26
0100
0000
0001
0010
0100
1000
0010
1000
,  // measure 27
0200
0300
0001
0100
0020
0030
1000
0001
,  // measure 28
1000
0010
0100
0010
0010
0000
1000
0001
,  // measure 29
0001
0000
0100
0010
0010
0000
1000
0100
,  // measure 30
0100
0000
0010
0001
0010
0100
1000
0010
,  // measure 31
0110
0000
0001
0100
0101
1000
1200
0000
,  // measure 32
2300
0000
0010
0000
0010
0010
3010
0000
,  // measure 33
0100
0000
0000
0001
0100
0000
0001
0000
0010
0000
0100
0000
1100
0000
0000
0000
,  // measure 34
0001
0000
0000
1000
0010
0000
1000
0000
0001
0000
1000
0000
0010
0000
0100
0000
,  // measure 35
0010
0000
0000
1000
0001
0000
1000
0000
0010
0000
0100
0000
0110
0000
0000
0000
,  // measure 36
0001
0000
0000
0100
0010
0000
0100
0000
0001
0000
1000
0000
0010
0000
0100
0000
,  // measure 37
0110
0000
0000
0001
0100
0000
0001
0000
1000
0000
0100
0000
1000
0000
0001
0000
,  // measure 38
0010
0000
0000
0100
1000
0000
0100
0000
0010
0000
0001
0000
1000
0000
0010
0000
,  // measure 39
1000
0000
0000
0001
0100
0000
0001
0000
1000
0000
0010
0000
0100
0000
0010
0000
,  // measure 40
1000
0000
0000
0001
0100
0000
0001
0000
0000
0000
1000
0000
0001
0000
1001
0000
;

//---------------dance-single - ----------------
#NOTES:
     dance-single:
     :
     Medium:
     5:
     0.245,0.274,0.157,0.029,0.000:
0000
0000
0000
0000
,
0000
0000
0000
0000
,
0000
0000
0000
0000
,
0000
0000
0000
0000
,
0001
0000
0100
0000
0010
1000
0010
0000
,
1000
0000
0100
0000
0010
0001
0010
0000
,
0100
0000
1000
0000
0010
1000
0010
0000
,
0100
0000
0001
0000
1000
0010
0100
0000
,
0100
0001
0001
1000
,
0010
0100
0001
0000
1000
0000
1000
0000
,
0010
0000
0100
0000
0001
1000
0010
0000
,
1000
0000
0001
0000
0100
0010
1000
0000
,
0001
1001
0010
1010
,
0100
0101
1000
1001
,
0010
1010
0100
0101
,
0010
1010
1000
1001
,
0020
0100
0100
0130
,
0001
1000
0001
1000
,
0020
0100
0100
0130
,
1000
0001
0100
0001
,
0020
0100
1000
0130
,
1000
0100
0010
0001
,
1000
0001
0100
0010
,
1000
0000
0000
0000
,
1001
0010
0110
1000
,
1100
0000
0010
0000
0011
0000
1000
0001
,
1000
0000
0010
0100
0010
0000
1000
0001
,
1000
0000
0001
0010
0100
0000
1000
0000
,
1010
0100
0101
1010
,
0101
0000
0000
1000
1000
1000
0010
0000
,
0100
0000
0001
0001
0001
0000
1000
0000
,
0010
0100
0001
0001
,
1000
0000
0010
0010
0000
0000
0100
0000
,
0001
0000
1000
1000
0000
0000
0010
0000
,
0100
0000
0001
0001
0000
0000
1000
0000
,
0010
0000
1000
1000
0000
0001
0001
0001
,
0100
0000
0010
1000
0010
0000
0000
0000
,
0100
0000
0001
0001
0000
0000
0000
0000
,
0100
0000
0010
0010
0000
0000
0000
0000
,
1000
0000
0001
1000
0000
0010
0100
0100
;

//---------------dance-single - ----------------
#NOTES:
     dance-single:
     :
     Easy:
     3:
     0.146,0.176,0.049,0.059,0.000:
0000
0000
0000
0000
,
0000
0000
0000
0000
,
0000
0000
0000
0000
,
0000
0000
0000
0000
,
0010
0100
0000
0100
,
0000
0001
1000
0001
,
1000
0010
0000
0010
,
1000
0001
0000
0001
,
1000
0010
0100
0100
,
0001
1000
0001
0001
,
1000
0010
1000
1000
,
0001
0000
0000
0001
0000
0000
0000
0000
,
1000
0010
0100
0100
,
0001
1000
0010
0010
,
1000
0000
1000
0000
,
0001
0000
0001
0000
,
2020
0000
0000
0000
0000
3030
0000
0000
,
1010
0000
0000
0000
,
0202
0000
0000
0000
0000
0303
0000
0000
,
0101
0000
0000
0000
,
1000
0010
0010
0010
,
1000
0001
0001
0001
,
1000
0100
0100
0100
,
0020
0000
0030
0000
,
0001
0000
0001
0000
,
0001
0000
1000
1000
,
0010
0000
0010
0000
,
0010
0000
0010
0000
,
0100
0100
0100
0100
,
0100
0000
0001
1000
,
0001
1000
1000
0010
,
0200
0000
0000
0300
,
0001
0000
0000
0001
0000
0000
0000
0000
,
1000
0000
0000
1000
0000
0000
0000
0000
,
0010
0000
0000
0010
0000
0000
0000
0000
,
0100
0000
0000
0100
0000
0000
0000
0000
,
0001
0000
0000
0001
0000
0000
0000
0000
,
1000
0000
0000
1000
0000
0000
0000
0000
,
0010
0000
0000
0010
0000
0000
0000
0000
,
0100
0000
0000
0100
0000
0000
0000
1001
;

//---------------dance-single - Copied from----------------
#NOTES:
     dance-single:
     Copied from:
     Beginner:
     1:
     0.050,0.057,0.000,0.000,0.000:
0000
0000
0000
0000
,
0000
0000
0000
0000
,
0000
0000
0000
0000
,
0000
0000
0000
0000
,
0010
0000
0000
0000
,
0100
0000
0000
0000
,
0010
0000
0000
0000
,
0100
0000
0000
0000
,
0001
0000
0000
0000
,
0001
0000
0000
0000
,
1000
0000
0000
0000
,
1000
0000
0000
0000
,
0010
0000
0000
0000
,
0010
0000
0000
0000
,
0100
0000
0000
0000
,
0100
0000
0000
0000
,
0001
0000
0000
0000
,
0001
0000
0000
0000
,
1000
0000
0000
0000
,
1000
0000
0000
0000
,
0010
0000
0000
0000
,
0100
0000
0000
0000
,
0010
0000
0000
0000
,
0100
0000
0000
0000
,
0001
0000
0000
0000
,
1000
0000
0000
0000
,
0001
0000
0000
0000
,
1000
0000
0000
0000
,
0010
0000
0000
0000
,
0100
0000
0000
0000
,
0010
0000
0000
0000
,
0100
0000
0000
0000
,
0001
0000
0000
0000
,
0001
0000
0000
0000
,
1000
0000
0000
0000
,
1000
0000
0000
0000
,
0001
0000
0000
0000
,
0001
0000
0000
0000
,
1000
0000
0000
0000
,
1000
0000
0000
0000
;
