#TITLE:Somebody Like You;
#SUBTITLE:;
#ARTIST:good-cool;
#TITLETRANSLIT:;
#SUBTITLETRANSLIT:;
#ARTISTTRANSLIT:;
#CREDIT:SupremeX;
#BANNER:Somebody Like You-bn.png;
#BACKGROUND:Somebody Like You-bg.png;
#LYRICSPATH:;
#CDTITLE:;
#MUSIC:Somebody Like You.ogg;
#OFFSET:-0.513;
#SAMPLESTART:71.720;
#SAMPLELENGTH:12.000;
#SELECTABLE:YES;
#BPMS:0.000=125.000;
#STOPS:;
#BGCHANGES:;

//---------------dance-single - ----------------
#NOTES:
     dance-single:
     :
     Hard:
     8:
     0.516,0.465,0.204,0.195,0.031: // measure 1
0000
0000
0000
0000
,  // measure 2
1000
0100
0010
0000
0001
0010
0100
0000
,  // measure 3
1000
0010
1000
0000
0001
0100
0001
0000
,  // measure 4
1000
0100
1100
0000
0010
0001
0011
0000
,  // measure 5
1000
0010
0100
0010
1000
0001
0100
0000
,  // measure 6
0100
0001
1000
0000
0010
0100
0010
0000
,  // measure 7
1000
0100
0010
0000
0001
0010
0100
1000
,  // measure 8
0200
0000
1300
0000
0001
0001
0100
0000
,  // measure 9
0001
0010
0100
1000
0010
0100
0010
0000
,  // measure 10
1000
0001
0100
0200
0000
0000
0001
0000
,  // measure 11
0000
0310
0010
0000
1000
0100
0010
0001
,  // measure 12
0000
1000
0100
2000
0000
0100
3100
0000
,  // measure 13
1000
0010
0100
0001
1000
0010
0100
0001
,  // measure 14
0000
1000
0100
1100
0000
0010
0001
0011
,  // measure 15
0000
0100
1000
0000
0001
0010
0100
1000
,  // measure 16
0000
0001
1000
0001
0010
0100
1000
0010
,  // measure 17
0200
0000
0301
0000
0001
1000
0001
0100
,  // measure 18
0101
0001
0010
0100
0000
1000
0010
0100
,  // measure 19
0000
0100
0001
1000
0020
0000
1030
0000
,  // measure 20
0000
0100
0001
0100
0010
1000
0010
0100
,  // measure 21
0001
0000
1010
0000
0101
0000
1000
1000
,  // measure 22
0000
0010
0100
0001
0100
0010
1000
2000
,  // measure 23
0000
3001
0001
0000
0100
0010
0100
0000
,  // measure 24
0101
0000
1000
0100
0010
0001
0010
0000
,  // measure 25
0100
1000
0100
0010
0001
0100
0010
1000
,  // measure 26
0001
0000
0100
0000
0010
0000
0100
0001
0000
0000
1000
0000
0010
0000
0100
0010
,  // measure 27
0000
1000
0010
0100
0002
0000
1003
0000
,  // measure 28
0000
0100
0010
1000
0001
0100
0010
0100
,  // measure 29
0002
0000
0023
0000
0230
0000
1000
1300
,  // measure 30
0000
0100
0010
0001
1000
0010
0100
0010
,  // measure 31
0110
0000
0001
0000
0100
0010
0100
0000
,  // measure 32
0001
0000
1000
0100
1000
0100
0010
0001
,  // measure 33
1100
0000
0000
0110
0000
0000
0011
0000
0000
0000
0001
0000
1000
0000
0100
0000
,  // measure 34
1000
0001
0010
0100
1000
0100
0010
0001
,  // measure 35
0002
0000
1003
1000
0100
0010
0001
0000
,  // measure 36
1000
0100
1000
0010
0100
0010
1000
0001
,  // measure 37
0000
1000
0100
2000
0000
0000
3020
1000
,  // measure 38
1000
1030
0100
0010
0001
0100
0010
1000
,  // measure 39
0001
0000
0000
0000
1100
0000
0000
1001
0000
0000
0010
0000
0100
0000
0010
0000
,  // measure 40
1000
0001
0100
0001
1000
0010
0100
0000
,  // measure 41
0001
0000
1000
0000
0001
0000
0000
1010
0000
0000
1002
0000
0000
0000
0103
0000
,  // measure 42
0010
1000
0001
1000
0100
1100
0000
0010
,  // measure 43
0002
0000
1003
0100
0010
0001
1000
0010
,  // measure 44
0000
0010
1000
0100
0010
0001
1001
0000
,  // measure 45
0100
0000
0010
0000
0100
0000
0000
0002
0000
0000
1003
0000
0000
0010
0100
0000
,  // measure 46
0100
0001
1000
0100
1000
0100
0010
0000
,  // measure 47
0010
0001
0010
0100
1000
0010
0100
0010
,  // measure 48
2000
0000
3100
0000
0100
0100
0100
0000
,  // measure 49
1000
0100
0010
0001
0100
0010
1000
0100
,  // measure 50
1100
0000
0010
0001
0010
1000
0001
0100
,  // measure 51
0001
1000
0010
0100
0010
0100
0001
1000
,  // measure 52
0200
0000
0010
0000
0010
0010
0310
0000
,  // measure 53
0001
1000
0100
0010
0001
0000
0220
0000
,  // measure 54
0330
1000
0100
0010
0001
0100
0001
0000
,  // measure 55
1000
0100
0010
0001
1000
0100
0110
0000
,  // measure 56
0001
0010
0100
1000
0001
0100
0110
0000
,  // measure 57
1000
0100
1000
0100
0010
0001
1000
0000
,  // measure 58
2002
0000
0000
0000
,  // measure 59
0000
0000
0000
3003
0000
0000
0000
0000
;

//---------------dance-single - ----------------
#NOTES:
     dance-single:
     :
     Medium:
     6:
     0.394,0.388,0.115,0.044,0.000:
0000
0000
0000
0000
,
1000
0000
0010
0000
1000
0000
0001
0100
,
0001
0000
1000
0010
0100
0000
0001
0000
,
1000
0010
0100
0000
0001
0010
0100
0000
,
1000
0010
0100
0000
0001
0001
0001
0000
,
1000
0000
0010
0000
0100
0001
0100
0000
,
0010
1000
0010
0000
0100
0100
0100
0000
,
0001
1000
0010
0000
1000
0010
0100
0000
,
0001
0000
1000
0000
0010
0100
0010
0000
,
1000
0000
0001
0000
0100
0010
1000
0000
,
0001
0001
0001
0000
0100
0010
1000
0010
,
0100
0000
0001
0000
1000
0010
0100
0000
,
0001
0010
0100
0000
1000
0010
0100
0000
,
0001
0000
1000
0010
0000
1000
0001
0100
,
0000
0010
1000
0010
,
0100
0000
0001
0001
0001
0000
1000
0010
,
0200
0001
0001
0001
,
0301
0000
0010
0010
0000
1000
1000
1000
,
0000
0001
0001
0001
0100
0000
0010
0000
,
1000
0000
0001
0100
0000
0010
1000
0000
,
0010
0000
0100
0000
0110
0000
0001
0001
,
0000
1000
0010
0100
0000
0010
0100
0010
,
0000
1000
0001
0000
1000
0001
1000
0000
,
0010
0100
0010
0100
0001
0100
0010
1000
,
0001
0000
1000
0000
1000
1000
1000
0000
,
0010
0100
0100
0001
,
0001
1000
1010
0101
,
1000
0010
0100
0010
0000
0100
0001
0000
,
1010
0000
0101
0000
1000
0000
0010
0010
,
0000
1000
0100
0010
0001
0010
0100
1000
,
0010
0000
0100
0000
0001
1000
0001
0000
,
1000
0000
0010
0000
0100
0100
0100
0000
,
0001
0010
0100
1000
0010
0100
0010
0000
,
1000
0000
0001
0001
0001
0000
0100
0000
,
0010
1000
0010
0000
0100
0100
0100
0000
,
0001
0000
0010
0000
0100
0000
1000
1000
,
0000
0001
0001
0100
0000
0000
0010
0000
,
1000
0001
0100
0000
0010
0000
0000
0000
,
1010
0001
0100
0010
,
1000
0010
0100
0010
0100
0001
1000
0000
,
1010
0001
0101
1010
,
1001
0000
0010
0010
0010
0010
0000
0100
,
0100
0000
0001
0000
1000
0001
1000
0000
,
0010
0100
1000
0001
,
0101
0000
1000
0000
0001
0000
0100
0100
,
0100
0000
0010
0000
1000
0010
0100
0000
,
0001
1000
0010
0100
0001
0000
1000
0000
,
0020
0000
0100
0000
0100
0100
0130
0000
,
0001
0010
0100
0000
1000
0010
0100
0000
,
0001
0000
1000
0000
0010
0100
0010
0000
,
1000
0000
0001
0000
0100
0000
0010
1000
,
0002
0000
0100
0000
0100
0100
0103
0000
,
0010
0100
1000
0000
0001
1000
0001
0000
,
0000
1000
1000
1000
0000
0000
0010
0000
,
0100
0001
1000
1001
,
0000
0010
0010
0010
0000
0000
0100
0000
,
0001
0000
1000
0000
0010
1000
0001
0000
,
2002
0000
0000
0000
,
0000
0000
3003
0000
;

//---------------dance-single - ----------------
#NOTES:
     dance-single:
     :
     Easy:
     3:
     0.274,0.259,0.106,0.080,0.000:
0000
0000
0000
0000
,
1000
0010
1000
1000
,
0001
0100
0010
1000
,
0002
0000
0000
0000
0000
0000
0000
0003
,
0100
0010
1000
0010
,
0100
0001
1000
0010
,
0100
0001
0001
0010
,
2000
0000
0000
0000
0000
0000
0000
3000
,
0010
0100
0010
0000
,
1000
0001
0100
0010
,
1000
0001
1000
1001
,
0010
0100
1000
0001
,
0100
0010
1000
1000
,
0010
1000
0100
0010
,
0001
1000
1000
1010
,
0001
0100
0010
1000
,
0001
0100
0010
0110
,
0000
1000
0001
1000
,
0001
0100
0010
0110
,
0000
1000
1000
0001
,
0001
0100
0010
1000
,
0001
0001
0100
0100
,
0010
1000
0001
0001
,
0000
1000
0010
0100
,
0100
0001
1000
0010
,
0010
1000
0001
0100
,
0010
1000
0001
1001
,
0000
0010
0100
0100
,
0001
0000
0010
0000
0100
0000
1000
1000
,
0000
0010
0100
0001
,
2000
0000
3000
0000
,
0010
0100
0010
0010
,
1000
0001
0100
0010
,
1000
1000
1000
1000
,
0002
0000
0000
0003
,
0100
0000
0010
0000
1000
0000
0000
1001
,
0000
0000
0000
0110
0000
0000
1001
0000
,
0000
1000
1000
0000
,
0010
0010
0010
0010
,
0000
0100
0001
1000
,
0010
0100
0001
0001
,
1000
0010
0100
0001
,
1000
1000
1000
0010
,
0100
0001
0010
0100
,
1000
0010
1010
1000
,
1000
0010
0010
0100
,
0100
0001
1000
0010
,
0200
0000
0000
0000
0010
0000
0010
0300
,
0001
0010
0100
1000
,
0010
0100
0001
1000
,
0001
1000
0001
0001
,
2000
0010
0000
3010
,
0001
0010
0100
2000
,
3000
0010
0000
0100
,
0000
1001
0000
1010
,
0000
0001
0100
0001
,
1000
0010
0100
0001
,
2002
0000
0000
0000
,
0000
0000
3003
0000
;

//---------------dance-single - Copied from----------------
#NOTES:
     dance-single:
     Copied from:
     Beginner:
     1:
     0.072,0.077,0.000,0.044,0.000:
0000
0000
0000
0000
,
0000
0000
0000
0000
,
0000
0000
0000
0000
,
1000
0000
0000
0000
,
0010
0000
0000
0000
,
0100
0000
0000
0000
,
0001
0000
0000
0000
,
1000
0000
0000
0000
,
0010
0000
0000
0000
,
0100
0000
0000
0000
,
0100
0000
0000
0000
,
0100
0000
0000
0000
,
0100
0000
0000
0000
,
0001
0000
0000
0000
,
0001
0000
0000
0000
,
1000
0000
0000
0000
,
1000
0000
0000
0000
,
0010
0000
0000
0000
,
0010
0000
0000
0000
,
0100
0000
0000
0000
,
0100
0000
0000
0000
,
0001
0000
0000
0000
,
0001
0000
0000
0000
,
1000
0000
0000
0000
,
1000
0000
0000
0000
,
0010
0000
0000
0000
,
0010
0000
0000
0000
,
0100
0000
0000
0000
,
0100
0000
0000
0000
,
0001
0000
0000
0000
,
0001
0000
0000
0000
,
1000
0000
0000
0000
,
0100
0000
0000
0000
,
1000
0000
0000
0000
,
0010
0000
0000
0000
,
0100
0000
0000
0000
,
0001
0000
0000
0000
,
1000
0000
0000
0000
,
1000
0000
0000
0000
,
0010
0000
0000
0000
,
0010
0000
0000
0000
,
0100
0000
0000
0000
,
0100
0000
0000
0000
,
0001
0000
0000
0000
,
0001
0000
0000
0000
,
1000
0000
0000
0000
,
1000
0000
0000
0000
,
0020
0000
0000
0000
,
0000
0000
0000
0000
0000
0000
0000
0030
,
0010
0000
0000
0000
,
0100
0000
0000
0000
,
0002
0000
0000
0000
,
0000
0000
0000
2003
,
3000
0010
0000
0000
,
0000
0000
0000
0000
,
0000
0200
0000
0000
,
0000
0300
0000
0000
,
0020
0000
0000
0000
,
0000
0030
0000
0000
;
