#TITLE:Shiva;
#SUBTITLE:;
#ARTIST:Relect;
#TITLETRANSLIT:;
#SUBTITLETRANSLIT:;
#ARTISTTRANSLIT:;
#CREDIT:SupremeX;
#BANNER:Shiva-bn.png;
#BACKGROUND:Shiva-bg.png;
#LYRICSPATH:;
#CDTITLE:;
#MUSIC:Shiva.ogg;
#OFFSET:-1.313;
#SAMPLESTART:16.100;
#SAMPLELENGTH:12.000;
#SELECTABLE:YES;
#BPMS:0.000=150.000;
#STOPS:;
#BGCHANGES:;

//---------------dance-single - ----------------
#NOTES:
     dance-single:
     :
     Challenge:
     9:
     0.720,0.774,0.455,0.187,0.500:
0000
0000
0000
0000
,
0000
0000
0000
0000
,
0000
0000
0000
0000
,
0000
0000
0000
0000
,
0000
0000
0000
0000
,
0000
0000
1000
0100
1000
0100
0010
0001
,
0010
0001
1000
0010
1000
0010
0100
0001
,
0100
0001
1000
0100
0010
0100
1000
0100
,
0010
0000
0000
0000
1000
0001
0000
0001
1000
0000
0010
0000
0100
0000
0110
0000
,
0110
0000
0000
0000
1001
0000
0000
0000
1000
0100
1000
0100
1000
0100
1000
0000
,
0100
0000
0010
0000
0110
0000
0000
0000
0001
0010
0001
0010
0001
0010
0001
0000
,
0010
0000
0100
0000
0110
0000
0000
0000
1000
0100
1000
0100
1000
0100
0010
0000
,
0001
0000
1000
0000
1010
0000
0000
0000
0001
0100
0001
0100
0001
0100
0010
0000
,
1000
0000
0001
0000
0101
0000
0000
0000
1000
0100
1000
0100
1000
0100
0010
0000
,
0001
0000
0010
0000
0011
0000
0000
0000
0100
1000
0100
1000
0100
1000
0010
0000
,
0001
0000
1000
0000
1100
0000
0000
0000
0010
0001
0010
0001
0010
0001
0000
0000
,
1000
0000
0100
0000
1100
0000
0000
0100
1000
0000
0000
1000
0000
0100
0000
1000
,
0100
0000
0000
0000
0110
0000
0000
0000
0001
0100
0001
0100
0001
0100
0010
0000
,
1000
0000
0010
0000
0110
0000
0000
0000
0100
0001
0100
0001
0100
0001
0010
0000
,
0100
0000
1000
0000
1100
0000
0000
0000
1000
0010
1000
0010
1000
0010
0100
0000
,
0001
0000
0100
0000
0101
0000
0000
0000
0010
1000
0010
1000
0010
1000
0100
0000
,
0010
0000
0001
0000
0110
0000
0000
0000
1000
0010
0100
0001
1000
0010
0100
0001
,
1000
0000
0010
0000
0110
0000
0000
0000
0001
0100
0010
1000
0001
0100
0010
1000
,
0100
0000
0010
0000
0110
0000
0000
0000
1000
0010
0100
0001
0100
0010
1000
0000
,
0010
0100
0102
0000
0000
0000
0003
0000
,
1001
2200
0000
0000
,
0000
0000
0000
3300
,
0110
0012
0000
0000
,
0003
0000
0100
0010
0200
0000
0000
0000
0000
0000
0000
0000
0000
0000
0000
0000
,
0301
0000
1100
1000
0100
1000
0001
0100
,
0010
0100
0001
1000
0100
0010
0100
1000
,
0100
0010
0022
0000
0000
0000
0000
0000
,
0033
0000
1000
1000
0100
0100
0010
0010
,
0001
0000
0220
0000
0000
0330
2200
0000
,
3300
0000
0010
0010
0001
0001
1000
1000
,
0100
0100
2100
0000
3000
0010
0210
0000
,
0000
0000
0301
1000
1000
0010
0010
0100
,
0110
1001
0110
2002
,
0000
3003
0100
0001
0100
0001
1000
0100
,
1000
0100
0120
0000
0030
0001
0012
0000
,
1003
1000
0100
0100
0010
0010
0001
0001
,
0010
0000
0001
0000
0011
0000
0100
0000
1000
0000
0100
0000
0010
0000
0000
0001
,
0010
0000
0100
0000
0100
0000
0000
1000
0100
0000
0010
0000
0010
0000
0000
0001
,
0100
0000
0010
0000
0010
0000
0000
0010
1000
0000
0100
0000
0100
0000
0000
0001
,
0010
0000
0001
0000
0001
0000
0000
1000
0100
0000
1000
0000
1000
0000
0000
0010
,
0100
0010
0110
0100
0010
0100
0010
0100
,
1000
0100
1000
0100
0010
0100
0010
0100
,
1000
0000
0100
0000
0010
0001
0010
0001
0010
0001
0100
0010
0100
0010
0100
0010
,
0100
0000
0000
0000
0001
0100
0000
0100
0001
0000
1000
0000
0010
0000
0100
0000
,
0110
0000
0000
0000
1001
0000
0000
0000
0100
0010
0100
0010
0100
0010
0100
0000
,
0010
0000
0110
0000
1000
0100
1000
0100
1000
0100
1000
0000
0100
0000
1000
0000
,
0100
0000
1100
0000
0100
0010
0100
0010
0100
0010
0100
0000
0010
0000
0100
0000
,
0010
0000
0110
0000
0100
0001
0100
0001
0100
0001
0100
0000
0001
0000
0100
0000
,
0101
0000
0000
0000
1010
0000
0000
0000
0010
1000
0010
1000
0010
1000
0100
0000
,
0010
0000
0011
0000
0100
1000
0100
1000
0100
1000
0100
0000
0010
0000
0001
0000
,
1000
0000
0110
0000
0010
0001
0010
0001
0010
0001
0010
0000
0100
0000
1000
0000
,
0100
0000
1100
0000
0010
0000
0001
0010
0001
0010
0001
0000
0100
0000
1000
0000
,
0100
0000
0110
0000
0022
0000
0033
0000
1000
0100
1000
0100
1000
0100
1000
0000
,
0100
0000
0010
0000
0001
0000
0001
0000
0100
0010
0100
0010
0100
0010
0100
0000
,
0010
0000
0010
0000
1000
0000
0010
0100
0001
0100
0010
1000
0001
0000
0100
0000
,
0001
0000
0001
0000
1000
0000
0010
0100
0001
0100
0010
1000
0010
0100
0001
0000
,
0001
0000
1100
1000
0100
1000
0100
0010
,
0001
0010
0001
1000
0100
0010
0100
1000
,
0100
0000
0010
0000
0001
0100
0001
0100
0001
0100
0010
1000
0010
1000
0010
1000
,
0001
0100
0001
0100
0010
1000
0000
1000
0010
0000
0100
0000
0010
0000
1000
0000
,
1001
0220
0000
0000
,
0000
0000
0000
0330
;

//---------------dance-single - ----------------
#NOTES:
     dance-single:
     :
     Hard:
     8:
     0.544,0.536,0.268,0.178,0.000:
0000
0000
0000
0000
,
0000
0000
0000
0000
,
0000
0000
0000
0000
,
0000
0000
0000
0000
,
0000
0000
0000
0000
,
0000
1100
1100
1001
,
1001
0101
0101
0110
,
0110
0000
0001
1000
0100
0010
0100
1000
,
0100
0000
0010
0001
0010
0100
0010
0001
,
0010
0000
1000
0001
1000
0001
1000
0010
,
0100
0010
0100
0000
0001
1000
0001
1000
,
0010
0100
0010
0000
1000
0100
0010
0100
,
1000
0100
0010
0000
0001
0010
0100
0010
,
0001
0010
0100
0000
1000
0100
1000
0100
,
0010
0001
0010
0000
0100
1000
0100
0010
,
0100
1000
0100
0000
0010
0001
0010
0001
,
1000
0100
1000
0000
1001
0001
0100
0010
,
0101
0000
1010
0000
0001
0100
0001
1000
,
0010
1000
0010
0000
0100
0010
0100
0001
,
1000
0001
1000
0000
0001
0010
0100
0010
,
0001
0010
0100
0000
1000
0100
1000
0100
,
0010
0100
1100
0000
0010
0001
0010
0100
,
1000
0100
0110
0000
0001
0010
0001
0010
,
0100
1000
1001
0000
0001
0100
0001
1000
,
0010
0100
0102
0000
0000
0000
0003
0000
,
1001
2100
0000
0000
,
0000
0000
0000
3000
,
0100
0012
0000
0000
,
0000
0203
0000
0000
,
0000
0300
0001
1000
0100
1000
0001
0100
,
0010
0100
0001
1000
0100
0010
0100
1000
,
0100
0010
0020
0000
0000
0000
0000
0000
,
0030
0000
1000
0001
0100
0001
1000
0100
,
1000
0000
0220
0000
0000
0330
0202
0000
,
0303
0000
0010
1000
0010
1000
0001
1000
,
2000
3020
0030
0210
,
0000
0000
0301
1000
1000
0100
0010
0001
,
1000
1001
0100
2020
,
0000
3030
0100
0001
0100
0001
1000
0100
,
1000
0100
0020
0000
0030
0001
0002
0000
,
0000
1003
1000
0100
0010
0001
1000
0100
,
1000
0100
1100
0010
0001
0010
0100
1000
,
0100
0001
1000
0001
1000
0010
0100
0010
,
0100
0001
1000
0100
0010
0100
1000
0001
,
0010
0100
0010
0001
1000
0010
0100
0001
,
1000
0001
1001
0000
0110
0000
1100
0000
,
1001
0000
0010
0100
0001
1000
0010
0100
,
0001
0000
1000
0100
0010
0100
1000
0100
,
0010
0000
0001
0010
0100
0010
0001
0010
,
0100
0000
1001
0000
0100
0010
0100
0001
,
0100
0010
1000
0001
1000
0010
1000
0001
,
0100
0010
0100
0001
0100
0010
0100
0001
,
0100
0010
1000
0010
0100
0010
1000
0010
,
0100
0000
0001
0010
0001
0010
0100
1000
,
0100
1000
0100
0010
0001
0010
0100
1000
,
0100
0010
0001
1000
0100
1000
0100
0010
,
0001
0010
0001
1000
0100
0010
0100
1000
,
0100
0000
0020
0030
0001
1000
0100
1000
,
0100
0010
0001
0010
0001
1000
0100
1000
,
0001
1000
0100
0010
0100
1000
0001
0010
,
0001
1000
0001
0010
0001
1000
0001
0010
,
0001
0000
2000
0000
3100
0010
0001
0010
,
0100
0010
0001
0010
0100
1000
0010
0100
,
0010
1000
0100
0010
0001
1000
0100
1000
,
0010
0100
0001
1000
0001
0100
0010
1000
,
0001
2002
0000
0000
,
0000
0000
0000
3003
;

//---------------dance-single - ----------------
#NOTES:
     dance-single:
     :
     Medium:
     6:
     0.419,0.445,0.170,0.116,0.000:
0000
0000
0000
0000
,
0000
0000
0000
0000
,
0000
0000
0000
0000
,
0000
0000
0000
0000
,
0000
0000
0000
0000
,
0000
0100
1000
0100
,
0010
0001
0100
0010
,
1000
0001
1000
0010
,
0100
0002
0000
0000
,
0003
0000
1000
0000
0100
1000
0100
0000
,
0010
0000
0011
0000
0100
1000
0100
0000
,
0010
0000
0011
0000
0100
1000
0100
0000
,
0010
0000
0101
0000
1000
0100
1000
0000
,
0001
1000
0001
0000
0100
0000
0100
0000
,
0001
1000
0010
0000
0010
0000
1000
0000
,
0001
0100
0001
0000
1000
0010
0100
0000
,
0001
1000
0100
0000
2000
0000
0000
0000
,
3000
0000
0001
0000
1000
0100
1000
0000
,
0001
0100
0010
0000
0010
0100
0010
0000
,
1000
0001
0100
0000
0100
0010
1000
0000
,
0001
1000
0010
0000
0010
0000
1000
0000
,
1100
0110
0001
0001
,
1000
0100
1000
0000
0001
0100
0001
0000
,
1000
0001
0100
0000
0100
0001
1000
0000
,
1000
0001
0200
0000
0000
0000
0000
0000
,
0300
0020
0000
0000
,
0000
0000
0030
1000
,
0100
2200
0000
0000
,
3300
0000
2002
0000
0000
0000
0000
3003
,
0000
0000
0100
0000
0001
0000
1000
0100
,
1000
0000
0001
1000
0001
0000
0100
0001
,
0010
0000
0010
0100
1000
0100
0010
0001
,
0010
0200
0000
0000
,
0300
0000
1000
0000
0000
0100
1000
0000
,
1000
0000
0001
0100
0001
0100
0001
0000
,
1000
0000
1100
0000
0000
0010
0001
0000
,
0001
0000
1000
0100
1000
0100
1000
0100
,
1000
0001
0100
1010
,
0000
0001
1000
0000
1000
0000
0110
0000
,
0101
0000
0010
0000
0000
1000
0100
0000
,
0100
0000
1000
0100
0010
0001
0010
0100
,
1000
0000
0001
0000
1000
0100
1000
0100
,
1000
0100
0010
0000
0001
0010
0001
0000
,
1000
0001
1000
0000
0010
0100
0010
0000
,
1000
0010
0100
0000
0100
0001
0100
0000
,
0010
1000
0010
0000
1001
0000
0010
0000
,
0110
1000
1001
0010
,
0110
0000
1000
0100
1000
0100
0010
0001
,
0010
0001
0220
0000
0000
0000
0000
0000
,
0330
0000
1000
0000
0100
1000
0100
1000
,
0001
0100
0001
0000
1000
0000
0010
0100
,
0010
0100
0000
0000
0001
0000
1000
0010
,
0100
0000
0100
0000
0001
0000
1000
0100
,
1000
0100
0010
0000
0011
0000
0100
1000
,
0100
1000
0100
0000
0010
0001
0010
0001
,
0100
0000
1000
0010
0100
0000
0100
0010
,
1000
0000
0001
0100
0001
0100
0010
1000
,
0010
0000
1001
0000
1000
0001
0100
0001
,
1000
0100
1000
0000
0001
0100
0001
0000
,
1000
0010
0100
0000
0100
0001
0100
0000
,
1000
0010
0100
0000
0100
0001
1000
0010
,
0100
0001
1000
0000
1000
0010
0100
0001
,
1000
0001
0100
0000
0010
1000
0010
0000
,
0100
0001
1000
0000
1000
0001
0100
0000
,
0100
0010
0100
0000
0001
0000
1000
0100
,
1000
2002
0000
0000
,
0000
0000
3003
0000
;

//---------------dance-single - ----------------
#NOTES:
     dance-single:
     :
     Easy:
     4:
     0.288,0.328,0.232,0.125,0.000:
0000
0000
0000
0000
,
0000
0000
0000
0000
,
0000
0000
0000
0000
,
0000
0000
0000
0000
,
0000
0000
0000
0000
,
0000
0001
1000
0001
,
1000
0010
0100
0010
,
0100
0001
1000
0010
,
0100
0002
0000
0000
,
0003
1000
1000
1000
,
1000
0110
0001
0001
,
0001
0110
1000
1000
,
1000
0110
0001
0001
,
0001
1000
0010
1000
,
0010
0101
0010
1000
,
0010
0101
0010
1000
,
0010
0101
0000
0000
,
0000
1010
1000
0010
,
1000
0110
0001
0010
,
0100
1010
0100
0001
,
1000
1010
0001
0100
,
0010
1010
0001
0001
,
1000
1000
0010
0010
,
0100
0100
0001
0001
,
1000
1000
0020
0000
,
0030
0200
0000
0000
,
0000
0000
0000
0300
,
0000
0002
0000
0000
,
0003
2000
0000
0000
,
3000
0010
0100
0010
,
0100
0010
0100
0010
,
0100
0002
0000
0000
,
0000
0003
2002
0000
0000
0000
0000
0000
,
3003
1000
0000
0110
,
0000
0001
0000
1000
,
0000
0110
0000
1001
,
0000
0101
0000
1010
,
0000
1100
0000
0110
,
0000
0011
0000
1001
,
0000
1100
0000
0011
,
0000
1000
0000
1000
,
0000
0010
0100
0010
,
0100
0001
0100
0001
,
1000
0000
0020
0000
0000
0000
0000
0030
,
0000
2000
0000
0000
,
3000
0001
0100
0010
,
1000
0001
0100
0010
,
1000
0002
0000
0000
,
0003
0000
2000
0000
0000
0000
0000
3000
,
0000
0110
0001
1000
,
0010
0100
0001
1000
,
0010
0100
0001
0010
,
0100
1000
0001
0010
,
0100
1000
1000
0010
,
0010
0100
0100
0001
,
0001
1000
0010
1000
,
0010
0100
0001
0100
,
0001
1000
1000
0010
,
0010
0100
0001
1000
,
1000
0010
0100
0001
,
1000
0010
0100
0001
,
1001
1000
1000
0010
,
0010
0100
0100
0001
,
0001
1000
1000
0010
,
0100
0001
1000
0001
,
1000
2002
0000
0000
,
0000
0000
0000
3003
;

//---------------dance-single - Copied from----------------
#NOTES:
     dance-single:
     Copied from:
     Beginner:
     2:
     0.088,0.090,0.009,0.107,0.000: // measure 1
0000
0000
0000
0000
,  // measure 2
0000
0000
0000
0000
,  // measure 3
0000
0000
0000
0000
,  // measure 4
0000
0000
0000
0000
,  // measure 5
0000
0000
0000
0000
,  // measure 6
0000
0010
0000
0000
,  // measure 7
0000
0010
0000
0000
,  // measure 8
0000
0010
0000
0000
,  // measure 9
0000
0200
0000
0000
,  // measure 10
0300
0100
0000
0000
,  // measure 11
0000
0100
0000
0000
,  // measure 12
0000
0100
0000
0000
,  // measure 13
0000
0100
0000
0000
,  // measure 14
0000
0000
0001
0000
,  // measure 15
0000
0000
0001
0000
,  // measure 16
0000
0000
0001
0000
,  // measure 17
0000
0000
0002
0000
,  // measure 18
0003
1000
0000
0000
,  // measure 19
0000
0000
1000
0000
,  // measure 20
0000
0000
1000
0000
,  // measure 21
0000
0000
1000
0000
,  // measure 22
0000
0000
0100
0000
,  // measure 23
0000
0000
0100
0000
,  // measure 24
0000
0000
0100
0000
,  // measure 25
0000
0000
0000
0000
,  // measure 26
0000
0020
0000
0000
,  // measure 27
0000
0000
0000
0000
0000
0030
0000
0000
,  // measure 28
0000
0002
0000
0000
,  // measure 29
0000
0003
0000
0000
,  // measure 30
0000
1000
0000
1000
,  // measure 31
0000
1000
0000
1000
,  // measure 32
0000
2000
0000
0000
,  // measure 33
0000
3000
0000
0000
,  // measure 34
0000
0100
0000
0000
,  // measure 35
0000
0100
0000
0000
,  // measure 36
0000
0010
0000
0000
,  // measure 37
0000
0010
0000
0000
,  // measure 38
0000
0001
0000
0000
,  // measure 39
0000
0001
0000
0000
,  // measure 40
0000
0100
0000
0000
,  // measure 41
0000
0100
0000
0000
,  // measure 42
0000
0020
0000
0000
,  // measure 43
0000
0000
0030
0000
,  // measure 44
0000
0000
2000
0000
0000
0000
0000
3000
,  // measure 45
0000
0020
0000
0030
,  // measure 46
0000
2000
0000
0000
,  // measure 47
0000
0000
0000
0000
,  // measure 48
3000
0002
0000
0000
,  // measure 49
0003
0000
0000
0000
,  // measure 50
0000
0100
0000
0000
,  // measure 51
0000
0100
0000
0000
,  // measure 52
0000
0100
0000
0000
,  // measure 53
0000
0100
0000
0000
,  // measure 54
0000
0001
0000
0000
,  // measure 55
0000
0001
0000
0000
,  // measure 56
0000
0001
0000
0000
,  // measure 57
0000
0001
0000
0000
,  // measure 58
0000
1000
0000
0000
,  // measure 59
0000
1000
0000
0000
,  // measure 60
0000
1000
0000
0000
,  // measure 61
0000
1000
0000
0000
,  // measure 62
0000
0010
0000
0000
,  // measure 63
0000
0010
0000
0000
,  // measure 64
0000
0010
0000
0000
,  // measure 65
0000
0010
0000
0000
,  // measure 66
0000
2002
0000
0000
,  // measure 67
0000
0000
0000
0000
,  // measure 68
3003
0000
0000
0000
;
