#TITLE:Saturday Night Love -Phunk Disco Mix-;
#SUBTITLE:;
#ARTIST:Sota Fujimori;
#TITLETRANSLIT:;
#SUBTITLETRANSLIT:;
#ARTISTTRANSLIT:;
#GENRE:;
#CREDIT:SupremeX;
#BANNER:Saturday-bn.png;
#BACKGROUND:Saturday-bg.png;
#LYRICSPATH:;
#CDTITLE:;
#MUSIC:Saturday Night Love -Phunk Disco Mix-.ogg;
#OFFSET:-0.120214;
#SAMPLESTART:60.619999;
#SAMPLELENGTH:12.000000;
#SELECTABLE:YES;
#BPMS:0.000000=135.000000
;
#STOPS:
;
#BGCHANGES:;
#KEYSOUNDS:;
#ATTACKS:;

//---------------dance-single - ----------------
#NOTES:
     dance-single:
     :
     Hard:
     8:
     0.385644,0.410496,0.102838,0.179967,0.029995,315.000000,303.000000,12.000000,21.000000,0.000000,0.000000,0.385644,0.410496,0.102838,0.179967,0.029995,315.000000,303.000000,12.000000,21.000000,0.000000,0.000000:
0000
0000
0000
0000
,
0000
0000
0000
0000
,
0000
0000
0000
0000
,
0000
0000
0000
0000
,
1000
0100
1000
0100
0100
0000
0010
0001
,
0010
0100
1000
0001
0001
0000
0100
0010
,
1000
0000
0001
0010
0010
0000
0100
1000
,
0100
0000
0000
0000
0010
0001
0000
0000
0001
0100
0000
0000
0010
0000
1000
0000
,
0001
0000
1000
0001
1000
0100
0000
1100
,
0000
0010
0001
0010
0100
1000
0100
1000
,
0001
0000
1000
0010
0100
0001
0000
1001
,
0000
0000
1000
0010
0100
0001
1000
0001
,
0100
0000
0001
0000
1000
1000
0000
0110
,
0000
0001
0100
0000
0100
0001
1000
0001
,
0010
0000
0100
0000
1000
1000
0000
1100
,
0000
0010
0001
0010
0100
0010
0001
0010
,
0200
0000
0000
0000
,
2300
0000
0000
3000
,
0220
0000
0330
0000
0001
1000
0010
0100
,
0002
0000
0000
0000
0003
0000
0000
0000
1000
0000
0000
0010
0000
0000
0010
0000
,
2000
0000
0000
3020
0000
0000
0030
0000
,
0100
0000
0000
0100
0000
0000
0001
0000
1000
0000
0000
0010
0000
0000
0100
0000
,
0002
0000
0000
0203
0000
0000
0301
0000
,
0101
0000
0000
1000
0000
0000
0010
0000
,
0100
0010
0100
0000
0010
1000
0100
0010
,
0002
0000
0000
2003
0000
0000
0000
3000
,
0020
0000
0000
0000
0030
0100
0001
0100
,
0001
0000
0000
1000
0010
1000
0010
0100
,
0020
0000
0000
0230
0000
0000
0300
0000
,
0001
0000
0000
0001
0000
0000
1000
0000
1000
0000
0000
0010
0000
0000
0100
0000
,
0002
0000
0000
0203
0000
0300
0010
0000
,
0010
0000
1000
0001
1000
0100
1000
0001
,
2000
0100
0100
3100
,
0001
0010
0100
0010
0001
0000
1001
0000
,
1000
0100
0010
0100
1000
0100
0010
0001
,
0002
0000
1000
1003
0000
0010
0100
0001
,
1000
0001
0001
1000
0001
0100
0001
1000
,
0001
0100
0001
2000
0000
0000
3001
0000
,
0100
0001
0100
0010
1000
0001
0100
0100
,
0001
1000
0001
1000
0000
0001
1000
1000
,
0200
1000
1000
1000
,
1000
0000
1300
0000
0001
0001
0001
0000
,
1000
0100
0010
0100
1000
0100
0010
0100
,
1000
0001
1000
1000
0000
0001
0100
0000
,
0100
0001
1000
0001
0100
0000
0001
1000
,
0001
0100
0010
1000
0001
0100
0001
0000
,
0000
1000
0100
0010
0001
0000
1000
0000
,
1000
0010
0100
0010
0000
1000
0001
0002
,
0000
0100
0100
0100
,
0100
0000
0103
0000
0010
0010
0010
0000
,
1000
0010
0100
0001
0000
1000
0100
1000
,
0000
0001
0100
0001
0000
1001
0000
1000
,
0010
0100
0001
1000
0000
1000
0001
0100
,
0000
0100
0001
1000
0000
1001
0000
0010
,
0100
0000
0100
0010
0000
1000
0001
1000
,
0000
0010
0100
0010
0000
1000
0001
0100
,
0010
0000
0010
0100
0000
0001
1000
0001
,
0000
1000
0010
1000
0000
0101
0000
0000
,
0000
0010
1000
0010
0000
1000
0001
1000
,
0000
0010
0010
0100
0000
0110
0000
1001
;

//---------------dance-single - ----------------
#NOTES:
     dance-single:
     :
     Medium:
     6:
     0.298721,0.333528,0.068559,0.085699,0.000000,244.000000,236.000000,8.000000,10.000000,0.000000,0.000000,0.298721,0.333528,0.068559,0.085699,0.000000,244.000000,236.000000,8.000000,10.000000,0.000000,0.000000:
0000
0000
0000
0000
,
0000
0000
0000
0000
,
0000
0000
0000
0000
,
0000
0000
0000
0000
,
1000
0000
1000
0000
0010
0000
0100
0010
,
0100
0001
0001
1000
,
0001
0000
1000
0010
1000
0000
0001
0000
,
0100
0010
1000
0001
,
1000
0000
0001
0000
0100
0100
0000
0110
,
0000
0001
1000
0001
,
1000
0000
0010
0000
0100
0100
0000
0110
,
0000
0001
1000
0001
,
1000
0000
0001
0000
0001
0001
0000
1001
,
0000
1000
0001
0100
,
0010
0000
1000
0000
1000
1000
0000
1001
,
0000
0010
0100
0001
,
2000
0000
0000
3000
,
0020
0000
0000
0030
,
0200
0000
0300
0000
0001
0000
1000
0001
,
1000
0000
0010
0000
0100
0000
0001
0100
,
0010
0000
0010
0000
1000
0010
1000
0000
,
0001
0000
0100
0000
0010
0000
1000
0001
,
0001
0000
0000
1001
0000
0000
1000
0000
,
0010
0000
1000
0000
0001
0000
0100
0010
,
1000
0001
0100
0010
,
1000
0001
1000
0000
0010
0100
0010
0000
,
2000
0000
0000
0000
3000
0001
0001
0001
,
0001
0000
0100
0010
,
1000
0010
1000
0000
0001
0100
0001
0000
,
1000
1000
0010
0010
,
0200
0000
0300
0002
0000
0003
1000
0000
,
1000
0000
0010
0000
0100
0000
0001
1000
,
0001
1000
0010
1000
,
0001
0100
0010
0000
1000
0010
0100
0000
,
0001
1001
0010
1010
,
0100
0000
0100
0100
0000
0001
1000
0001
,
0100
0010
1000
0001
,
0100
0100
0000
0020
0000
0000
0030
0000
,
1000
0001
0100
0010
,
1000
0000
0001
1000
0000
0010
0100
0000
,
0002
1000
1000
1000
,
1000
0000
1003
0000
0010
0100
0010
0000
,
1000
0000
0001
0000
1000
0010
0100
0000
,
0001
0000
1000
1000
0000
0000
0010
0000
,
0100
0001
1000
0010
,
0100
0100
0000
0002
0000
0000
0003
0000
,
0000
1000
0010
0100
,
0001
1000
0000
1000
0000
1000
0010
0200
,
0000
0001
0001
0001
,
0001
0000
0301
0000
0010
0010
0010
0000
,
0000
1000
0010
1000
0000
0000
0001
0000
,
0100
0010
1000
1000
,
0000
0001
0100
0001
0000
0000
1000
0000
,
0010
1000
0001
1000
,
0000
0010
0100
0010
0000
0000
1000
0000
,
0001
1000
0010
0100
,
0000
0001
0100
0001
0000
0000
1000
0000
,
0010
0000
1000
0000
0010
1000
0010
0000
,
0100
0000
0001
0010
0000
0100
1000
0100
,
0000
0010
0001
0010
0000
1000
0000
1001
;

//---------------dance-single - ----------------
#NOTES:
     dance-single:
     :
     Easy:
     3:
     0.220368,0.230904,0.059989,0.085699,0.000000,180.000000,173.000000,7.000000,10.000000,0.000000,0.000000,0.220368,0.230904,0.059989,0.085699,0.000000,180.000000,173.000000,7.000000,10.000000,0.000000,0.000000:
0000
0000
0000
0000
,
0000
0000
0000
0000
,
0000
0000
0000
0000
,
0000
0000
0000
0000
,
0010
0010
0010
0010
,
0100
0100
0100
0100
,
0010
0010
0010
0010
,
1000
0001
1000
0001
,
1000
0010
0100
0100
,
0100
0001
1000
0010
,
1000
0001
0100
0100
,
0100
0010
1000
0001
,
1000
0010
0100
0100
,
0100
0001
1000
0010
,
1000
0001
0100
0100
,
0100
0010
1000
0010
,
0100
0000
0000
0000
,
0001
0000
0000
0000
,
1000
0000
0010
0100
,
0010
0000
1000
0001
,
2000
0000
0000
0000
0000
3000
0000
0000
,
0001
0100
0010
1000
,
0001
0000
0000
0002
0000
0003
0100
0000
,
0100
0010
1000
0010
,
2000
0000
0000
3000
0001
0000
0100
0000
,
0001
1000
0010
0100
,
0002
0000
0000
0003
0000
0000
0100
0000
,
0200
0300
0010
0010
,
1000
0000
0000
0020
0000
0030
0000
0000
,
0100
0100
0001
0001
,
1000
0000
0000
2000
0000
3000
0010
0000
,
0010
0100
0001
1000
,
0020
0000
0000
0030
,
0200
0000
0000
0300
,
0001
1000
0010
1000
,
1000
0000
0000
1001
0000
0000
0000
0000
,
0010
0100
0001
1000
,
0001
0000
0000
1001
0000
0000
0000
0000
,
0000
1000
0010
0100
,
0001
0000
1000
0000
1000
0000
0000
0110
,
0000
0000
0000
0110
0000
0000
0000
0000
,
0000
0000
0001
0001
,
1000
0010
1000
0001
,
0100
0001
0000
1001
,
0000
1000
0010
1000
,
0001
0000
0000
0110
0000
0000
0000
0000
,
1000
0010
1000
0001
,
0100
0100
0010
0010
,
0200
0000
0000
0000
,
0000
0300
0001
0001
,
0000
1000
0010
1000
,
0010
1000
0010
0010
,
0000
0100
0001
0100
,
0001
0100
0001
0001
,
0000
1000
0001
0100
,
0010
1000
1000
0000
,
0000
0001
0100
0010
,
1000
0001
0001
0000
,
0000
1000
0010
1000
,
0000
0001
0000
0100
0000
0010
0000
0110
;

//---------------dance-single - Copied from----------------
#NOTES:
     dance-single:
     Copied from:
     Beginner:
     1:
     0.071007,0.102624,0.008570,0.000000,0.000000,58.000000,57.000000,1.000000,0.000000,0.000000,0.000000,0.071007,0.102624,0.008570,0.000000,0.000000,58.000000,57.000000,1.000000,0.000000,0.000000,0.000000:
0000
0000
0000
0000
,
0000
0000
0000
0000
,
0000
0000
0000
0000
,
0000
0000
0000
0000
,
1000
0000
0000
0000
,
0100
0000
0000
0000
,
0010
0000
0000
0000
,
0001
0000
0000
0000
,
0100
0000
0000
0000
,
0100
0000
0000
0000
,
0010
0000
0000
0000
,
0010
0000
0000
0000
,
0100
0000
0000
0000
,
0100
0000
0000
0000
,
0010
0000
0000
0000
,
0010
0000
0000
0000
,
1000
0000
0000
0000
,
0001
0000
0000
0000
,
1000
0000
0000
0000
,
0001
0000
0000
0000
,
0100
0000
0000
0000
,
0010
0000
0000
0000
,
1000
0000
0000
0000
,
0001
0000
0000
0000
,
1000
0000
0000
0000
,
0010
0000
0000
0000
,
0100
0000
0000
0000
,
0001
0000
0000
0000
,
1000
0000
0000
0000
,
0010
0000
0000
0000
,
0100
0000
0000
0000
,
0001
0000
0000
0000
,
1000
0000
0000
0000
,
0010
0000
0000
0000
,
0010
0000
0000
0000
,
0100
0000
0000
0000
,
0100
0000
0000
0000
,
0100
0000
0000
0000
,
0001
0000
0000
0000
,
0001
0000
0000
0000
,
1000
0000
0000
0000
,
0000
0000
0010
0000
,
0100
0000
0000
0000
,
0100
0000
0000
0000
,
0001
0000
0000
0000
,
1000
0000
0000
0000
,
0001
0000
0000
0000
,
1000
0000
0000
0000
,
0010
0000
0000
0000
,
0000
0000
0100
0000
,
0100
0000
0000
0000
,
0000
0000
0001
0000
,
0000
0100
0000
0000
,
0000
0000
0000
0100
0000
0000
0000
0000
,
0001
0000
0000
0000
,
0000
1000
0000
0000
,
0001
0000
0000
1000
,
0000
0000
0000
0000
,
0000
0010
0000
0000
,
0000
0000
0000
0100
0000
0000
0000
0110
;
