#TITLE:桜 Blue Sky;
#SUBTITLE:;
#ARTIST:DJ.Utaemon;
#TITLETRANSLIT:Sakura Blue Sky;
#SUBTITLETRANSLIT:;
#ARTISTTRANSLIT:;
#GENRE:;
#CREDIT:SupremeX;
#BANNER:Sakura Blue Sky-bn.png;
#BACKGROUND:Sakura Blue Sky-bg.png;
#LYRICSPATH:;
#CDTITLE:;
#MUSIC:Sakura Blue Sky.ogg;
#OFFSET:-0.056164;
#SAMPLESTART:43.810001;
#SAMPLELENGTH:12.000000;
#SELECTABLE:YES;
#BPMS:0.000000=180.979996
;
#STOPS:
;
#BGCHANGES:0.000=Sakura Blue Sky.avi=1.000=1=0=0=StretchNoLoop==CrossFade==,
99999=-nosongbg-=1.000=0=0=0 // don't automatically add -songbackground-
;
#KEYSOUNDS:;
#ATTACKS:;

//---------------dance-single - ----------------
#NOTES:
     dance-single:
     :
     Easy:
     4:
     0.309710,0.332028,0.072873,0.063764,0.000000,238.000000,230.000000,8.000000,7.000000,0.000000,0.000000,0.309710,0.332028,0.072873,0.063764,0.000000,238.000000,230.000000,8.000000,7.000000,0.000000,0.000000:
0000
0000
0000
0000
,
0000
0000
0000
0000
,
0000
0000
0000
0000
,
0000
0000
0000
0000
,
0010
0010
0010
0100
,
0001
0100
0001
0100
,
0010
0010
0010
0010
,
2000
0000
0000
0000
0000
3000
0000
0000
,
0000
0000
0000
0000
,
1000
0000
0010
0000
,
0100
0001
1000
0010
,
0100
0000
0001
0000
,
1000
0010
0100
0001
,
1000
0000
1000
0000
,
0010
0100
0001
1000
,
0010
0000
0010
0000
,
0100
0001
1000
0010
,
0100
0000
0100
0000
,
0001
1000
0010
0100
,
0001
0000
0001
0000
,
1000
0010
0100
0001
,
2000
0000
0000
3000
,
0020
0000
0000
0000
0000
0030
0000
0000
,
0100
0000
1001
0000
,
0010
0000
0110
0000
,
0001
0001
1000
1000
,
0010
0010
0100
0100
,
0001
0001
1000
1000
,
0010
0010
0100
0100
,
0001
0001
1000
1000
,
0010
0010
0100
0100
,
0001
0000
1000
0000
,
1001
0000
0100
0000
,
0010
1000
0010
1000
,
0001
0001
0001
0001
,
1000
0010
0100
0001
,
1000
1000
1000
1000
,
0010
0000
0000
0100
0010
0000
0100
0000
,
0100
0001
0001
0001
,
1000
0010
0100
0001
,
1000
1000
1000
1000
,
0010
0000
0100
0001
,
1000
0010
0100
0100
,
0001
0000
1000
0000
,
0010
0100
0001
1000
,
0010
0010
0010
0010
,
0100
0100
0100
0100
,
0001
0000
1001
0000
,
1000
0000
1001
0000
,
0010
0000
0100
0001
,
1000
0010
0100
0100
,
0001
0000
1000
0000
,
0010
0100
0001
1000
,
0010
0010
0010
0010
,
0100
0100
0100
0100
,
0001
0000
1000
0000
,
0010
0100
0001
1000
,
0010
0000
0100
0000
,
0001
1000
0001
1000
,
0010
0000
0100
0000
,
0010
0100
0010
0100
,
0001
0000
1000
0000
,
0010
0100
0001
1000
,
0010
0000
1000
0000
,
0001
0001
0100
0100
,
0010
0000
1000
0000
,
0001
0100
0010
1000
,
0001
0000
1000
0000
,
0010
0100
0001
1000
,
0010
0000
0100
0000
,
0001
0010
0100
1000
,
0010
0000
0100
0000
,
0001
1000
0010
0100
,
0002
0000
0000
0003
,
2000
0000
0000
3000
,
0020
0000
0000
0030
,
0200
0000
0000
0300
,
0001
0000
1000
0000
,
0001
1000
0010
0100
,
0001
0000
1000
0000
,
1001
0000
0110
0000
,
1001
0000
0000
0000
;

//---------------dance-single - ----------------
#NOTES:
     dance-single:
     :
     Medium:
     5:
     0.408609,0.484036,0.154855,0.182183,0.000000,314.000000,297.000000,17.000000,20.000000,0.000000,0.000000,0.408609,0.484036,0.154855,0.182183,0.000000,314.000000,297.000000,17.000000,20.000000,0.000000,0.000000:
0000
0000
0000
0000
,
0000
0000
0000
0000
,
0000
0000
0000
0000
,
0000
0000
0000
0000
,
1000
0010
1000
0001
,
0100
0010
1000
0001
,
0200
0000
0320
0000
,
2030
0000
0000
0000
0000
0000
0000
3000
,
0000
0000
0000
0000
,
1001
0010
0100
0010
,
1000
0001
0100
0010
,
1010
0001
0100
0010
,
1000
0010
0100
0001
,
0101
0010
1000
0010
,
0100
0001
1000
0010
,
0110
0001
0010
0100
,
1000
0010
0100
0001
,
1001
0010
0100
1000
,
0010
0100
0001
1000
,
1001
0010
0100
0010
,
1000
0010
0100
0001
,
1010
0001
0100
0010
,
0101
0010
1000
0010
,
1010
0000
0101
0000
,
1001
0000
0110
0000
,
1000
1000
0010
0010
,
0100
0000
0100
0000
0001
1000
0001
0000
,
0100
0100
0010
0010
,
1000
0000
1000
0000
0001
0100
0001
0000
,
1000
0010
0100
0001
,
1000
0000
0010
0000
0100
0010
0100
0000
,
0002
1000
1000
1003
,
2000
0010
0010
3010
,
0100
0000
0001
0000
1000
0000
0010
0100
,
0010
0100
0010
0100
,
0001
0000
1000
0000
0010
1000
0010
0000
,
0100
0001
0100
0000
0010
0000
1000
0000
,
0002
0100
0100
0103
,
0010
1000
0010
0100
,
0010
1000
0010
0100
,
0001
0010
0100
1000
,
0010
0100
0010
0100
,
0001
0100
0010
1000
,
0010
0000
1000
0000
0010
0100
0010
0100
,
0010
0100
0001
1000
,
0010
0100
0010
0100
0010
0000
1000
0000
,
0001
0100
0010
1000
,
0001
0000
0000
1000
0001
0000
1000
0000
,
0002
0000
1003
0000
,
1000
0010
0100
0010
,
2000
0010
0010
3010
,
0001
0100
0010
1000
,
0010
0100
0001
1000
,
0010
0100
0001
1000
,
1001
0010
0110
1000
,
0001
0000
0100
0010
0100
0000
0001
0000
,
1000
0001
0100
0100
,
0010
0000
1000
0000
0001
1000
0001
1000
,
0002
0100
0100
0103
,
0010
1000
0010
0100
,
0010
1000
0001
0100
,
0010
0000
0000
1000
0010
0000
1000
0000
,
0001
0100
0110
0110
,
0001
0000
0000
1000
0010
0000
1000
0000
,
0002
0000
0103
0000
,
1000
0010
0100
0001
,
1000
1000
0010
0010
,
0100
0001
1000
0010
,
0100
0100
0001
0001
,
1000
0010
0100
0001
,
1000
1000
0010
0010
,
0100
0001
1000
0010
,
1000
1000
0001
0001
,
0200
0000
0320
0000
,
2030
0000
3002
0000
,
0203
0000
0320
0000
,
2030
0000
3002
0000
,
0103
0000
0000
0010
1000
0000
0010
0000
,
0100
0001
1000
0010
,
0100
0000
0000
0001
1000
0000
0010
0000
,
0100
0001
1000
0001
,
2002
0000
0000
3003
;

//---------------dance-single - ----------------
#NOTES:
     dance-single:
     :
     Hard:
     8:
     0.628530,0.632003,0.819821,0.218619,0.000000,483.000000,393.000000,90.000000,24.000000,0.000000,0.000000,0.628530,0.632003,0.819821,0.218619,0.000000,483.000000,393.000000,90.000000,24.000000,0.000000,0.000000:
0000
0000
0000
0000
,
0000
0000
0000
0000
,
0000
0000
0000
0000
,
0000
0000
0000
0000
,
1000
0000
0000
0001
0100
0000
0010
0000
,
0101
1010
0101
1010
,
0100
0000
0010
0100
0010
0000
1000
0000
,
0200
1000
1000
1000
,
2300
0001
0001
3001
,
0010
0100
0010
0000
1000
0001
0100
0000
,
0001
0101
1000
1010
,
0001
0010
0100
0000
1000
0100
0010
0000
,
0011
0011
1100
1100
,
0010
0001
0010
0000
0100
1000
0100
0000
,
0011
0011
1100
1100
,
0001
1000
0010
0000
1000
0001
0100
0000
,
1010
1010
0101
0101
,
0010
1000
0001
0000
0110
0000
1100
0000
,
0010
0001
0100
0000
1100
0000
0110
0000
,
0001
0010
0100
0000
1100
0000
0110
0000
,
0001
0100
0010
0000
0101
0000
1010
0000
,
0100
0001
0100
0000
1001
0000
1001
0000
,
0100
1000
0100
0000
0110
0000
0110
0000
,
0001
0010
0001
0010
0100
1000
0100
1000
,
0010
0100
1001
1001
,
0010
0000
0100
0010
0100
0000
0001
0100
,
0001
0000
1000
0010
1000
0000
0110
0000
,
0001
0010
0100
0000
1000
0100
0010
0000
,
0001
0100
0001
0000
0110
0000
0110
0000
,
1000
0100
0010
0000
0001
0010
0100
0000
,
1000
0001
1000
0000
0110
0000
0110
0000
,
0001
0010
0100
1000
0010
0000
0110
0000
,
0220
0000
0000
0000
0000
0330
0000
0000
,
0001
0010
0100
0010
0001
0010
0100
0020
,
0100
0100
0100
0130
,
0010
0100
0001
1000
0001
0100
0010
2000
,
0010
0010
0010
3010
,
0100
0001
0100
0001
0100
0000
1010
0000
,
0101
1010
0101
1010
,
0001
0100
0001
0100
0001
0000
0010
0000
,
0100
1000
0100
1000
0100
0000
1100
0000
,
0010
0001
0010
0100
1000
0100
0010
0200
,
0010
0010
0010
0310
,
0100
0001
1000
0001
1000
0001
1000
0020
,
0100
0100
0100
0130
,
0001
0100
0001
0100
0001
0000
1000
0000
,
0110
0001
1100
1100
,
0010
0001
0010
0100
1000
0000
1100
0000
,
0022
0000
0000
0000
0000
0033
0000
0000
,
0100
1000
0100
0010
0100
1000
0100
2000
,
0100
0100
0100
3100
,
0010
0001
0010
0100
0010
0001
0010
0100
,
0020
0100
0100
0130
,
0001
0100
0010
1000
0001
0000
1100
0000
,
0110
0011
1100
1100
,
0001
0010
0100
1000
0100
0000
0110
0000
,
0001
0010
0100
0000
1100
0000
0110
0000
,
0010
0001
0010
0100
0010
0001
1000
0010
,
0200
0010
0010
0310
,
0100
0001
1000
0100
0010
0100
1000
0000
,
1100
0110
0011
0100
,
1000
0100
1000
0100
1000
0000
0100
0000
,
0010
0011
0110
1100
,
0010
0001
0010
0100
1000
0000
0120
0000
,
0100
0100
0100
0130
,
1010
0101
0101
1010
,
0001
0100
0010
0000
1000
0010
0100
0000
,
0101
1010
1010
0101
,
1000
0100
0010
0000
0001
0010
0100
0000
,
1100
0110
0110
0011
,
1000
0001
0100
0000
0001
1000
0010
0000
,
0110
1001
1001
0110
,
1000
0100
0010
0000
0001
0010
0100
0000
,
2000
0100
0100
3100
,
0002
0010
0010
0013
,
0200
1000
1000
1300
,
0020
0100
0100
0130
,
0001
1000
0001
1000
0100
0000
0110
0000
,
1001
0110
1001
0110
,
0001
0010
0100
1000
0100
0000
0011
0000
,
2200
3300
0022
0033
,
2002
0000
0000
0000
0000
3003
0000
0000
;

//---------------dance-single - Copied from----------------
#NOTES:
     dance-single:
     Copied from:
     Beginner:
     2:
     0.093694,0.110676,0.000000,0.036437,0.000000,72.000000,72.000000,0.000000,4.000000,0.000000,0.000000,0.093694,0.110676,0.000000,0.036437,0.000000,72.000000,72.000000,0.000000,4.000000,0.000000,0.000000:
0000
0000
0000
0000
,
0000
0000
0000
0000
,
0000
0000
0000
0000
,
0000
0000
0000
0000
,
0010
0000
0000
0000
,
0010
0000
0000
0000
,
1000
0000
0000
0000
,
1000
0000
0000
0000
,
0002
0000
0000
0000
0000
0003
0000
0000
,
0100
0000
0000
0000
,
0010
0000
0000
0000
,
0100
0000
0000
0000
,
0010
0000
0000
0000
,
1000
0000
0000
0000
,
0001
0000
0000
0000
,
1000
0000
0000
0000
,
0001
0000
0000
0000
,
1000
0000
0000
0000
,
0010
0000
0000
0000
,
1000
0000
0000
0000
,
0010
0000
0000
0000
,
0100
0000
0000
0000
,
0100
0000
0000
0000
,
0100
0000
0000
0000
,
0100
0000
0000
0000
,
0001
0000
0000
0000
,
0000
0000
0000
0000
,
0001
0000
0000
0000
,
0000
0000
0000
0000
,
1000
0000
0000
0000
,
0000
0000
0000
0000
,
2000
0000
0000
0000
,
0000
0000
0000
0000
0000
3000
0000
0000
,
0010
0000
0000
0000
,
0010
0000
0000
0000
,
0100
0000
0000
0000
,
0100
0000
0000
0000
,
0001
0000
0000
0000
,
0001
0000
0000
0000
,
1000
0000
0000
0000
,
1000
0000
0000
0000
,
0010
0000
0000
0000
,
0010
0000
0000
0000
,
0100
0000
0000
0000
,
0100
0000
0000
0000
,
0001
0000
0000
0000
,
0001
0000
0000
0000
,
1000
0000
0000
0000
,
1000
0000
0000
0000
,
0010
0000
0000
0000
,
0100
0000
0000
0000
,
0010
0000
0000
0000
,
0100
0000
0000
0000
,
0010
0000
0000
0000
,
0100
0000
0000
0000
,
0010
0000
0000
0000
,
0100
0000
0000
0000
,
0001
0000
0000
0000
,
1000
0000
0000
0000
,
0001
0000
0000
0000
,
1000
0000
0000
0000
,
0001
0000
0000
0000
,
1000
0000
0000
0000
,
0001
0000
0000
0000
,
1000
0000
0000
0000
,
0010
0000
0000
0000
,
0100
0000
0000
0000
,
0001
0000
0000
0000
,
0100
0000
0000
0000
,
0010
0000
0000
0000
,
1000
0000
0000
0000
,
0010
0000
0000
0000
,
1000
0000
0000
0000
,
0200
0000
0000
0000
,
0000
0000
0000
0000
0000
0300
0000
0000
,
0020
0000
0000
0000
,
0000
0000
0000
0030
,
0001
0000
0000
0000
,
1000
0000
0000
0000
,
0001
0000
0000
0000
,
1000
0000
0000
0000
,
0010
0000
0000
0000
;
