#TITLE:SW!TCH;
#SUBTITLE:;
#ARTIST:千π€ & MesoPhunk;
#TITLETRANSLIT:;
#SUBTITLETRANSLIT:;
#ARTISTTRANSLIT:Thousand Pi;
#CREDIT:SupremeX;
#BANNER:Switch-bn.png;
#BACKGROUND:Switch-bg.png;
#LYRICSPATH:;
#CDTITLE:;
#MUSIC:SW!TCH.ogg;
#OFFSET:-0.518;
#SAMPLESTART:12.840;
#SAMPLELENGTH:12.000;
#SELECTABLE:YES;
#BPMS:0.000=174.950;
#STOPS:;
#BGCHANGES:;

//---------------dance-single - ----------------
#NOTES:
     dance-single:
     :
     Hard:
     9:
     0.615,0.608,0.190,0.103,0.127: // measure 1
0000
0000
0000
0000
,  // measure 2
0000
0000
0000
0000
,  // measure 3
0000
0000
0000
0000
,  // measure 4
0000
0000
0000
0000
,  // measure 5
1000
0100
0010
0001
,  // measure 6
1000
0100
1000
0100
0010
0000
0001
1000
,  // measure 7
0001
1000
0001
1000
0000
0010
0100
0001
,  // measure 8
1000
0010
0100
0010
0000
1000
0100
0010
,  // measure 9
0001
0000
0011
0000
0100
1000
0100
0000
,  // measure 10
0010
0001
0010
0100
0100
0000
0000
1000
,  // measure 11
0100
0010
0001
1000
1000
0000
0000
0010
,  // measure 12
0100
0010
1000
0001
0001
0000
0000
0100
,  // measure 13
0010
1000
0001
1000
1000
0000
0000
0000
,  // measure 14
0001
1000
0010
0100
0100
0000
0000
0001
,  // measure 15
0010
0100
1000
0010
0010
0000
0000
1000
,  // measure 16
0100
0010
0001
1000
1000
0000
0000
0100
,  // measure 17
1000
0100
0010
0001
0001
0000
0000
0000
,  // measure 18
0100
1000
0100
0010
0001
1000
0010
0100
,  // measure 19
0001
0100
0010
1000
0010
0000
0000
1000
,  // measure 20
0100
0010
0001
1000
0100
1000
0001
0010
,  // measure 21
0100
1000
0001
0100
0100
0000
0000
0000
,  // measure 22
0010
1000
0010
1000
0001
0100
0001
0100
,  // measure 23
0010
1000
0001
1000
0010
0000
0000
1000
,  // measure 24
0010
0100
0001
0100
0010
1000
0001
0000
,  // measure 25
1001
1010
0101
1001
,  // measure 26
0000
0000
0010
0000
0000
0010
0000
0000
1000
0000
0000
1000
0000
0000
0001
0000
,  // measure 27
0000
0000
0100
0000
0000
0100
0000
0000
0001
0000
0000
0001
0000
0000
1000
0000
,  // measure 28
0000
0000
0010
0000
0000
0010
0000
0000
0100
0000
0000
0100
0000
0000
0001
0000
,  // measure 29
0000
0000
1000
0000
0000
1000
0000
0000
0010
0000
0000
0010
0000
0000
0100
0000
,  // measure 30
0000
0000
0001
0000
0000
0101
0000
0000
1000
0000
0000
1010
0000
0000
0010
0000
,  // measure 31
0000
0000
0100
0000
0000
0101
0000
0000
0001
0000
0000
1001
0000
0000
1000
0000
,  // measure 32
0000
0000
0010
0000
0000
0110
0000
0000
1000
0000
0000
0011
0000
0000
1000
0000
,  // measure 33
0000
0000
0100
0000
0000
0110
0000
0000
0010
0000
0000
1001
0000
0000
1000
0000
,  // measure 34
0002
0000
0000
0000
0000
0100
0000
0000
0100
0000
0000
0100
0000
0000
0103
0000
,  // measure 35
0000
0000
0020
0000
0000
1000
0000
0000
1000
0000
0000
1000
0000
0000
1030
0000
,  // measure 36
0000
0000
0200
0000
0000
1000
0000
0000
1000
0000
0000
1000
0000
0000
1300
0000
,  // measure 37
0000
0000
2000
0000
0000
0001
0000
0000
0001
0000
0000
0001
0000
0000
0001
3000
,  // measure 38
0000
0000
0020
0000
0000
0100
0000
0000
0100
0000
0000
0100
0000
0000
0130
0000
,  // measure 39
0000
0000
0200
0000
0000
0000
0001
0000
0000
0001
0000
0000
0001
0000
0000
0301
,  // measure 40
0000
0000
0002
0000
0000
1000
0000
0000
1000
0000
0000
1000
0000
0000
1000
0003
,  // measure 41
0000
0000
2000
0000
0000
0100
0000
0000
0100
0000
0000
0100
0000
0000
3100
0000
,  // measure 42
1000
0100
0010
0001
0001
0000
0000
0010
,  // measure 43
0100
1000
0001
0100
0100
0000
0000
0001
,  // measure 44
1000
0010
0100
0010
1000
0000
0001
1000
,  // measure 45
0001
0100
0010
0100
0001
0000
0000
1000
,  // measure 46
0100
0010
0001
1000
1000
0000
0000
0001
,  // measure 47
1000
0010
0100
0010
1000
0000
0000
0001
,  // measure 48
1000
0010
0100
0010
1000
0000
0000
0102
,  // measure 49
0000
0000
0103
0000
,  // measure 50
0010
1000
0100
0010
0001
0100
0010
0000
,  // measure 51
1000
0001
0100
0001
1000
0100
0010
0000
,  // measure 52
0001
1000
0001
0100
0010
1000
0010
0000
,  // measure 53
0100
0001
1000
0100
1000
0100
0010
0000
,  // measure 54
0001
0010
0100
1000
0010
0100
0010
0000
,  // measure 55
1000
0100
0010
0001
1000
0010
1000
0000
,  // measure 56
0100
0010
0001
0010
0100
1000
0100
0000
,  // measure 57
0010
0001
0010
0001
0100
0001
0100
0000
,  // measure 58
0010
1000
0001
0100
0001
1000
0010
0000
,  // measure 59
1000
0001
0100
0010
1000
0001
1000
0000
,  // measure 60
0100
0010
0001
1000
0100
1000
0100
0000
,  // measure 61
0010
0001
0010
0100
1000
0100
0010
0000
,  // measure 62
0001
1000
0010
0100
0010
1000
0001
0000
,  // measure 63
1000
0001
0100
0010
0100
0001
1000
0000
,  // measure 64
0010
0100
0001
0100
0010
1000
0010
0000
,  // measure 65
1000
0100
0010
0001
1000
0100
1000
0000
,  // measure 66
0001
1000
0001
0100
0100
0000
0000
0001
,  // measure 67
0010
0100
1000
0010
0010
0000
0000
1000
,  // measure 68
0001
1000
0001
0100
0100
0000
0000
0001
,  // measure 69
1000
0100
1000
0001
0001
0000
0000
0010
,  // measure 70
0100
1000
0001
1000
1000
0000
0000
0100
,  // measure 71
0010
0001
0010
0001
0001
0000
0000
0100
,  // measure 72
1000
0001
1000
0010
0010
0000
0000
0100
,  // measure 73
0001
1000
0010
0100
0100
0000
0000
0000
,  // measure 74
0101
0000
1010
0000
1001
0000
0000
0100
,  // measure 75
0010
1000
0001
1000
0010
0000
0000
1000
,  // measure 76
0001
0100
0010
1000
0001
0000
0000
0100
,  // measure 77
0010
0100
0001
0001
0001
0000
0000
1000
,  // measure 78
0001
0010
0100
0100
0100
0000
0000
1000
,  // measure 79
0001
1000
0010
0010
0010
0000
0000
0001
,  // measure 80
0010
0100
1000
1000
1000
0000
0000
0001
,  // measure 81
1000
0100
0010
0010
0010
0001
1000
0001
,  // measure 82
0100
1010
1000
0110
,  // measure 83
0100
0011
1000
1001
,  // measure 84
0010
1010
0100
0101
,  // measure 85
1000
0010
0100
0001
,  // measure 86
1000
0100
0010
0001
1000
0100
1000
0001
,  // measure 87
1000
0100
1000
0001
0100
0010
0100
0001
,  // measure 88
1000
0001
0100
0001
1000
0001
0100
0001
,  // measure 89
2000
0000
3020
0000
0130
0001
1000
0010
,  // measure 90
2002
0000
0000
0000
,  // measure 91
0000
3003
0000
0000
;

//---------------dance-single - ----------------
#NOTES:
     dance-single:
     :
     Medium:
     7:
     0.480,0.498,0.357,0.111,0.032:
0000
0000
0000
0000
,
0000
0000
0000
0000
,
0000
0000
0000
0000
,
0000
0000
0000
0000
,
0001
0010
0100
1000
,
0010
1000
0001
1000
,
0100
0010
0001
1000
,
0100
1000
0001
0100
,
0001
1000
0010
1000
,
0100
0000
0010
0001
0010
0000
0100
0000
,
1000
0000
0001
0100
0001
0000
1000
0000
,
0001
0000
1000
0100
1000
0000
0001
0000
,
0010
0000
0100
1000
0100
0000
0010
0000
,
0001
0000
1000
0010
1000
0000
0001
0000
,
0100
0000
0010
0100
0010
0000
1000
0000
,
0001
0000
0010
0001
0010
0000
0001
0000
,
1000
0000
0100
1000
0100
0000
0000
0000
,
0010
0001
0010
0100
1000
0000
0000
1000
,
0100
1000
0001
1000
0100
0000
0000
0001
,
0100
0001
1000
0001
0100
0000
0000
0001
,
0010
0100
1000
0010
1000
0000
0000
0000
,
0100
0010
0001
0010
0100
0000
0000
0000
,
1000
0001
0010
0100
1000
0000
0000
0000
,
0001
1000
0010
0100
0100
0000
0000
0000
,
0001
1000
0100
0010
0010
0000
0001
0000
,
2000
0000
0000
0000
0000
0000
0000
3000
,
0000
0020
0000
0000
0000
0000
0000
0030
,
0000
0200
0000
0000
0000
0000
0000
0300
,
0000
0002
0000
0000
0000
0000
0000
0003
,
0000
0000
1000
0000
0000
0100
0000
0000
0010
0000
0000
0001
0000
0000
1000
0000
,
0000
0000
0010
0000
0000
0100
0000
0000
0001
0000
0000
1000
0000
0000
0010
0000
,
0000
0000
1000
0000
0000
0100
0000
0000
0010
0000
0000
0001
0000
0000
1000
0000
,
0000
0000
1000
0000
0000
0100
0000
0000
0010
0000
0000
0001
0000
0000
0001
0000
,
2000
0000
0000
3000
,
0020
0000
0000
0030
,
0200
0000
0000
0000
0000
0000
0000
0300
,
0002
0000
0000
0003
,
2000
0000
0000
0000
0000
0000
0000
3000
,
0020
0000
0000
0030
,
0200
0000
0000
0300
,
0002
0000
0000
0003
,
1000
0000
1000
0000
0010
0000
0000
0100
,
0001
0100
0001
0100
0001
0000
0000
0000
,
1000
0100
1000
0100
1000
0000
0000
0001
,
0010
0100
1000
0100
0100
0000
0000
0000
,
0010
0001
0010
0100
1000
0000
0000
0010
,
0100
0010
0100
0010
0100
0000
0000
0000
,
0001
1000
0010
1000
0001
0000
0000
0100
,
0010
0100
0000
0010
0000
0000
1000
0000
,
0100
1000
0001
0100
,
0010
1000
0010
0100
0001
0100
0010
0000
,
1000
0000
1010
0000
0100
0001
0100
0000
,
0010
0000
0110
0000
1000
0001
1000
0000
,
0001
0010
0100
0000
1000
0010
1000
0010
,
0000
0100
0001
1000
0001
0100
0010
0100
,
0000
0001
1000
0000
0010
0000
0101
0000
,
0010
1000
0001
0100
0010
0100
0001
0000
,
1001
0000
0010
0000
0100
0010
0100
0000
,
0001
0000
1100
0000
0010
0001
0010
0000
,
0100
0000
1010
0000
0100
0001
0100
0000
,
0010
1000
0001
0000
1000
0100
0010
0000
,
0001
1000
0001
0100
0010
0100
0001
0000
,
1000
0000
1001
0000
0010
0100
0010
0000
,
0100
0000
0001
0000
1000
0010
1000
0000
,
0001
0100
0001
0000
1000
0100
0010
0000
,
0100
1010
0101
0000
,
0010
0101
1010
0000
,
0100
1100
0011
0000
,
1001
0110
1001
0000
,
0011
1100
0011
0000
,
1001
0110
1001
0000
,
1010
0101
1010
0000
,
0001
0010
0100
1000
0010
0000
0000
0000
,
1100
0110
0011
0000
,
1001
1010
0101
0000
,
1001
0101
1010
0000
,
1001
0110
1001
0000
,
1000
0100
1000
0100
0010
0000
0000
0010
,
0001
0010
0100
1000
0000
0000
0000
0010
,
0100
0001
0100
0010
0000
0000
0000
0000
,
1000
0010
0100
0010
1000
0000
0000
0000
,
0110
1001
0010
1010
,
0100
0101
1000
1001
,
0100
0010
1000
0001
,
0010
0100
1000
0001
,
0100
0010
0100
0001
1000
0001
0100
0010
,
0100
0001
1000
0001
0010
0100
1000
0000
,
0001
1000
0010
0100
,
1010
0000
0101
0000
1000
0010
0100
0000
,
2002
0000
0000
3003
;

//---------------dance-single - ----------------
#NOTES:
     dance-single:
     :
     Easy:
     3:
     0.367,0.498,0.309,0.103,0.000:
0000
0000
0000
0000
,
0000
0000
0000
0000
,
0000
0000
0000
0000
,
0000
0000
0000
0000
,
0000
0000
1000
0010
,
1000
0001
0100
0010
,
1000
0010
0100
0001
,
1000
0010
1000
0001
,
0200
0000
0000
0300
,
0010
0010
0010
0000
,
1000
1000
1000
0000
,
0001
0001
0001
0000
,
1000
0001
1000
0000
,
0010
0010
0010
0000
,
0100
0100
0100
0000
,
0001
0001
0001
0000
,
1000
0010
1000
0000
,
0001
0100
0010
1000
,
0001
0001
0001
0000
,
1000
0010
0100
0001
,
1000
1000
1000
0000
,
0010
0100
0010
1000
,
0001
1000
1000
0000
,
0010
0100
0100
0000
,
0001
1000
0010
0100
,
0002
0000
0000
0003
,
2000
0000
0000
0000
0000
0000
0000
3000
,
0000
0020
0000
0000
0000
0000
0000
0030
,
0000
0200
0000
0000
0000
0000
0000
0300
,
0000
0002
0000
0000
0000
0000
0000
0003
,
0000
2000
0000
0000
0000
0000
0000
3000
,
0000
0020
0000
0000
0000
0000
0000
0030
,
0000
0200
0000
0000
0000
0000
0300
0000
,
0001
1000
0001
1000
,
0001
1000
0010
0100
,
0010
0100
0010
0100
,
0001
1000
0001
1000
,
1000
1000
1000
1000
,
0010
0010
0010
0010
,
0100
0100
0100
0100
,
0001
1000
0001
1000
,
1010
0001
0101
0000
,
1000
1000
1010
0000
,
0001
0100
0110
0000
,
1000
0001
1001
0000
,
1000
0010
0110
0000
,
0001
1000
0011
0000
,
1000
0001
1100
0000
,
0010
0100
0010
0000
,
1000
0010
0100
0100
,
0001
1000
0010
0010
,
1000
0001
0100
0100
,
0010
1000
0001
1000
,
0001
0100
0010
0010
,
1000
0001
0100
0100
,
0010
1000
0001
0001
,
1000
0010
1000
1000
,
0001
0100
0010
1000
,
0010
0100
0001
0100
,
0010
1000
0010
0100
,
0001
1000
0010
0100
,
1001
0010
0100
0010
,
1010
0001
0100
0010
,
0101
0010
1000
0010
,
1010
0100
0101
0000
,
1000
1000
1000
0000
,
0010
0010
0010
0000
,
0100
0100
0100
0000
,
0001
0001
0001
0000
,
1010
1010
1010
0000
,
0101
0101
0101
0000
,
1010
1010
1010
0000
,
0101
0101
0101
0000
,
1000
0010
0100
0000
,
0001
1000
0010
0000
,
1000
0001
0100
0000
,
0010
1000
0001
0000
,
1100
1100
1100
0000
,
0011
0011
0011
0000
,
1100
1100
1100
0000
,
0011
0011
0011
0000
,
1000
0010
0100
0010
,
1000
0001
0100
0010
,
0100
0001
1000
0010
,
0100
0010
1000
0001
,
1000
1000
1000
1000
,
0010
0010
0010
0010
,
0100
0001
1000
0010
,
0220
0000
0000
0330
,
2002
0000
0000
0000
0000
0000
0000
3003
;

//---------------dance-single - Copied from----------------
#NOTES:
     dance-single:
     Copied from:
     Beginner:
     1:
     0.089,0.141,0.008,0.040,0.000:
0000
0000
0000
0000
,
0000
0000
0000
0000
,
0000
0000
0000
0000
,
0000
0000
0000
0000
,
0000
0000
0000
0000
,
0010
0000
0000
0000
,
0010
0000
0000
0000
,
0010
0000
0000
0000
,
0020
0000
0000
0030
,
0100
0000
0000
0000
,
0100
0000
0000
0000
,
0100
0000
0000
0000
,
0100
0000
0000
0000
,
0001
0000
0000
0000
,
0001
0000
0000
0000
,
0001
0000
0000
0000
,
0001
0000
0000
0000
,
1000
0000
0000
0000
,
1000
0000
0000
0000
,
1000
0000
0000
0000
,
1000
0000
0000
0000
,
0010
0000
0000
0000
,
0010
0000
0000
0000
,
0010
0000
0000
0000
,
0010
0000
0000
0000
,
0200
0000
0000
0000
,
0000
0000
0000
0000
,
0000
0000
0000
0000
,
0000
0000
0000
0000
0000
0000
0000
0300
,
0002
0000
0000
0000
,
0000
0000
0000
0000
,
0000
0000
0000
0000
,
0000
0000
0000
0003
,
2000
0000
0000
0000
,
0000
0000
0000
0000
,
0000
0000
0000
0000
,
0000
0000
0000
3000
,
0020
0000
0000
0000
,
0000
0000
0000
0000
,
0000
0000
0000
0000
,
0030
0000
0000
0000
,
0100
0000
0000
0000
,
0100
0000
0000
0000
,
0100
0000
0000
0000
,
0100
0000
0000
0000
,
0001
0000
0000
0000
,
0001
0000
0000
0000
,
0001
0000
0000
0000
,
0001
0000
0000
0000
,
1000
0000
0000
0000
,
0010
0000
0000
0000
,
1000
0000
0000
0000
,
0010
0000
0000
0000
,
0100
0000
0000
0000
,
0001
0000
0000
0000
,
0100
0000
0000
0000
,
0001
0000
0000
0000
,
1000
0000
0000
0000
,
0010
0000
0000
0000
,
1000
0000
0000
0000
,
0010
0000
0000
0000
,
0100
0000
0000
0000
,
0001
0000
0000
0000
,
0100
0000
0000
0000
,
0001
0000
0000
0000
,
1000
0000
0000
0000
,
1000
0000
0000
0000
,
1000
0000
0000
0000
,
1000
0000
0000
0000
,
0001
0000
0000
0000
,
0001
0000
0000
0000
,
0001
0000
0000
0000
,
0001
0000
0000
0000
,
0100
0000
0000
0000
,
0100
0000
0000
0000
,
0100
0000
0000
0000
,
0100
0000
0000
0000
,
0010
0000
0000
0000
,
0010
0000
0000
0000
,
0010
0000
0000
0000
,
0010
0000
0000
0000
,
1000
0000
0000
0000
,
0001
0000
0000
0000
,
1000
0000
0000
0000
,
0001
0000
0000
0000
,
0100
0000
0000
0000
,
0010
0000
0000
0000
,
0100
0000
0000
0000
,
0010
0000
0000
0000
,
1001
0000
0000
0000
;
