#TITLE:SAtAN;
#SUBTITLE:;
#ARTIST:P*Light;
#TITLETRANSLIT:;
#SUBTITLETRANSLIT:;
#ARTISTTRANSLIT:P Light;
#CREDIT:SupremeX;
#BANNER:SAtAN-bn.png;
#BACKGROUND:SAtAN-bg.png;
#LYRICSPATH:;
#CDTITLE:;
#MUSIC:SAtAN.ogg;
#OFFSET:-0.600;
#SAMPLESTART:13.400;
#SAMPLELENGTH:12.000;
#SELECTABLE:YES;
#BPMS:0.000=150.000,32.000=300.000,62.000=600.000,66.000=300.000,187.000=600.000,191.000=300.000,223.000=75.000,239.000=150.000,271.000=300.000,301.000=600.001,305.000=300.000,365.500=600.001,369.500=300.000,382.000=600.000,385.000=300.000,385.500=600.000,388.500=300.000,404.500=75.000;
#STOPS:128.000=0.300
,156.500=0.700
,335.000=0.300
;
#BGCHANGES:0.000=SAtAN.avi=1.000=1=1=0,
99999=-nosongbg-=1.000=0=0=0 // don't automatically add -songbackground-
;

//---------------dance-single - ----------------
#NOTES:
     dance-single:
     :
     Hard:
     11:
     1.000,1.000,0.293,0.426,0.397: // measure 1
0000
0000
0000
0000
,  // measure 2
0000
0000
0000
0000
,  // measure 3
0000
0000
0000
0000
,  // measure 4
0000
0000
0000
0000
,  // measure 5
1000
0100
1000
0110
0010
0001
0010
0011
,  // measure 6
0100
0000
1000
0000
0100
0000
1100
0000
0010
0001
0010
0100
1000
0100
0010
0000
,  // measure 7
0001
0100
0001
0100
0010
1000
0010
1000
0100
0010
0001
1000
0100
1000
0100
0010
,  // measure 8
2002
0000
0000
0000
0000
0000
0000
3003
,  // measure 9
1000
0100
2000
0000
3100
0000
0110
0000
,  // measure 10
0010
0001
0020
0000
0130
0000
1100
0000
,  // measure 11
1000
0001
0200
0000
0310
0000
1001
0100
,  // measure 12
0010
0100
0001
1000
0001
1000
0010
0000
,  // measure 13
0100
0001
0100
0010
2000
0000
3010
0000
,  // measure 14
0100
0010
0001
0010
0200
0000
1300
0000
,  // measure 15
0001
0100
0000
0100
0001
0000
1000
0010
,  // measure 16
0000
0100
0001
0000
0220
0000
0000
0000
,  // measure 17
0330
0000
0000
0000
1000
0100
2000
0000
,  // measure 18
3000
0000
1001
0000
0100
0010
0100
0000
,  // measure 19
0002
0000
0103
0000
0001
0010
0200
0000
,  // measure 20
1300
0000
1010
0100
0001
1000
0010
0100
,  // measure 21
0001
1000
0001
0100
0000
0001
0010
0100
,  // measure 22
2000
0000
3100
0000
0000
1000
0100
0010
,  // measure 23
0002
0000
0013
0000
0100
1000
0000
1000
,  // measure 24
0100
0000
0100
0010
0001
0010
0000
0000
,  // measure 25
2200
0000
3300
0000
0010
0001
0010
0100
,  // measure 26
1000
0100
0010
0100
1000
0100
0010
0100
,  // measure 27
1000
0001
0010
0001
0010
0100
1000
0100
,  // measure 28
0010
0001
0010
0100
1000
0100
1000
0001
,  // measure 29
1000
0100
1000
0001
0100
0001
0010
0100
,  // measure 30
1000
0001
0100
0001
1000
0010
0100
0001
,  // measure 31
0100
0010
1000
0001
0100
0010
1000
0001
,  // measure 32
0100
0001
1000
0010
1000
0100
0010
0001
,  // measure 33
1000
0001
0100
0010
1000
0010
0100
0001
,  // measure 34
1000
0001
0100
0010
0100
0010
1000
0010
,  // measure 35
1000
0001
0010
0100
1000
0010
0100
0010
,  // measure 36
1000
0001
0100
0010
0100
0001
1000
0100
,  // measure 37
0010
0001
1000
0100
1000
0100
0010
0001
,  // measure 38
0010
0100
1000
0100
0010
0001
0010
0100
,  // measure 39
0010
0001
0010
0100
0010
0100
1000
0100
,  // measure 40
0010
0001
1000
0100
1000
0100
2000
0000
,  // measure 41
3001
0000
0010
0100
0010
0100
0020
0000
,  // measure 42
1030
0000
1000
0100
1000
0100
2000
0000
,  // measure 43
3001
0000
0010
0100
0001
0100
0010
1000
,  // measure 44
0010
0000
1000
0100
0010
0001
0020
0000
,  // measure 45
0031
0000
0001
0010
0100
1000
0200
0000
,  // measure 46
1300
0000
0001
0100
0000
0010
1000
0000
,  // measure 47
0010
0100
0000
0001
1000
0000
0220
0000
,  // measure 48
0000
0000
0000
0000
0330
0000
1000
0010
,  // measure 49
0100
0010
0200
0000
0301
0000
0001
1000
,  // measure 50
0001
0100
0020
0000
0130
0000
0001
1000
,  // measure 51
0010
0100
0020
0000
0130
0010
0100
0001
,  // measure 52
1000
0010
0100
0001
2000
0000
3001
1000
,  // measure 53
0001
0010
0020
0000
0130
0000
0100
1000
,  // measure 54
0100
1000
0200
0000
1300
0000
0010
0001
,  // measure 55
0010
0100
1000
0100
0010
0001
0002
0000
,  // measure 56
0000
0000
0000
1003
,  // measure 57
1000
0000
0100
1000
0100
1000
0000
0000
0100
0000
0010
0000
0100
0000
0001
0000
1000
0000
0001
0000
0100
0000
0010
0000
0110
0000
0001
0000
0010
0000
0100
0000
,  // measure 58
0010
0000
0001
0100
0010
1000
0001
0000
1000
0000
0010
0000
0100
0000
0001
0000
1000
0000
0010
0000
0110
0000
0000
0000
0001
0000
0100
0000
0001
0000
1000
0000
,  // measure 59
0100
0000
0010
0000
0001
0010
0001
0010
0001
0000
0010
0000
0100
0000
1000
0000
0100
0000
0010
0000
0100
0000
1000
0000
0001
0000
0010
0000
0100
0000
0010
0000
,  // measure 60
0001
0010
0100
0010
1000
0001
0100
0010
0001
1000
1001
0000
0100
0000
0010
0000
,  // measure 61
1000
0000
0101
0000
0010
0000
1000
0000
0010
0000
0110
0000
0001
0010
0100
0010
,  // measure 62
0001
0000
0010
0000
0100
1000
0100
0010
0100
0010
0001
0000
0010
0000
0100
0000
,  // measure 63
1000
0000
1100
0000
0100
0000
0010
0000
0100
0000
0110
0000
0001
0100
0010
1000
,  // measure 64
0001
0000
0100
0000
0010
0100
0010
1000
0100
0000
1100
0000
0010
0000
0001
0000
,  // measure 65
0010
0000
0100
0000
0010
0000
0001
0000
0010
0000
0100
1000
0100
0000
0010
0000
,  // measure 66
0001
0000
0010
0000
0110
0000
1100
0000
0110
0000
1001
0100
0001
0010
0100
1000
,  // measure 67
0100
0010
0001
0010
0100
1000
0100
0010
0001
0100
0010
1000
0002
0000
0000
0000
,  // measure 68
0000
0000
0000
0000
0000
0000
1003
0100
,  // measure 69
1000
0100
0010
0001
0010
0001
0010
0100
,  // measure 70
0010
0100
1000
0001
0010
0100
0010
0001
,  // measure 71
0010
0100
0010
0001
0010
0100
1000
0100
,  // measure 72
0010
0100
1000
0100
0010
0100
0010
0100
,  // measure 73
0001
0100
0001
1000
0010
1000
0010
0100
,  // measure 74
0001
0100
0010
1000
0010
0000
1000
0100
,  // measure 75
0000
0010
0001
0000
1000
0001
0000
0100
,  // measure 76
0010
2002
0000
0000
,  // measure 77
3003
0000
0100
0010
0100
0001
1000
0100
,  // measure 78
1000
0001
0100
0010
1000
0100
1000
0001
,  // measure 79
1000
0100
1000
0001
0100
0010
0100
0001
,  // measure 80
1000
0001
0100
0001
1000
0001
0010
0100
,  // measure 81
1000
0100
1000
0010
0100
0010
0100
0000
,  // measure 82
1001
0000
0010
0100
1000
0001
0100
0000
,  // measure 83
0110
0000
0001
0100
0000
0010
1000
0000
,  // measure 84
0001
1000
0000
0010
0100
0000
1001
0010
,  // measure 85
0100
1000
0100
0010
0100
0010
0001
0010
,  // measure 86
0100
0010
0001
0010
0100
1000
0100
0010
,  // measure 87
0001
0010
0100
1000
0001
1000
0100
0010
,  // measure 88
0001
0100
0010
1000
0001
1000
0010
1000
,  // measure 89
0001
0100
0010
1000
0001
0100
0010
0100
,  // measure 90
0001
1000
0001
1000
0100
0010
0100
1000
,  // measure 91
0100
0000
0010
0001
0000
1000
0100
0000
,  // measure 92
0010
0001
0000
2200
0000
0000
0000
0000
,  // measure 93
0000
0000
3300
0010
0001
0010
0100
1000
,  // measure 94
0010
1000
0001
0100
0001
1000
0020
0100
,  // measure 95
0130
0000
0100
0001
0100
0010
1000
0010
,  // measure 96
1000
0100
0010
0001
0202
0000
0000
0000
,  // measure 97
0000
0000
0303
2020
0000
0000
0000
0000
,  // measure 98
0000
3030
0100
0010
0001
0010
0100
1000
,  // measure 99
0100
0010
0001
0100
0001
1000
0001
0100
,  // measure 100
0001
1000
0010
1000
0001
1000
0010
1000
,  // measure 101
0001
0100
0220
0000
0000
0000
0000
0000
,  // measure 102
0330
0000
0000
0000
2000
0000
0000
0000
0000
0000
0000
0000
3100
0000
0010
0000
0001
0010
0001
0010
0100
0000
1000
0000
0100
0000
1000
0000
0001
0000
1000
0000
,  // measure 103
0100
0000
1000
0000
1001
0000
0100
0000
0010
0000
0010
0000
0100
0000
0001
0000
1000
0100
1000
0100
1000
0000
0100
0000
0010
0000
0001
0000
1000
0000
0010
0000
,  // measure 104
0220
0000
0330
0000
0200
0000
0000
0000
0302
0000
0000
0000
0103
0000
0010
0000
1000
0010
1000
0010
0100
0000
0001
0000
1000
0000
0100
0000
0010
0000
0001
0000
,  // measure 105
1000
0000
0001
0000
0200
0000
0000
0000
0320
0000
0000
0000
1030
0000
0100
0000
1000
0001
0100
0010
1000
0000
0100
0000
0010
0000
0001
0000
0010
0000
0100
0000
,  // measure 106
2002
0000
0000
3003
;

//---------------dance-single - ----------------
#NOTES:
     dance-single:
     :
     Challenge:
     14:
     1.000,1.000,0.769,1.000,0.539:
0000
0000
0000
0000
,
0000
0000
0000
0000
,
0000
0000
0000
0000
,
0000
0000
0000
0000
,
1100
0000
0100
0000
1000
0100
1000
0100
0010
0000
0011
0000
0001
0010
0001
0010
,
0110
0000
1000
0100
1000
0010
1000
0100
0010
1000
0010
0100
1000
0100
0010
0000
,
0011
0001
0010
0100
1000
0010
0100
0001
0100
0010
1000
0001
0010
0100
1000
0001
,
2002
0000
0000
0003
0100
0100
0100
3100
,
1000
0100
0020
0001
0130
0000
2100
0000
,
3100
0010
0012
0010
0023
0000
0130
1000
,
0100
0010
0210
0001
0302
0000
0013
0100
,
1000
0010
0100
0010
1000
0001
0101
0000
,
0010
1000
0001
0100
0020
0100
0032
0000
,
1003
0100
1000
0100
0020
0001
0032
0000
,
1003
1000
0000
0100
0100
0000
0010
0010
,
0000
0001
0001
0000
0220
0000
0000
0000
,
0330
0000
0000
0000
1000
0100
2000
0100
,
3200
0000
0310
0000
0110
0001
2000
0100
,
3002
0000
0103
0000
0010
1000
0200
0010
,
0302
0000
1003
0100
1100
0010
0001
0010
,
0100
1000
0110
0001
0000
1000
0100
0010
,
0200
0000
2300
0000
3100
1000
0100
0010
,
0002
0000
0023
0000
0130
0010
0000
0001
,
0100
0000
0010
1000
0100
0020
0000
0030
,
0022
0000
0033
0000
0100
1000
0100
1000
,
0100
0010
0011
0001
0010
0001
0010
0100
,
1100
1000
0100
1000
0100
0010
0011
0001
,
0010
0001
0010
0100
1100
1000
0001
0100
,
0001
1000
0001
0100
0001
1000
1001
0100
,
1000
0001
1000
0100
1001
0100
0010
0100
,
0010
1000
0001
1000
0110
0001
1000
0001
,
0100
0001
1000
0010
1000
0100
0110
0001
,
2000
3001
0110
0010
0100
0010
1000
0001
,
0110
0001
1000
0010
0100
0010
1000
0010
,
0101
0010
0100
1000
0100
0010
0100
1000
,
1100
0010
0001
0010
0100
0010
0001
0010
,
0110
1000
0100
1000
0100
0010
0001
0010
,
0001
1000
0001
1000
0010
0100
0010
0100
,
0010
0001
1000
0010
0100
0001
1000
0100
,
0010
0002
1003
0100
1000
0100
2100
0000
,
3002
0000
0013
0100
0010
0100
2100
0000
,
3100
0000
1000
0100
0010
0001
0201
0000
,
0301
0000
1000
0100
0010
0001
1100
0010
,
0110
0000
0001
0010
0100
1000
1020
0000
,
0130
0000
1001
0010
0100
1000
1200
0000
,
1300
0000
0100
0100
0000
0010
0010
0000
,
0001
0001
0000
1000
1000
0000
0202
0000
,
0000
0000
0000
0000
0303
0000
1000
0100
,
0010
0001
0210
0000
0320
0000
1030
0001
,
1000
0001
0120
0000
2030
0000
3100
1000
,
0100
0010
0120
0000
0031
0010
0001
0010
,
0100
1000
1100
0001
0201
0000
0301
0010
,
0100
1000
1020
0000
0230
0000
0301
0001
,
1000
0100
1200
0000
2300
0000
3100
0010
,
0001
0010
0100
1000
0100
0010
2002
0000
,
0000
0000
3000
0203
,
0310
0000
0010
1000
0100
0020
0000
0000
0031
0000
0200
0000
0320
0000
2030
0000
3200
0000
0320
0000
0031
0000
0010
0000
0011
0000
0200
0000
2300
0000
3200
0000
,
0320
0000
0031
0010
0100
1000
0100
0000
1010
0100
0001
1000
0010
0100
0001
0000
0110
0000
1100
0000
0210
0000
0000
0000
0302
0000
0023
0000
0230
0000
1300
0000
,
0100
0000
0100
0000
0010
0001
0010
0100
2100
0000
3200
0000
0320
0000
0032
0000
0023
0000
0230
0000
2300
0000
3100
0000
0110
0000
0001
0000
0010
0000
0100
0000
,
1000
0000
0001
0000
1000
0100
0010
0001
2000
0000
3002
0000
0203
0000
0320
0000
2030
0000
3100
0000
0022
0000
0033
0000
0110
0000
1000
0000
0100
0000
0010
0000
,
0002
0000
1003
0000
0100
0010
0100
1000
0100
0000
0110
0000
0001
0010
0100
0010
,
0001
0010
0100
1000
0001
1000
0100
0010
1000
0010
0101
0000
1001
0010
0100
0001
,
0100
0000
0101
0000
1000
0100
1000
0001
1000
0010
0110
0000
0001
0100
0010
1000
,
0001
0010
0100
1000
0001
0010
0001
1000
0100
0000
1100
0000
0110
0000
0001
0000
,
1000
0000
0010
0000
0101
0000
1001
0000
0110
1000
0100
0010
0001
0000
1100
0000
,
0011
0000
0010
1000
0010
0100
0010
1000
0010
0100
1001
0100
0001
0010
0100
1000
,
0100
0010
0001
0010
0100
1000
0100
0010
0001
0100
0010
1000
2002
0000
0000
0000
,
0000
3000
0100
0100
0100
0103
1010
0100
,
0001
0100
0010
1000
0010
0100
0110
0001
,
0010
0100
1000
1100
0010
0001
1000
0001
,
0010
0100
0001
0110
1000
0010
1000
0100
,
1000
0001
1000
0100
0010
0100
0011
0001
,
0010
0001
0010
0100
0010
0100
1100
1000
,
0001
1000
0100
0010
0001
0000
1000
0100
,
0000
0010
0001
0000
1000
0001
0000
0100
,
0010
2002
0000
0000
,
3003
0000
0100
0010
0100
0001
1000
0100
,
1100
0010
0001
0010
0100
1000
0100
0010
,
0110
0001
1000
0001
0100
0010
0100
0001
,
1100
0001
0100
0001
1000
0001
1000
0100
,
0010
0001
0100
0010
1000
0010
2000
0000
,
3200
0000
0310
0001
0010
0001
0200
0000
,
0320
0000
1030
1000
0000
0100
0100
0000
,
0010
0010
0000
0001
0001
0000
1100
0010
,
0001
0010
0100
1000
0010
0100
0001
1000
,
0010
0100
0001
0010
0100
1000
0010
0100
,
0001
1000
0001
0100
0010
1000
0001
0100
,
0010
1000
0100
0010
0001
1000
0010
1000
,
0001
0100
0010
1000
0001
0100
0010
0100
,
0001
1000
0001
1000
0100
0010
0100
1000
,
1100
0000
0010
0011
0000
1000
1100
0000
,
0010
0011
0000
2002
0000
0000
0000
0000
,
0000
0000
3003
0100
0010
0100
0001
0010
,
0100
1000
0101
1000
0010
1000
0200
0010
,
0302
0000
0013
0001
0010
0100
1000
0100
,
0010
0001
0100
0010
1000
2200
0000
0000
,
0000
0000
3300
0010
0022
0000
0000
0000
,
0000
0033
0100
1000
0100
0010
0100
1000
,
0100
0010
0001
0010
0100
0010
0001
0010
,
0100
1000
0001
1000
0100
1000
0001
1000
,
0001
0100
0220
0000
0000
0000
0000
0000
,
0330
0000
0000
0000
1002
0000
0000
0000
0000
0000
0000
0000
0103
0000
0010
0000
1000
0100
0010
0001
0100
0000
0020
0000
0230
0000
0302
0000
0023
0000
0230
0000
,
2300
0000
3010
0000
0101
0000
0020
0000
2030
0000
3200
0000
0320
0000
0032
0000
1003
0010
0100
0001
2000
0000
3002
0000
0203
0000
0320
0000
1030
0000
0100
0000
,
2200
0000
3300
0000
0201
0000
0010
0000
0320
0000
1000
0000
1030
0000
0001
0000
0100
0010
1000
0001
0200
0000
0320
0000
2030
0000
3200
0000
0320
0000
0032
0000
,
2003
0000
3002
0000
0203
0000
0010
0000
0320
0000
1000
0000
0130
0000
0001
0000
1000
0010
0100
0001
2000
0000
3200
0000
0320
0000
0032
0000
2003
0000
3100
0000
,
2002
0000
0000
3003
;

//---------------dance-single - ----------------
#NOTES:
     dance-single:
     :
     Medium:
     8:
     0.703,0.972,0.476,0.209,0.038:
0000
0000
0000
0000
,
0000
0000
0000
0000
,
0000
0000
0000
0000
,
0000
0000
0000
0000
,
0001
0010
0100
1000
0100
1000
0010
0100
,
0001
1000
0010
0100
0001
0001
0001
0000
,
1000
0100
1000
0000
0001
1000
0100
0000
,
2002
0000
0000
3003
,
0001
0000
0100
0001
1000
0000
1000
0000
,
0010
0000
0100
0001
0010
0000
0100
0000
,
1000
0000
0010
0100
0010
0000
0100
0000
,
0001
0101
1000
1100
,
0010
0001
0010
0000
0100
0000
0100
0000
,
1000
0001
0100
0000
0010
0000
0010
0000
,
1000
0100
0000
0010
0001
0000
0100
0010
,
0000
1000
0001
0000
2002
0000
0000
0000
,
0000
0000
3003
0000
1000
0100
0010
0000
,
0001
0000
0011
0000
0100
1000
0100
0000
,
0010
0000
0110
0000
0001
0010
0100
0000
,
1000
1100
1001
1001
,
1001
0000
0100
0010
,
0200
0300
0001
1000
,
0020
0000
0030
0000
0101
0000
0000
1010
,
0000
0000
1001
0000
0000
0110
0000
0000
,
0001
0000
1000
0100
,
1000
0010
0100
0010
,
1000
0001
0100
0001
,
1000
0010
0100
0010
,
1000
0001
0100
0010
,
1000
0001
0010
0100
,
1000
0100
0010
0001
,
1100
0010
0101
1000
,
1010
0000
0001
0000
0100
0010
0100
0000
,
0001
0000
1000
0000
0100
1000
0100
0000
,
1000
0000
0100
0000
0010
0001
0010
0000
,
0001
0000
0100
0001
0100
0000
0001
0000
,
0010
0000
0100
1000
0100
0000
0010
0001
,
0010
0001
0100
1000
0100
0010
0001
0010
,
0001
1000
0100
1000
0001
1000
0100
1000
,
0001
1000
0010
0000
0100
0000
1010
0000
,
1010
0100
0010
0101
,
0101
0010
0010
1001
,
1001
0100
0010
0100
,
0010
1000
0100
1100
,
1100
0010
0001
0011
,
0011
0000
0100
1000
0000
0100
1000
0000
,
0001
0100
0000
0001
0100
0000
0220
0000
,
0000
0000
0000
0000
0000
0330
0001
1000
,
0010
0000
0100
0000
0010
0000
1000
0001
,
1000
0000
0010
0000
0100
0000
0001
0010
,
0100
0000
1000
0000
1000
0100
0010
0001
,
1000
0010
1000
0000
1100
0000
0010
0000
,
0011
0000
1100
0000
0010
0000
0001
0010
,
0100
0000
2000
0000
3100
1000
0100
0010
,
0001
0010
0100
1000
0002
0000
0000
0000
,
0000
0000
0000
0203
,
0310
0000
0100
0000
0010
0000
1000
0000
0100
1000
0100
1000
0100
0000
0010
0000
,
0001
0010
0100
1000
0100
0022
0033
0100
,
1000
0000
0001
0000
1000
0010
0100
0000
0010
0100
0010
0000
0100
0000
0001
0000
,
0100
0010
1000
0000
0001
0000
0010
0000
0011
0000
0110
0000
0100
0000
1000
0000
,
0100
0010
0000
0100
0010
0100
0000
0001
,
1000
0010
0100
0010
1000
0000
0100
0010
,
0001
0000
1000
0100
1000
0000
0100
1000
,
0100
0000
0010
0010
0010
0000
0001
0100
,
0010
0000
0010
0100
0001
0000
1000
0100
,
1000
0000
0100
0100
0100
0000
1000
0001
,
0100
0010
0100
0001
1000
0001
0100
0000
,
0100
0000
0010
1000
0010
0000
0100
0000
,
0001
1100
1100
0010
,
0001
0110
0110
1000
,
0001
0101
0101
1000
,
0010
1000
1010
0100
,
0001
1000
0100
0000
1100
0000
0010
0001
,
0010
0100
1001
0100
,
0000
0110
0000
0000
1001
0000
0000
0101
,
0000
2020
0000
0000
,
3030
0000
0100
0001
1000
0000
0100
0000
,
1010
0000
0100
0001
0010
0000
1001
0000
,
1100
0000
0010
0001
0010
0000
1100
0000
,
0110
0000
0001
0010
0100
1000
0100
1000
,
0010
0000
0100
0010
0100
0000
0001
0000
,
0010
0000
0001
0010
0001
0000
0010
0000
,
0100
0000
1000
0100
0000
0010
0001
0000
,
1000
0100
0000
0010
0001
0000
0000
0000
,
1000
0000
0100
0000
0010
0001
0010
0001
,
0010
0001
2000
0000
3100
0000
0000
0000
,
0010
0001
0010
0100
0010
0100
2000
0000
,
3100
1000
0100
1000
0100
0000
0010
0000
,
0001
1000
0010
0100
0001
0000
1000
0000
,
0100
1000
0001
1000
0010
0100
0000
0001
,
1000
0000
0010
0100
0000
0001
1000
0000
,
0001
0000
0000
0220
0000
0000
0000
0000
,
0000
0000
0330
0000
1000
0100
0000
1000
,
0000
0100
0000
0010
0000
0001
0000
1000
,
0010
0100
0000
0001
0000
1000
0000
0010
,
0000
0100
0000
0001
2000
0000
0000
0000
,
0000
0000
3000
0002
0000
0000
0000
0000
,
0000
0003
1000
0100
1000
0100
1000
0000
,
0001
0100
0001
0100
0001
0000
1000
0010
,
0100
0001
1000
0010
0100
0001
1000
0100
,
2000
0000
0000
0000
,
3020
0000
0030
0000
0000
0000
1000
0010
0100
0000
0001
0000
1000
0000
0010
0000
,
0100
0000
0001
0000
1000
0000
0010
0000
0100
0010
0100
0000
0001
0000
1000
0000
,
1001
0000
0010
0000
0100
0000
1000
0000
0100
1000
0100
0000
0010
0000
0001
0000
,
0010
0000
0100
0000
0010
0000
0001
0000
0100
0010
0100
0000
0001
0000
1100
0000
,
0110
0022
0000
0000
0000
0000
0033
0000
;

//---------------dance-single - ----------------
#NOTES:
     dance-single:
     :
     Easy:
     5:
     0.404,0.529,0.109,0.100,0.000:
0000
0000
0000
0000
,
0000
0000
0000
0000
,
0000
0000
0000
0000
,
0000
0000
0000
0000
,
1000
0000
0010
0100
0000
0000
0001
1000
,
0000
0000
0010
0100
0000
0000
0000
0000
,
1000
0001
0100
0010
,
2002
0000
0000
3003
,
0100
0000
0010
1000
,
0000
0000
0001
0000
,
0100
0000
0010
0000
,
1000
0010
0100
0000
,
0001
0000
1000
0000
,
0010
0100
0010
0000
,
1000
0000
0001
0000
,
0100
0000
0110
0000
,
0000
0000
1000
0000
,
0010
0000
1000
0010
,
0100
0000
0001
0000
,
0100
0000
0010
1000
,
0010
0000
0000
0000
0000
1000
0001
0000
,
0100
0000
0010
1000
,
0010
0000
0100
0001
,
0100
0010
1000
0001
,
0100
0000
0001
1000
,
0100
0000
0100
1000
,
0100
0000
0010
0001
,
0010
0100
0010
0001
,
0010
0000
0100
1000
,
0100
0010
0100
1000
,
0100
0000
1000
0001
,
0100
0001
1000
0010
,
1000
0001
0000
0010
0000
0100
0000
1000
,
0000
0100
0000
0010
0000
0100
0000
0001
,
0000
1000
0000
0010
0000
0100
0000
0010
,
0000
1000
0000
0001
0000
0100
0000
0000
,
0000
0010
0000
1000
0000
0001
0000
0100
,
0000
0001
0000
1000
0000
0010
0000
0100
,
0000
0001
0000
1000
0000
0100
0000
1000
,
0000
0010
0100
0000
0001
0000
1000
0000
,
0000
0001
0100
0001
,
0000
1000
0010
0100
,
0001
1000
0010
0100
,
0000
0010
1000
0001
,
1000
0010
0100
0010
,
0000
0000
1000
0000
0000
0001
0000
0000
,
0100
0000
0000
0010
0000
0000
2002
0000
,
0000
0000
3003
0010
,
0100
0010
0000
1000
,
0001
0100
0010
1000
,
0001
0100
0010
1000
,
1000
1000
0000
0001
,
0100
0001
0000
1000
,
0010
1000
0000
0001
,
0010
0100
1000
2000
,
0000
0000
0000
3010
,
0100
0000
0001
0000
1000
0010
0100
0000
,
0001
1000
0010
0110
,
0001
1000
0001
0000
0100
0000
0010
0000
,
1000
0100
1000
0000
1001
0000
0110
0000
,
0000
0101
0000
1010
,
0000
0100
0001
0110
,
0000
1100
0000
0110
,
0000
0001
0010
0100
,
1000
0100
1000
0010
,
0100
0000
0001
1000
0001
0000
0100
0000
,
0010
1000
0001
0200
,
0000
0000
0000
0000
0000
0300
0001
0000
,
0000
1000
0000
0010
,
0000
1000
0000
0001
,
0100
0001
1000
0010
,
0000
1000
0000
0001
,
0010
0100
0000
1000
,
0001
1000
0000
0010
,
0000
0100
0000
0001
,
0000
2200
0000
0000
,
3300
0010
0000
0001
,
0000
1000
0100
1000
,
0000
0001
0010
0100
,
0000
1000
0100
1000
,
0000
0100
0010
0001
,
0000
0100
0010
1000
,
0000
0001
1000
0010
,
0100
0000
0001
0000
1000
0000
0010
0100
,
0000
0001
0000
1000
0000
0000
0000
0001
,
0000
0100
0000
0001
0000
0000
0000
1000
,
0000
0010
0000
1000
0000
0000
0000
0001
,
0000
0010
0000
0100
0000
0000
0000
1000
,
0000
0001
0000
0100
0000
0000
0000
0010
,
0000
1000
0000
0001
0000
0000
0000
0100
,
0000
0000
0001
0000
0000
1000
0000
0000
,
0010
0000
0220
0000
,
0000
0000
0330
0001
0000
0010
0000
0100
,
0000
0000
0000
1000
0000
0100
0000
0010
,
0000
0000
0001
0010
,
0100
0000
1000
0000
,
0000
0001
0000
0000
,
0000
0000
1000
0100
0000
0000
0010
0000
,
0000
0000
0001
0000
0010
0100
0000
0000
,
0000
1000
0000
0100
0000
0001
0000
1000
,
0000
0020
0000
0000
0000
0000
0000
0000
,
0000
0130
0000
0010
0100
0000
0001
0000
,
0001
0000
0100
0010
1000
0010
0000
0100
,
0010
0100
0000
0001
0000
1000
0000
0010
,
0100
0001
0000
1000
0010
0100
0001
1000
,
0200
0000
0300
0000
;

//---------------dance-single - Copied from----------------
#NOTES:
     dance-single:
     Copied from:
     Beginner:
     3:
     0.246,0.397,0.033,0.050,0.000:
0000
0000
0000
0000
,
0000
0000
0000
0000
,
0000
0000
0000
0000
,
0000
0000
0000
0000
,
1000
0010
0000
0100
,
0001
1000
0000
0000
,
0001
0100
0010
0000
,
2000
0000
0000
3000
,
0001
0000
0100
0000
,
0001
0000
0100
0000
,
0001
0000
0100
0000
,
0001
0000
0001
0000
,
1000
0000
0010
0000
,
1000
0000
0010
0000
,
1000
0000
0000
1000
,
0000
0000
0010
0000
,
0000
0000
0100
0000
,
0010
0000
1000
0000
,
0010
0000
0100
0000
,
0001
0000
1000
0000
,
1000
0000
0001
0000
,
0000
0000
0110
0000
,
0000
0000
1000
0000
,
0000
0000
0000
0000
,
0001
0000
1000
0000
,
0010
0000
0100
0000
,
0001
0000
1000
0000
,
1000
0000
0010
0000
,
0010
0000
0100
0000
,
0100
0000
0001
0000
,
0001
0000
1000
0000
,
1000
0000
0010
0000
,
0100
0001
0000
0000
0000
1000
0000
0000
,
0000
0010
0000
0000
0000
0100
0000
0000
,
0000
0010
0000
0000
0000
1000
0000
0000
,
0000
0010
0000
0000
0000
0100
0000
0000
,
0001
0000
0000
0000
,
1000
0000
0000
0000
,
0002
0000
0000
0000
,
0003
1000
0000
0010
,
0000
0100
0000
0010
,
0000
1000
0000
0001
,
0000
0100
0000
0100
,
0000
0001
0000
1000
,
0000
0010
0000
0100
,
0000
0001
0000
0000
,
1000
0000
0000
0110
,
0000
0000
0000
0001
,
0000
1000
0000
0010
,
0000
0100
0000
0001
,
0000
1000
0000
1000
,
0000
0010
0000
0100
,
0000
0001
0000
1000
,
0000
0010
0000
0100
,
0000
0000
0000
0100
,
0000
0000
0000
0002
,
1003
0100
0010
0001
,
1000
0010
0100
0001
,
1000
1000
0010
0010
,
0100
0100
0001
1000
,
0000
0010
0000
1000
,
0000
0000
0000
0001
,
0000
0100
0000
0001
,
0000
0000
0000
1000
,
0000
1000
0000
0100
,
0000
0100
0000
0010
,
0000
0010
0000
0002
,
0000
0000
0003
1000
,
0000
0010
0000
0100
,
0000
0001
0000
1000
,
0000
0010
0000
0100
,
0000
0001
0000
1000
,
0000
0010
0000
0100
,
0000
0001
0000
1000
,
0000
0000
1000
0000
,
0000
0001
0000
0000
,
0000
1000
0000
0010
,
0000
0100
0000
0010
,
0000
0100
0000
0001
,
0000
1000
0000
1000
,
0000
0010
0000
0000
,
0000
0100
0000
0000
,
0000
0001
0000
1000
,
0000
0000
0001
0000
0000
0000
1000
0010
,
0000
0000
0000
0100
0000
0000
0000
0010
,
0000
0000
0000
0010
0000
0000
0000
1000
,
0000
0000
0000
0001
0000
0000
0000
0100
,
0000
0000
0000
0100
0000
0000
0000
0001
,
0000
0000
0000
1000
0000
0000
0000
0010
,
0000
0000
0000
0100
0000
0000
0000
0001
,
0000
0000
0000
0000
0000
1001
0000
0000
,
0000
0000
0000
1001
0000
0000
0000
0000
,
0000
0000
0000
0100
0000
0000
0000
1000
,
0000
0000
0000
0010
0000
0000
0000
0100
,
0000
0000
0000
0001
0000
0000
0000
1000
,
0000
0000
0000
0001
0000
0000
0000
0000
,
0000
0000
0000
1000
0000
0000
0000
0000
,
0000
0010
0000
0100
,
0000
0010
0000
0100
,
0000
0010
0000
1000
,
0000
0002
0000
0000
,
0000
0003
0000
1000
0000
0010
0000
0100
,
0000
0001
0000
1000
0000
0010
0000
0100
,
0000
0100
0000
0001
0000
1000
0000
0001
,
0000
0100
0000
0010
0000
1000
0000
0001
,
0000
0200
0000
0000
0300
0000
0000
0000
;
