#TITLE:さようなら;
#SUBTITLE:;
#ARTIST:Wanko Ni Mero Mero;
#TITLETRANSLIT:SAYONARA;
#SUBTITLETRANSLIT:;
#ARTISTTRANSLIT:;
#CREDIT:SupremeX;
#BANNER:SAYONARAjp-BN.png;
#BACKGROUND:SAYONARAjp-BG.png;
#LYRICSPATH:;
#CDTITLE:;
#MUSIC:SAYONARA.ogg;
#OFFSET:-0.343;
#SAMPLESTART:27.580;
#SAMPLELENGTH:12.000;
#SELECTABLE:YES;
#BPMS:0.000=220.000,172.000=110.000,204.000=220.000;
#STOPS:;
#BGCHANGES:;

//---------------dance-single - ----------------
#NOTES:
     dance-single:
     :
     Challenge:
     9:
     0.792,1.000,0.654,0.233,0.233: // measure 1
0000
0000
0000
0000
,  // measure 2
1000
0110
0001
0110
,  // measure 3
1010
0101
1010
0101
,  // measure 4
0001
0110
1000
0110
,  // measure 5
0101
1010
0101
1010
,  // measure 6
0100
1001
0010
1001
,  // measure 7
1100
0011
1100
0011
,  // measure 8
1000
0000
0100
0100
0000
1000
1000
0000
,  // measure 9
0010
0010
0100
0010
0100
0010
1000
0001
,  // measure 10
1000
0001
1000
0100
1000
0100
0010
0001
,  // measure 11
0010
1001
1001
0000
,  // measure 12
0001
0010
0100
1000
0200
0000
1300
0000
,  // measure 13
1001
0000
0110
0000
1000
0001
1000
0000
,  // measure 14
0010
0200
0000
0300
0001
2000
0000
3000
,  // measure 15
0010
0100
0010
1000
0001
0000
0000
0000
,  // measure 16
1000
0200
0000
0300
0010
0002
0000
0013
,  // measure 17
0000
0100
1000
0100
0010
0001
0010
0001
,  // measure 18
1000
1200
1000
1000
,  // measure 19
1300
0110
1001
0000
,  // measure 20
0010
1000
0010
0100
0100
0000
0001
1000
,  // measure 21
0001
0000
1010
0000
0001
0100
0001
0000
,  // measure 22
1000
1000
0000
0000
0010
0010
0000
0100
,  // measure 23
0001
0100
0010
1000
0010
0000
0000
0000
,  // measure 24
0100
0200
0000
0300
0010
0020
0000
0130
,  // measure 25
0000
0001
0100
0010
1000
0000
0001
0000
,  // measure 26
0200
0000
0310
0000
0001
0010
0100
2000
,  // measure 27
0000
0000
3010
0020
0000
0000
0130
0000
,  // measure 28
0001
0000
1000
0000
0010
0000
0100
0200
,  // measure 29
0000
0010
0010
0310
,  // measure 30
1001
0000
0100
0000
0010
1000
0001
0100
,  // measure 31
0000
0000
1000
2000
0000
0000
3100
0000
,  // measure 32
1000
0000
0110
0000
0001
0000
0100
0020
,  // measure 33
0100
0100
0100
0100
0130
0000
0001
1000
,  // measure 34
0000
0110
0000
1001
0000
0100
0000
1100
,  // measure 35
0000
0110
0000
0011
0000
0100
0000
1001
,  // measure 36
0000
0101
0000
1010
0000
1000
0000
0110
,  // measure 37
0000
0010
0000
1001
0000
0000
0100
0000
,  // measure 38
0010
0100
0010
0100
0010
1000
0010
1000
,  // measure 39
0001
1000
0001
0100
0010
0100
0010
0000
,  // measure 40
1000
0100
1000
0100
0010
0001
0010
0001
,  // measure 41
1000
0010
1000
0010
0100
0000
0001
0000
,  // measure 42
0100
0001
0100
0010
1000
0010
0000
1000
,  // measure 43
0010
0100
0001
1000
1000
0000
0000
0000
,  // measure 44
1000
0100
0010
0100
1000
0100
0000
0010
0001
0100
0001
0010
0001
0100
0100
0000
,  // measure 45
0010
1000
0100
1000
0010
1000
0000
0001
0010
0100
1000
0100
0010
0100
0010
0000
,  // measure 46
0001
0010
0100
1000
0010
0100
0000
0001
0010
0100
1000
0010
0100
0000
0110
0000
,  // measure 47
0001
0100
0010
1000
0001
1000
0000
0100
1000
0001
1000
0010
0100
0010
0000
0000
,  // measure 48
1000
0100
0010
0001
0010
0100
0000
0100
0010
1000
0100
0010
0001
0000
0110
0000
,  // measure 49
1000
0010
0100
0001
1000
0100
0000
0100
1000
0100
0010
0001
0100
0000
0000
0000
,  // measure 50
0010
1000
0001
0100
0010
1000
0000
0001
0010
0100
1000
0010
0100
0010
0000
0000
,  // measure 51
1000
0001
0100
0010
1000
0001
0000
1000
0100
0010
0001
1000
0001
0000
1001
0000
,  // measure 52
0100
1000
0100
1000
0010
0100
0010
1000
,  // measure 53
0001
1000
1001
0000
0110
0000
0000
0000
,  // measure 54
0001
0010
0100
1000
0010
0100
0010
0100
,  // measure 55
0001
1000
0001
1000
0010
0100
0010
0000
,  // measure 56
0001
0001
0000
0000
1000
0100
0000
0000
,  // measure 57
0010
1000
0001
1000
0200
0000
0300
0000
,  // measure 58
1000
1000
0000
0000
0001
0001
0000
2000
,  // measure 59
0000
3001
0100
0010
1000
0000
0000
0000
,  // measure 60
1001
0000
0002
0000
0100
0100
0100
0100
,  // measure 61
0103
1010
0101
0000
,  // measure 62
1000
0010
1000
0010
0100
0001
0100
0010
,  // measure 63
2000
3200
1300
1100
,  // measure 64
0001
0001
0000
0000
1000
1000
0000
0000
,  // measure 65
0100
0001
1000
0010
0010
0000
0000
0000
,  // measure 66
1000
0100
0000
0000
0010
0001
0000
2000
,  // measure 67
0000
3100
1000
0100
0010
0000
0000
0000
,  // measure 68
0011
0000
0110
0000
1000
0001
0100
0020
,  // measure 69
0000
0030
0100
0001
0000
1000
0000
0000
,  // measure 70
1010
0000
0110
0000
0101
0000
1000
0200
,  // measure 71
0000
1000
1000
1300
,  // measure 72
0110
0000
0000
0000
0001
0010
0100
1000
,  // measure 73
0000
0000
0100
0020
0000
0000
0031
0000
,  // measure 74
1100
0000
1100
0000
0011
0000
1000
0002
,  // measure 75
0000
0000
0000
0000
0003
0000
0010
0010
,  // measure 76
0000
1000
0000
0110
0000
1001
0000
0110
,  // measure 77
0000
1010
0000
0101
0000
0101
0000
0110
,  // measure 78
0000
1001
0000
1010
0000
1010
0000
0101
,  // measure 79
0000
0110
0000
1001
0000
0000
1100
0000
,  // measure 80
0010
0100
0010
0100
0001
1000
0001
1000
,  // measure 81
0010
0100
0010
0100
0001
1000
0001
0000
,  // measure 82
1000
0100
1000
0100
0010
0001
0010
0001
,  // measure 83
1000
0010
1000
0010
0100
0001
0100
0000
,  // measure 84
0001
0010
0100
0010
0001
0010
0100
0010
,  // measure 85
0001
0010
0100
0010
0001
0000
0110
0000
,  // measure 86
1000
0100
0010
0100
1000
0100
0010
0100
,  // measure 87
1000
0100
0010
0100
1000
0000
0000
0000
,  // measure 88
0010
0100
0001
0001
0100
0010
0000
1000
,  // measure 89
1000
0010
0100
0001
1000
0000
0110
0000
,  // measure 90
2002
0000
0000
0000
,  // measure 91
0000
0000
0000
0000
,  // measure 92
0000
0000
0000
0000
,  // measure 93
0000
0000
0000
0000
,  // measure 94
0000
0000
0000
3003
;

//---------------dance-single - ----------------
#NOTES:
     dance-single:
     :
     Hard:
     9:
     0.612,1.000,0.233,0.161,0.228:
0000
0000
0000
0000
,
1000
0100
0010
0001
,
1000
0100
1000
1100
,
0001
0010
0100
1000
,
0001
0010
0001
0011
,
1000
0100
1000
0100
,
0010
0001
0100
0110
,
0010
0000
1000
0010
0000
1000
0001
0000
,
0100
0010
0000
0100
0010
0000
0100
0000
,
0001
1000
0010
0100
,
0010
1000
0110
0000
,
0001
0100
0010
1000
,
0001
0010
0100
1000
,
0100
1000
0000
0000
0001
0100
0000
0000
,
0010
0100
0010
1000
0001
0000
0000
0000
,
1000
0100
0000
0000
0100
1000
0000
0100
,
0000
0010
0001
0010
0100
0000
0000
0000
,
1000
0020
0100
0100
,
0130
1010
0101
0000
,
0010
1000
0010
0100
0001
0000
1000
0000
,
0001
0000
1000
0000
0010
0100
0000
0000
,
0001
1000
0000
0000
1000
0001
0000
0000
,
0010
0100
1001
0000
,
0100
1000
0000
0000
0100
1000
0000
0010
,
0000
0100
0001
0100
0001
0000
0000
0000
,
1000
0000
0010
0000
1000
0010
1000
0200
,
0000
0000
0310
0100
0000
0000
0100
0000
,
0001
0000
0010
0000
0100
0000
1000
0200
,
0000
1000
1000
1300
,
0000
0000
0100
0000
0001
0100
0010
1000
,
0000
0000
0010
0200
0000
0000
0310
0000
,
1000
0000
0100
0000
0010
0000
0001
0020
,
0000
0000
0000
0000
0030
0000
0100
1000
,
0000
1001
0000
0001
0000
0100
0000
1010
,
0000
0010
0000
0101
0000
0100
0000
1001
,
0000
0010
0000
0110
0000
1000
0000
0100
,
0000
0010
0000
0001
0000
0000
1000
0000
,
0020
0100
0100
0100
,
0100
0100
0130
0010
,
2000
0001
0001
0001
,
0001
0001
3001
0010
,
0100
0001
0100
0010
1000
0010
0000
1000
,
0100
0010
0001
1000
0001
0000
0000
0000
,
1000
0100
1000
0100
1000
0100
0000
0010
0001
0010
0001
0010
0001
0010
0000
0000
,
0100
1000
0100
1000
0100
1000
0000
0010
0100
0010
0100
0010
0100
0000
0110
0000
,
0001
0010
0001
0010
0001
0010
0000
0100
1000
0100
1000
0100
1000
0000
1100
0000
,
0010
0001
0010
0001
0010
0001
0000
1000
0010
1000
0010
1000
0010
1000
0000
0000
,
0001
0100
0001
0100
0001
0100
0000
0010
1000
0001
0100
0010
1000
0000
0110
0000
,
0001
0100
0010
1000
0001
1000
0000
0100
0010
0100
0010
0100
0010
0000
0000
0000
,
0001
1000
0001
1000
0001
1000
0000
0010
0100
0001
1000
0010
0100
0001
0000
0000
,
1000
0100
1000
0100
1000
0100
0000
0010
0001
0010
0001
0010
0001
0000
0011
0000
,
1000
0100
0010
0001
,
1000
0100
0110
0000
,
0001
0010
0100
1000
,
0001
0100
0001
1000
,
0100
1000
0000
0000
0001
0100
0000
0000
,
0010
0100
0001
0100
0010
0000
0000
0000
,
1000
0100
0000
0000
0100
1000
0000
0010
,
0000
0100
0010
0100
0010
0000
0000
0000
,
0001
0002
0100
0100
,
0103
1010
0101
0000
,
1000
0100
0010
0001
,
1000
0000
0100
0000
1000
0100
0000
0000
,
0010
0001
0000
0000
0001
0010
0000
0000
,
0100
1000
1001
0000
,
0010
0100
0000
0000
0010
0100
0000
0001
,
0000
1000
0100
1000
0100
0000
0000
0000
,
0010
0000
0001
0000
0010
0001
0010
0002
,
0000
0003
0100
0001
0000
0000
1000
0000
,
0010
0000
0100
0000
0001
0000
1000
0020
,
0000
1000
1000
1030
,
0010
0000
0000
0000
0010
0100
0010
0100
,
0000
0000
0001
0200
0000
0000
0301
0000
,
0010
0000
1000
0000
0001
0000
0100
0020
,
0000
0000
0000
0000
0030
0000
1000
0100
,
0000
1000
0000
0110
0000
0001
0000
0110
,
0000
1000
0000
1001
0000
0001
0000
0101
,
0000
0010
0000
1010
0000
0100
0000
0001
,
0000
1000
0000
0001
0000
0000
1000
0000
,
0020
0100
0100
0100
,
0100
0100
0130
0010
,
2000
0001
0001
0001
,
0001
0001
3001
0100
,
0002
1000
1000
1000
,
1000
1000
1003
0010
,
0200
0010
0010
0010
,
0010
0010
0310
0000
,
0100
0010
1000
0001
0100
0010
0000
1000
,
0010
0100
0001
1000
0010
0000
0100
0000
,
2002
0000
0000
0000
,
0000
0000
0000
0000
,
0000
0000
0000
0000
,
0000
0000
0000
0000
,
0000
0000
0000
3003
;

//---------------dance-single - ----------------
#NOTES:
     dance-single:
     :
     Medium:
     5:
     0.369,0.672,0.332,0.116,0.000:
0000
0000
0000
0000
,
1000
0100
1000
0000
,
0100
0010
0001
0000
,
0100
0001
0100
0000
,
0010
1000
0010
0000
,
1000
0100
0010
0000
,
0001
0010
0100
0000
,
1000
0100
1000
0100
,
0010
0001
0010
0000
,
0100
2000
0000
0000
,
0000
0100
3100
0000
,
0010
0000
0010
0000
,
0001
0000
0001
0000
,
0110
0000
1100
0000
,
0110
0000
0011
0000
,
1001
0000
1010
0000
,
0101
0000
1001
0000
,
0001
0200
0000
0000
,
0000
0010
0310
0000
,
1000
0100
0010
0000
,
0001
0010
0001
0000
,
1100
0000
1001
0000
,
0011
0000
0110
0000
,
1010
0000
0101
0000
,
1001
0000
0000
0000
,
1000
0000
0010
0000
,
0100
0000
0001
0000
,
1000
0010
0100
0010
,
0100
0001
0001
0001
,
0000
0000
1000
0000
,
0010
0000
0100
0000
,
0010
1000
0010
0100
,
0001
0000
0001
0000
0001
0000
0000
1000
,
0000
0000
0000
0010
0000
0000
0000
1000
,
0000
0000
0000
0001
0000
0000
0000
0100
,
0000
0000
0000
0010
0000
0000
0000
1000
,
0000
0000
0001
0000
,
1000
1000
1000
1000
,
1000
1000
1000
0000
,
0010
0010
0010
0010
,
0010
0010
0010
0000
,
0100
0010
0100
0000
,
0001
1000
0001
0000
,
1000
1100
0001
0011
,
1000
0110
0001
1001
,
1100
0011
1001
0110
,
1010
0101
1001
0110
,
1000
0100
1000
0000
0001
0100
0001
0000
,
1000
0010
0100
0000
0001
0100
0010
0000
,
1000
0100
1000
0000
0001
0100
0001
0000
,
0010
0100
1000
0000
0001
0100
0010
0000
,
1000
2000
0000
0000
,
0000
0100
3100
0000
,
1000
0000
0010
0000
,
0100
0001
0100
0000
,
1001
0000
0110
0000
,
1001
0000
0100
0000
,
0010
1000
0001
1000
,
0010
0010
0010
0000
,
0100
0200
0000
0000
,
0000
0001
0301
0000
,
0001
1000
0001
0100
,
0010
0100
0010
0000
,
1001
0000
0110
0000
,
0001
0100
0001
0000
,
1010
0000
0101
0000
,
1000
0010
1000
0000
,
0001
0010
0100
1000
,
0000
0000
0010
0100
0000
0000
0100
0000
,
0000
0010
0000
1000
,
0001
0100
0100
0100
,
0000
0000
0000
0000
0010
0000
1000
0010
,
0000
0000
0100
0010
0000
0000
0100
0000
,
0010
0000
1000
0000
0001
0000
0100
0002
,
0000
0000
0000
0000
0000
0003
0000
1000
,
0000
1000
0000
0010
0000
0010
0000
0100
,
0000
0100
0000
0001
0000
0001
0000
1000
,
0000
1000
0000
0100
0000
0100
0000
0010
,
0000
0000
0000
0001
0000
0000
0000
0000
,
2000
0000
0000
0000
,
0000
0000
3000
0000
,
0220
0000
0000
0000
,
0000
0000
0330
0000
,
0002
0000
0000
0000
,
0000
0000
0000
0003
,
2200
0000
0000
0000
,
0000
0000
3300
0000
,
0001
1000
0100
0000
,
1000
0010
0100
0000
,
2002
0000
0000
0000
,
0000
0000
0000
0000
,
0000
0000
0000
0000
,
0000
0000
0000
0000
,
0000
0000
0000
3003
;

//---------------dance-single - ----------------
#NOTES:
     dance-single:
     :
     Easy:
     3:
     0.248,0.462,0.251,0.134,0.000:
0000
0000
0000
0000
,
1000
0000
1000
0000
,
0010
0000
0010
0000
,
0100
0000
0100
0000
,
0001
0000
0001
0000
,
1000
0000
0001
0000
,
0100
0000
0010
0000
,
1000
0000
0001
0000
,
0100
0000
0010
0000
,
2000
0000
0000
0000
,
0000
0000
3010
0000
,
0001
0000
0001
0000
,
1000
0000
0010
0000
,
0100
0000
0100
0000
,
0001
0000
0001
0000
,
1000
0000
0010
0000
,
0100
0000
0100
0000
,
0002
0000
0000
0000
,
0000
0000
0103
0000
,
1000
0000
0010
0000
,
1000
0000
0001
0000
,
0100
0000
0010
0000
,
1000
0000
0001
0000
,
1001
0000
1001
0000
,
0110
0000
0000
0000
,
1000
0000
0010
0000
,
0100
0000
0001
0000
,
1000
0000
0010
0000
,
0200
0000
0000
0000
,
0300
0000
0001
0000
,
1000
0000
0010
0000
,
0100
0000
0001
0000
,
2000
0000
0000
3000
,
0010
0000
0000
0000
0000
0000
0000
0110
,
0000
0000
0000
0000
0000
0000
0000
0110
,
0000
0000
0000
0000
,
0001
0000
0000
0000
,
1000
0000
0010
0000
,
0100
0000
0001
0000
,
1000
0000
0010
0000
,
0100
0000
0001
0000
,
2000
0000
0000
0000
,
0000
0000
3010
0000
,
0001
0001
0100
0100
,
0010
0010
1000
1000
,
0001
0001
0100
0110
,
1000
1000
0001
1001
,
0100
0010
0100
0101
,
0010
0100
0010
1010
,
1000
0100
1000
1100
,
0001
0010
0001
0011
,
1000
0000
0010
0000
,
0100
0000
1001
0000
,
0010
0000
0010
0000
,
0100
0000
0100
0000
,
1001
0000
0110
0000
,
1001
0000
0000
0000
,
0011
0000
1100
0000
,
0110
0000
0000
0000
,
0002
0000
0000
0000
,
0000
0000
0103
0000
,
0010
0000
0010
0000
,
1000
0000
1000
0000
,
1010
0000
0101
0000
,
0110
0000
0000
0000
,
1100
0000
0011
0000
,
1001
0000
0000
0000
,
1000
0000
0010
0000
,
1000
0000
0010
0000
,
0100
0000
0001
0000
,
2000
0000
0000
3000
,
0000
0000
0010
0000
,
0100
0000
0001
0000
,
1000
0000
0001
0000
,
0002
0000
0003
0000
,
0100
0000
0000
0000
0000
0000
0000
0110
,
0000
0000
0000
0000
0000
0000
0000
0110
,
0000
0000
0000
0000
0000
0000
0000
1001
,
0000
0000
0000
0000
,
0020
0000
0000
0000
,
0000
0000
0000
0030
,
0200
0000
0000
0000
,
0000
0000
0000
0300
,
0002
0000
0000
0000
,
0000
0000
0000
0003
,
2000
0000
0000
0000
,
0000
0000
0000
3000
,
0020
0000
0000
0000
,
0000
0000
0030
0000
,
0220
0000
0000
0000
,
0000
0000
0000
0000
,
0000
0000
0000
0000
,
0000
0000
0000
0000
,
0000
0000
0000
0330
;

//---------------dance-single - Copied from----------------
#NOTES:
     dance-single:
     Copied from:
     Beginner:
     1:
     0.088,0.210,0.009,0.072,0.000:
0000
0000
0000
0000
,
1000
0000
0000
0000
,
0000
0000
0000
0000
,
1000
0000
0000
0000
,
0000
0000
0000
0000
,
0010
0000
0000
0000
,
0000
0000
0000
0000
,
0010
0000
0000
0000
,
0000
0000
0000
0000
,
0100
0000
0000
0000
,
0000
0000
0100
0000
,
0001
0000
0000
0000
,
0000
0000
0000
0000
,
0001
0000
0000
0000
,
0000
0000
0000
0000
,
0010
0000
0000
0000
,
0000
0000
0000
0000
,
0010
0000
0000
0000
,
0000
0000
0100
0000
,
1000
0000
0000
0000
,
0000
0000
0000
0000
,
1000
0000
0000
0000
,
0000
0000
0000
0000
,
0100
0000
0000
0000
,
0000
0000
0000
0000
,
0010
0000
0000
0000
,
0000
0000
0000
0000
,
0001
0000
0000
0000
,
0000
0000
0000
0000
,
0100
0000
0000
0000
,
0000
0000
0000
0000
,
0010
0000
0000
0000
,
0000
0000
0000
0000
,
1000
0000
0000
0000
,
0000
0000
0000
0000
,
1000
0000
0000
0000
,
0000
0000
0000
0000
,
0020
0000
0000
0000
,
0000
0000
0000
0030
,
0200
0000
0000
0000
,
0000
0000
0000
0300
,
0000
0000
0000
0000
,
0000
0000
0000
0000
,
0001
0000
0000
0001
,
0001
0000
0000
0001
,
0100
0000
0000
0100
,
0100
0000
0000
0100
,
0010
0000
0000
0010
,
0010
0000
0000
0010
,
1000
0000
0000
1000
,
1000
0000
0000
1000
,
0001
0000
0000
0000
,
0000
0000
0010
0000
,
0100
0000
0000
0000
,
0000
0000
0000
0000
,
1000
0000
0000
0000
,
0000
0000
0000
0000
,
0001
0000
0000
0000
,
0000
0000
0000
0000
,
0100
0000
0000
0000
,
0000
0000
0010
0000
,
0100
0000
0000
0000
,
0000
0000
0000
0000
,
0001
0000
0000
0000
,
0000
0000
0000
0000
,
1000
0000
0000
0000
,
0000
0000
0000
0000
,
0010
0000
0000
0000
,
0000
0000
0000
0000
,
0010
0000
0000
0000
,
0000
0000
0000
0000
,
0100
0000
0000
0000
,
0000
0000
0000
0000
,
0100
0000
0000
0000
,
0000
0000
0000
0000
,
0001
0000
0000
0000
,
0000
0000
0000
0000
,
0001
0000
0000
0000
,
0000
0000
0000
0000
,
2000
0000
0000
0000
,
0000
0000
0000
3000
,
0020
0000
0000
0000
,
0000
0000
0000
0030
,
0200
0000
0000
0000
,
0000
0000
0000
0300
,
0002
0000
0000
0000
,
0000
0000
0000
0003
,
1000
0000
0000
0000
,
0000
0000
0000
0000
,
2002
0000
0000
0000
,
0000
0000
0000
0000
,
0000
0000
0000
0000
,
0000
0000
0000
0000
,
0000
0000
0000
3003
;
