#TITLE:Raise Your Handz;
#SUBTITLE:;
#ARTIST:KO3 & Relect;
#TITLETRANSLIT:;
#SUBTITLETRANSLIT:;
#ARTISTTRANSLIT:;
#CREDIT:SupremeX;
#BANNER:Raise Your Handz-bn.png;
#BACKGROUND:Raise Your Handz-bg.png;
#LYRICSPATH:;
#CDTITLE:;
#MUSIC:Raise Your Handz.ogg;
#OFFSET:-2.324;
#SAMPLESTART:27.880;
#SAMPLELENGTH:12.000;
#SELECTABLE:YES;
#BPMS:0.000=150.000;
#STOPS:;
#BGCHANGES:16.000=frog2.avi=1.000=0=0=1,
32.000=clash.avi=1.000=0=0=1,
64.000=light7.avi=1.000=0=0=1,
96.000=light5.avi=1.000=0=0=1,
128.000=6 Disco.avi=1.000=0=0=1,
160.000=circle11.avi=1.000=0=0=1,
200.000=ring12.avi=1.000=0=0=1,
232.000=bubble1r.avi=1.000=0=0=1,
264.000=circle11.avi=1.000=0=0=1,
296.000=Raise Your Handz-bg.png=1.000=0=0=1,
99999=-nosongbg-=1.000=0=0=0 // don't automatically add -songbackground-
;

//---------------dance-single - ----------------
#NOTES:
     dance-single:
     :
     Hard:
     9:
     0.635,0.574,0.327,0.016,0.412: // measure 1
0000
0000
0000
0000
,  // measure 2
0000
0000
0000
0000
,  // measure 3
0000
0000
0000
0000
,  // measure 4
0000
0000
0000
0000
,  // measure 5
0100
0000
0010
0000
1000
0000
0001
0100
,  // measure 6
0001
0000
1000
0000
0001
0000
1000
0100
,  // measure 7
0010
0001
1000
0010
0100
0010
1000
0001
,  // measure 8
0010
0100
1000
0010
0100
0010
1000
0000
,  // measure 9
1001
0000
0000
0000
0110
0000
0000
0000
1000
0010
1000
0010
1000
0000
0000
0000
,  // measure 10
0001
0100
0010
1000
0001
0010
0100
0000
,  // measure 11
1100
0000
0000
0000
0110
0000
0000
0000
0001
0100
0001
0100
0001
0000
0000
0000
,  // measure 12
1000
0001
0010
0100
1000
0010
1000
0000
,  // measure 13
0110
0000
0000
0000
0101
0000
0000
0000
0010
0100
0010
0100
0010
0000
0000
0000
,  // measure 14
1000
0100
1000
0100
0010
0001
0100
0000
,  // measure 15
1010
0000
0000
0000
1001
0000
0000
0000
0100
0001
0100
0001
0100
0000
0000
0000
,  // measure 16
0010
1000
0001
1000
0010
0100
0001
0001
,  // measure 17
2000
0000
0000
0000
3001
0000
0000
0000
1000
0100
1000
0100
1000
0000
0000
0000
,  // measure 18
0001
0000
0010
0000
0100
0000
1000
0100
0000
1000
0100
0000
1000
0000
0100
0000
,  // measure 19
0010
0000
0000
0000
1001
0000
0000
0000
0010
0100
0010
0100
0010
0000
0000
0000
,  // measure 20
1000
0010
0100
0001
0100
0010
1000
0000
,  // measure 21
1001
0000
0000
0000
1100
0000
0000
0000
0001
0010
0001
0010
0001
0000
0000
0000
,  // measure 22
1000
0000
0001
0000
0100
0000
0010
1000
0000
0001
0100
0000
0010
0000
1000
0000
,  // measure 23
0001
0000
0000
0000
1001
0000
0000
0000
0010
0100
0010
0100
0010
0000
0000
0000
,  // measure 24
1000
0010
0100
0001
0100
0010
1000
0000
,  // measure 25
0101
0000
0000
0000
1010
0000
0000
0000
0001
0100
0001
0100
0001
0000
0000
0000
,  // measure 26
1000
0000
0100
0000
0010
0000
0001
0010
0000
0001
0010
0000
0001
0000
1000
0000
,  // measure 27
0010
0000
0000
0000
0101
0000
0000
0000
0010
1000
0010
1000
0010
0000
0000
0000
,  // measure 28
0100
0010
1000
0001
0100
0010
1000
0000
,  // measure 29
1001
0000
0000
0000
0110
0000
0000
0000
0010
0100
0010
0100
0010
0000
0000
0000
,  // measure 30
1000
0000
0001
0000
1000
0000
0010
0100
0000
0010
0100
0000
0001
0000
1000
0000
,  // measure 31
0001
0000
0000
0000
0110
0000
0000
0000
1000
0100
1000
0100
1000
0000
0000
0000
,  // measure 32
0100
0010
0001
1000
0100
1000
0010
0000
,  // measure 33
0100
0001
1000
1000
0000
0010
0100
0010
,  // measure 34
0000
1000
0001
1000
0010
0100
0010
1000
,  // measure 35
0000
0001
0100
0001
0000
1000
0100
1000
,  // measure 36
0000
0001
0010
0100
1000
0010
0100
0010
,  // measure 37
0000
1000
0001
1000
0000
0001
0010
0100
,  // measure 38
0000
1000
0100
1000
0001
0010
0100
1000
,  // measure 39
0000
0010
0100
0010
0000
1000
0001
1000
,  // measure 40
0000
0010
0100
0001
0100
0010
1000
0010
,  // measure 41
1001
0000
0000
0000
1100
0000
0000
0000
0001
0010
0001
0010
0001
0000
0000
0000
,  // measure 42
1000
0000
0100
0000
0010
0000
0001
0010
0000
0001
0010
0000
0100
0000
1000
0000
,  // measure 43
0001
0000
0000
0000
1001
0000
0000
0000
0010
0100
0010
0100
0010
0000
0000
0000
,  // measure 44
1000
0010
0100
0001
0100
0010
1000
0000
,  // measure 45
1001
0000
0000
0000
0110
0000
0000
0000
0001
1000
0001
1000
0001
0000
0000
0000
,  // measure 46
1000
0000
0000
0000
0110
0000
0000
0000
0001
0100
0001
0100
0001
0000
0000
0000
,  // measure 47
1000
0000
0000
0010
0000
0000
1000
0000
0001
0000
0000
0100
0000
0000
0001
0000
,  // measure 48
1000
0000
0000
0010
0000
0000
0010
0000
1000
0000
0000
1000
0000
0000
0001
0000
,  // measure 49
0002
0000
0000
0000
,  // measure 50
0000
0000
0000
0000
0000
0000
0100
0000
0103
0000
0000
0001
0100
0000
0001
0000
,  // measure 51
1001
0000
0000
0000
1100
0000
0000
0000
0001
0010
0001
0010
0001
0000
0000
0000
,  // measure 52
0010
0000
0100
0000
1000
0000
0010
0100
0000
0010
0100
0000
0010
0000
1000
0000
,  // measure 53
0001
0000
0000
0000
0110
0000
0000
0000
1000
0100
1000
0100
1000
0000
0000
0000
,  // measure 54
0001
0000
0100
0000
0010
0000
0100
0000
0010
0000
0000
1000
0001
0000
1000
0000
,  // measure 55
1001
0000
0000
0000
0110
0000
0000
0000
0001
0100
0001
0100
0001
0000
0000
0000
,  // measure 56
1000
0000
0100
0000
0010
0000
0001
0010
0000
0001
0010
0000
0001
0000
1000
0000
,  // measure 57
0100
0000
0000
0000
0011
0000
0000
0000
1000
0100
1000
0100
1000
0000
0000
0000
,  // measure 58
0010
0100
0001
0100
0010
1000
0001
0000
,  // measure 59
0101
0000
0000
0000
1010
0000
0000
0000
0001
0100
0001
0100
0001
0000
0000
0000
,  // measure 60
1000
0000
0001
0000
0100
0000
0010
0100
0000
0010
0100
0000
0001
0000
1000
0000
,  // measure 61
0001
0000
0000
0000
1010
0000
0000
0000
0100
0001
0100
0001
0100
0000
0000
0000
,  // measure 62
0010
0000
1000
0000
0010
0000
0100
0000
0001
0000
0000
1000
0001
0000
1000
0000
,  // measure 63
0110
0000
0000
0000
0101
0000
0000
0000
0010
1000
0010
1000
0010
0000
0000
0000
,  // measure 64
0100
0000
0001
0000
1000
0000
0100
1000
0000
0100
1000
0000
0001
0000
0010
0000
,  // measure 65
0100
0000
0000
0000
1001
0000
0000
0000
0010
0100
0010
0100
0010
0000
0000
0000
,  // measure 66
1000
0010
0100
0001
0100
0010
1000
0000
,  // measure 67
1001
0000
0000
0000
0010
0000
0000
0000
1000
0100
1000
0100
0000
0000
0000
0010
,  // measure 68
0001
0000
0000
0010
0001
0000
0000
1000
0010
0000
0000
1000
0010
0000
0000
0100
,  // measure 69
0001
0000
0000
0000
1001
0000
0000
0000
0100
0010
0100
0010
0000
0000
1000
0000
,  // measure 70
0001
0100
0001
0100
0000
0000
0000
1000
0100
0000
0000
0100
0010
0000
0000
0010
,  // measure 71
0001
0000
0000
0000
0011
0000
0000
0000
1000
0100
1000
0100
0000
0000
0000
0010
,  // measure 72
0001
0000
0000
0001
0010
0000
0000
0010
0100
0000
0000
0100
1000
0000
0000
1000
,  // measure 73
0001
0000
0000
0000
0110
0000
0000
0000
1000
0100
1000
0100
0000
0000
1000
0000
,  // measure 74
0001
0100
0001
0100
0000
0000
0000
1000
0100
0000
0000
0100
0010
0000
0000
0010
,  // measure 75
0001
0000
0000
0000
;

//---------------dance-single - ----------------
#NOTES:
     dance-single:
     :
     Medium:
     5:
     0.395,0.393,0.253,0.024,0.000:
0000
0000
0000
0000
,
0000
0000
0000
0000
,
0000
0000
0000
0000
,
0000
0000
0000
0000
,
0001
0000
1000
0000
0001
0000
0100
0010
,
0100
0000
0001
0000
1000
0000
0001
0100
,
0010
0010
1000
0001
,
0100
0010
1000
0010
,
0100
0000
0001
0000
1000
1000
1000
0000
,
0100
0000
0010
0000
0001
0001
0001
0000
,
1000
0000
0010
0000
0100
0100
0100
0000
,
0001
1000
0100
0010
,
0001
0000
1000
0000
0010
0010
0010
0000
,
1000
0001
0100
0010
,
1000
0000
0001
0000
0100
0010
0100
0000
,
0001
1000
0010
0110
,
0001
0000
1001
0000
1000
0100
1000
0000
,
0010
0010
0100
0100
,
1010
0000
0101
0000
0010
0100
1000
0000
,
0001
1000
0010
0010
,
0100
0000
1001
0000
0010
0100
0010
0000
,
1000
0001
1000
0010
,
0101
0000
1010
0000
0001
0010
0100
0000
,
1000
1000
0001
0001
,
0100
0000
0001
0000
1000
0100
1000
0000
,
0001
0100
0010
1000
,
0001
0000
1000
0000
0010
0100
0010
0000
,
1000
0001
0100
0001
,
1100
0000
0011
0000
1000
0001
1000
0000
,
0010
0100
0001
0100
,
0010
0000
1001
0000
0100
0010
0100
0000
,
0001
1000
0100
0010
,
0001
0000
0100
0010
0000
0000
0010
0100
,
0000
0000
0001
1000
0000
0000
0010
0000
,
0000
0000
1000
0001
0000
0000
0100
0010
,
0000
1000
0001
1000
,
0000
0010
0100
0010
0000
1000
0001
1000
,
0000
0001
0100
0010
0000
1000
0100
1000
,
0000
0001
0100
0001
0000
1000
1000
1000
,
0010
0100
0001
0100
,
0010
0000
0010
0000
1000
0100
0010
0000
,
0001
0010
0100
1000
,
0010
0000
1000
0000
0001
0100
0010
0000
,
0010
1000
0100
0010
,
0101
0000
1010
0000
0100
0010
0001
0000
,
1000
0010
1000
0001
,
0100
0000
1001
0000
,
0220
0000
0000
0330
,
2001
0000
0000
0000
,
3000
0000
0000
0010
0000
0000
0100
0000
,
0001
1000
1100
0011
,
1000
0000
0100
0000
0010
0001
0010
0000
,
0100
0000
1000
0000
0010
1000
0010
0000
,
1000
0100
0010
0001
,
1000
0000
0101
0000
1000
0010
1000
0000
,
0001
1001
0100
0110
,
0001
0000
1100
0000
0001
1000
0001
0000
,
0100
0100
0010
0010
,
1000
0000
0100
0000
0010
0001
0010
0000
,
0100
1000
0100
0010
,
0001
0000
1100
0000
0001
0100
0001
0000
,
1000
0010
0100
0001
,
0110
0000
1100
0000
0001
0100
0010
0000
,
0010
1000
0001
0100
,
1010
0000
0101
0000
1000
0010
1000
0000
,
0001
0100
0010
0100
,
0001
0000
0001
0000
1000
0010
0100
0000
,
0100
0001
1000
0010
,
1000
0000
0100
0000
0010
0001
0010
0000
,
0100
1000
0010
1000
,
0001
0110
1100
0011
,
0100
0000
1000
0000
0010
0100
0010
0000
,
1000
0001
0100
0110
,
0001
1000
0010
0100
,
1001
0000
0000
0000
;

//---------------dance-single - ----------------
#NOTES:
     dance-single:
     :
     Easy:
     3:
     0.362,0.423,0.335,0.008,0.000:
0000
0000
0000
0000
,
0000
0000
0000
0000
,
0000
0000
0000
0000
,
0000
0000
0000
0000
,
0010
0010
0010
0100
,
0100
0100
0100
0100
,
0001
0001
0001
0001
,
1000
1000
1000
1000
,
0010
0100
0001
0001
,
1000
0010
1000
1000
,
0001
0100
0010
0010
,
1000
0001
0100
0100
,
0010
1000
0001
0001
,
0100
0010
1000
1000
,
0001
0100
0010
0010
,
1000
0001
0100
0100
,
0010
1000
0010
0010
,
0100
0001
0100
0100
,
0010
1000
0001
0001
,
0100
0010
1000
1000
,
0001
0100
0010
0010
,
1000
0001
0100
0100
,
0001
1000
0010
0010
,
0100
0001
1000
1000
,
1001
1010
0001
0001
,
1000
0010
0100
0001
,
1010
0101
1000
1000
,
0010
0100
0001
1000
,
1001
0110
0100
0100
,
0001
1000
0010
0100
,
0110
1001
0010
0010
,
1000
0001
0100
0010
,
1000
0000
0001
0000
,
1000
0000
0010
0000
,
0100
0000
0001
0000
,
1000
0010
0100
0001
,
1000
0100
0010
0001
,
1000
1000
1000
1000
,
0001
0010
0100
1000
,
0001
0001
0001
0001
,
1010
1010
0001
0001
,
0100
0100
0010
0010
,
0101
0101
1000
1000
,
0010
0100
0001
1000
,
1001
1001
0010
0010
,
0100
0100
0001
0001
,
1000
0010
1000
0001
,
0100
0001
1000
0010
,
0200
0000
0000
0000
,
0000
0000
0000
0000
,
0310
0010
1000
1000
,
0001
0100
1010
0101
,
1000
1000
0010
0100
,
0001
1000
0010
0010
,
0101
1010
0001
0001
,
1000
0010
0100
0001
,
1100
0011
1000
1000
,
0010
0100
0001
0001
,
1001
1001
0110
0110
,
1000
1000
0010
0010
,
0101
1010
0001
0001
,
1000
0010
0100
0001
,
1000
1000
0010
0100
,
0001
1000
0010
0010
,
1100
0011
0100
0100
,
0010
1000
0001
0100
,
1010
1010
0101
0101
,
1000
0001
0100
0010
,
1100
1100
0011
0011
,
1000
0010
0100
0001
,
1001
1001
0110
0110
,
1000
0010
0100
0100
,
0001
1000
0010
0010
,
1000
0001
0100
0010
,
1001
0000
0000
0000
;

//---------------dance-single - Copied from----------------
#NOTES:
     dance-single:
     Copied from:
     Beginner:
     1:
     0.083,0.091,0.000,0.008,0.000:
0000
0000
0000
0000
,
0000
0000
0000
0000
,
0000
0000
0000
0000
,
0000
0000
0000
0000
,
0001
0000
0000
0000
,
0001
0000
0000
0000
,
0001
0000
0000
0000
,
0001
0000
0000
0000
,
1000
0000
0000
0000
,
0010
0000
0000
0000
,
1000
0000
0000
0000
,
0010
0000
0000
0000
,
0100
0000
0000
0000
,
0001
0000
0000
0000
,
0100
0000
0000
0000
,
0001
0000
0000
0000
,
1000
0000
0000
0000
,
0100
0000
0000
0000
,
1000
0000
0000
0000
,
0100
0000
0000
0000
,
0010
0000
0000
0000
,
0001
0000
0000
0000
,
0010
0000
0000
0000
,
0001
0000
0000
0000
,
1000
0000
0000
0000
,
0010
0000
0000
0000
,
1000
0000
0000
0000
,
0010
0000
0000
0000
,
0100
0000
0000
0000
,
0001
0000
0000
0000
,
0100
0000
0000
0000
,
0001
0000
0000
0000
,
1000
0000
0000
0000
,
1000
0000
0000
0000
,
1000
0000
0000
0000
,
1000
0000
0000
0000
,
0010
0000
0000
0000
,
0010
0000
0000
0000
,
0010
0000
0000
0000
,
0010
0000
0000
0000
,
0100
0000
0000
0000
,
0100
0000
0000
0000
,
0100
0000
0000
0000
,
0100
0000
0000
0000
,
0001
0000
0000
0000
,
0001
0000
0000
0000
,
0001
0000
0000
0000
,
0001
0000
0000
0000
,
2000
0000
0000
0000
,
0000
0000
0000
0000
,
3010
0000
0000
0000
,
0010
0000
0000
0000
,
0010
0000
0000
0000
,
0010
0000
0000
0000
,
0100
0000
0000
0000
,
0100
0000
0000
0000
,
0100
0000
0000
0000
,
0100
0000
0000
0000
,
0001
0000
0000
0000
,
0001
0000
0000
0000
,
0001
0000
0000
0000
,
0001
0000
0000
0000
,
1000
0000
0000
0000
,
1000
0000
0000
0000
,
1000
0000
0000
0000
,
1000
0000
0000
0000
,
0010
0000
0000
0000
,
0100
0000
0000
0000
,
0010
0000
0000
0000
,
1000
0000
0000
0000
,
0001
0000
0000
0000
,
0100
0000
0000
0000
,
0001
0000
0000
0000
,
0100
0000
0000
0000
,
0010
0000
0000
0000
;
