#TITLE:REVOLVER;
#SUBTITLE:;
#ARTIST:SKY_DELTA;
#TITLETRANSLIT:;
#SUBTITLETRANSLIT:;
#ARTISTTRANSLIT:;
#CREDIT:SupremeX;
#BANNER:REVOLVER-bn.png;
#BACKGROUND:REVOLVER-bg.png;
#LYRICSPATH:;
#CDTITLE:;
#MUSIC:REVOLVER.ogg;
#OFFSET:-3.146;
#SAMPLESTART:68.944;
#SAMPLELENGTH:12.000;
#SELECTABLE:YES;
#BPMS:0.000=160.010;
#STOPS:;
#BGCHANGES:;

//---------------dance-single - ----------------
#NOTES:
     dance-single:
     :
     Challenge:
     9:
     0.757,0.831,0.535,0.299,0.472:
0000
0000
0000
0000
,
0000
0000
0000
0000
,
0000
0000
0000
0000
,
0000
0000
0000
0000
,
1000
0100
0010
0001
0010
0100
0010
0001
,
1000
0100
0010
0100
2000
0000
3200
0000
,
1300
0100
0010
0001
1000
0100
0010
0100
,
1000
0001
1000
0100
0010
0100
0010
0000
,
0011
0000
0000
0110
0000
0000
0000
0000
1100
0000
0000
0110
0000
0000
0000
0000
,
0101
0000
0000
1010
0000
0000
0000
0000
1001
0000
0000
0110
0000
0000
1000
0000
,
0100
0010
0001
1000
0100
1000
0001
1000
,
0100
0010
0100
0001
1000
0100
0010
0001
0010
0100
1000
0000
1010
0000
0000
0000
,
0110
0001
1000
0001
0100
0001
1001
1001
,
0100
0000
0010
0000
1000
0100
1000
0000
0100
1000
0100
0000
0000
0000
0101
0000
,
0000
0000
0000
0000
0110
0000
0000
1001
0000
0000
0110
0000
1000
0100
0010
0001
,
1000
0000
0100
0000
0010
0000
0100
0000
1000
0000
0100
0010
0100
0000
0000
0000
,
1001
0000
1000
0100
1100
0100
0110
0110
,
0001
0010
0001
0010
0100
1000
0100
1000
0100
0000
0010
0000
0001
0000
0010
0000
,
0100
0000
1000
0100
1000
0000
0100
1000
0100
0000
0010
0001
0010
0000
0100
0000
,
2000
0000
0000
3200
0000
0000
0320
0000
0000
0000
0031
0000
0011
0000
0000
0000
,
0010
0000
0100
1000
0100
0000
1000
0100
1000
0000
0100
0010
0100
0000
0010
0001
,
0010
0000
0100
1000
0100
0000
1000
0100
1000
0000
0100
0010
0100
0000
0101
0000
,
0000
0000
0000
0000
0011
0000
0000
1001
0000
0000
1100
0000
0010
0100
0010
0100
,
0020
0000
0030
0100
1000
0100
0010
0000
0001
0000
0010
0100
0000
0000
0000
0000
,
1100
0000
1000
0100
1000
0000
0100
0010
0100
0000
0001
0100
0001
0000
0001
0000
,
0000
0000
1000
0000
0100
1000
0100
0000
0100
0010
0100
0000
0001
0000
0001
0000
,
1000
0000
1000
0000
0010
0000
0010
0000
0100
0010
0100
0010
0100
0001
1000
0001
,
1000
0001
1000
0010
0100
0010
0100
0010
0100
0001
1000
0001
1000
0000
0000
0000
,
1200
0000
0320
0000
0000
0032
0000
0000
,
2003
0000
0000
3200
0000
0000
0300
0000
,
0020
0000
0032
0000
0000
2003
0000
0000
,
3200
0000
0000
0310
0000
0011
0000
0000
,
0200
0000
2300
0000
0000
3200
0000
0000
,
0320
0000
0000
0032
0000
0203
0000
0000
,
0320
0000
0000
2030
0000
0000
3001
0000
,
0110
0000
0000
0110
0000
0000
1010
0000
0000
1010
0000
0000
0100
0000
0100
0000
,
0001
1000
0100
1000
0001
1000
0100
1000
,
0001
0100
0001
1000
0001
0100
0001
1000
,
0001
1000
0100
0010
0100
1000
0001
0010
,
0100
0010
0001
1000
0100
1000
0100
0010
,
0011
0000
0100
0000
1000
0000
0100
0010
0100
0000
0010
0000
0001
0000
0010
0100
,
1000
0000
0100
0000
0010
0000
0001
0000
0110
0000
0000
1100
0000
0000
0110
0000
,
0001
0000
0000
0000
0010
0000
0000
0000
0100
0000
0000
0000
1000
0000
0000
0000
0100
0000
0000
0000
0010
0000
0000
0000
0001
0000
0000
0000
1000
0000
0000
0100
,
0000
0000
1000
0000
0000
0100
0000
0000
1000
0000
0000
0100
0000
0000
1000
0000
0000
0000
0000
0000
0000
0000
0000
0000
0001
0000
0100
0000
0001
0000
0100
0000
,
0001
0000
0000
0000
1010
0000
0000
0000
0101
0000
0000
1010
0000
0000
0100
0000
,
0200
0000
0020
0000
0300
0000
0130
0000
0000
0000
0000
1000
0001
1000
0001
0000
,
0100
0000
0000
0110
0000
0000
0001
0000
1000
0000
0001
0000
0100
0000
1000
0000
,
0100
0000
0010
0000
0000
0000
2200
0000
0000
0000
3300
0010
0001
0010
0001
0000
,
0010
0000
0000
0011
0000
0000
0100
0000
1100
0000
0000
1100
0000
0000
0100
0000
,
0010
0000
0000
0012
0000
0000
0103
0000
0000
0020
0000
0000
0230
0000
0000
0000
,
1300
0000
0000
2100
0000
0000
3010
0000
0020
0000
0000
0130
0000
0000
0002
0000
,
0100
0100
0100
0103
,
0010
0000
0100
0000
0010
0000
1000
0000
0010
0000
0100
0000
0010
0100
0010
0100
,
0001
0000
0100
0000
0001
0000
1000
0000
0001
0000
0100
0000
0001
0010
0100
1000
,
0100
0000
0010
0000
0100
0000
1000
0000
0100
0000
0010
0000
0100
0010
0100
0000
,
0010
0000
1000
0000
0100
0000
0010
0001
0010
0000
0100
0000
1100
0000
0000
0000
,
0010
0100
0001
0100
0010
1000
0001
1000
,
0100
1000
0001
1000
0100
0010
0001
0010
,
0001
1000
0100
1000
0001
1000
0100
0010
,
0001
0100
0001
0100
0010
1000
0010
1000
0010
0100
0010
0100
0001
1000
0001
1000
,
0001
0000
1000
0001
0010
0001
1001
1001
,
1000
0000
0100
0000
1000
0000
0001
0000
1000
0100
0010
0000
0000
0000
1001
0000
,
0000
0000
0000
0000
0110
0000
0000
0101
0000
0000
1010
0000
0100
0001
0100
0001
,
0100
0010
1000
0100
0010
0001
1001
0000
,
0110
0000
0000
0000
1100
0000
0000
1010
0000
0000
0101
0000
0000
0000
1001
0000
,
0010
0100
0010
0100
0010
0100
0010
0100
0010
0000
1000
0000
0001
0000
1000
0000
,
0010
0000
1000
0000
0001
0010
0100
1000
0100
0010
0001
0010
0100
1000
0100
0010
,
0001
0000
0010
1000
0001
0100
0001
1000
;

//---------------dance-single - ----------------
#NOTES:
     dance-single:
     :
     Hard:
     8:
     0.565,0.585,0.372,0.100,0.132: // measure 1
0000
0000
0000
0000
,  // measure 2
0000
0000
0000
0000
,  // measure 3
0000
0000
0000
0000
,  // measure 4
0000
0000
0000
0000
,  // measure 5
1000
0000
0001
0100
0010
0000
0010
0000
,  // measure 6
0110
0000
0001
1000
0100
0000
1100
0000
,  // measure 7
1001
0000
0100
0010
0100
0001
1000
0100
,  // measure 8
1000
0001
1000
0000
0010
0100
0010
0000
,  // measure 9
1000
0000
0000
1010
0000
0000
0000
0000
0001
0000
0000
0101
0000
0000
0000
0000
,  // measure 10
1000
0000
0000
1001
0000
0000
0000
0000
0010
0000
0000
0110
0000
0000
1000
0000
,  // measure 11
0100
0010
0001
0010
0100
0010
0001
0010
,  // measure 12
0100
1000
0010
0100
0001
1000
0010
0000
,  // measure 13
0010
1000
0100
0010
0001
1000
0100
1100
,  // measure 14
0000
0000
0000
0000
1000
0000
0100
0000
1000
0000
0100
1000
0000
0000
0000
0101
,  // measure 15
0000
0000
0000
0000
1010
0000
0000
1001
0000
0000
0110
0000
0001
0000
1000
0000
,  // measure 16
0100
1000
0001
0010
0100
1000
0001
0000
,  // measure 17
1001
0000
1000
0100
0010
0100
1000
0100
,  // measure 18
0000
0010
0001
0010
0100
0010
0001
0010
,  // measure 19
0100
0000
1000
0010
1000
0010
0100
0010
,  // measure 20
0202
0000
0000
0000
0000
0000
0000
0303
,  // measure 21
0010
1000
0100
0010
0001
1000
0100
1000
,  // measure 22
0100
0010
0001
0010
0001
0100
1000
0100
,  // measure 23
0000
0000
0000
0000
0011
0000
0000
1001
0000
0000
1100
0000
0010
0000
0100
0000
,  // measure 24
0020
0000
0000
0000
1030
0000
0001
0000
1000
0000
0010
1000
0000
0000
0000
0000
,  // measure 25
1010
0000
0000
0000
0100
0000
0000
0010
0000
0000
1000
0000
0000
1001
0000
0000
,  // measure 26
0000
0000
1000
0000
0000
0010
0000
0000
0100
0000
0000
1001
0000
0000
1000
0000
,  // measure 27
0010
0100
0001
1000
0001
0100
0010
1000
,  // measure 28
0001
1000
0010
0100
0001
1000
0001
0000
,  // measure 29
2100
0000
0001
0000
0000
0100
0000
0000
,  // measure 30
0001
0000
0000
3100
0000
0000
0000
0000
,  // measure 31
0020
0000
0001
0000
0000
0100
0000
0000
,  // measure 32
0001
0000
0000
0100
0000
0130
0000
0000
,  // measure 33
0002
0000
1000
0000
0000
0010
0000
0000
,  // measure 34
1000
0000
0000
0010
0000
0010
0000
0000
,  // measure 35
1000
0000
0000
0010
0000
0000
1003
0000
,  // measure 36
0100
0000
0000
0110
0000
0000
1001
0000
0000
1100
0000
0000
0100
0000
0100
0000
,  // measure 37
1000
0001
0100
0001
1000
0010
0100
0010
,  // measure 38
0100
0001
0010
0100
1000
0100
0010
0100
,  // measure 39
1000
0001
0010
0001
1000
0001
0010
0001
,  // measure 40
1000
0001
1000
0100
1000
0100
0010
0001
,  // measure 41
0011
0100
1000
0100
0010
0001
0010
0100
,  // measure 42
1000
0010
0100
0010
0100
0001
1000
0001
,  // measure 43
1000
0010
0100
0010
0100
0001
1000
0100
,  // measure 44
2000
0000
0000
3000
,  // measure 45
0101
0000
0000
0000
0010
0000
0000
0000
1000
0000
0000
1000
0000
0000
0010
0000
,  // measure 46
0100
0000
0000
0100
0000
0000
1001
0000
0000
0000
0000
0000
0001
1000
0001
1000
,  // measure 47
0000
1000
0001
0010
0001
0010
0100
1000
,  // measure 48
0100
0000
0000
1000
0000
0000
2200
0000
0000
0000
3300
0000
0010
0000
0001
0000
,  // measure 49
0010
0000
0000
0010
0000
0000
0100
0000
1000
0000
0000
1100
0000
0000
0100
0000
,  // measure 50
0010
0000
0000
0011
0000
0000
1100
0000
0000
0001
0000
0000
0200
0000
0000
0000
,  // measure 51
0310
0000
0000
0010
0000
0000
1000
0000
0001
0000
0000
1000
0000
0000
0002
0000
,  // measure 52
0000
0000
0000
0000
,  // measure 53
1003
0100
0010
0001
0010
0100
0010
0001
,  // measure 54
1000
0100
1000
0001
1000
0100
1000
0001
,  // measure 55
0100
0010
1000
0010
0100
0010
1000
0010
,  // measure 56
0100
0001
0100
0010
1000
0010
0101
0000
,  // measure 57
0010
1000
0100
0010
0001
1000
0100
1000
,  // measure 58
0100
0010
0001
0010
0001
1000
0010
1000
,  // measure 59
0010
0100
0001
0100
0001
1000
0100
0010
,  // measure 60
0001
1000
0100
1000
0100
0010
0100
0010
,  // measure 61
0001
0000
1000
0001
0010
0001
1000
0001
,  // measure 62
0000
0000
1000
0010
1000
0001
0000
1001
,  // measure 63
0000
0000
0000
0000
0110
0000
0000
1010
0000
0000
0101
0000
0000
0000
1000
0000
,  // measure 64
0100
1000
0001
0100
0001
1000
0010
0000
,  // measure 65
1001
0000
0000
0000
0000
1100
0000
0000
1010
0000
0000
0101
0000
0000
1001
0000
,  // measure 66
0010
0100
0010
1000
0010
0100
0001
0100
,  // measure 67
0010
1000
0010
1000
0100
0010
0001
1000
,  // measure 68
0010
0000
0010
1000
0000
0100
0001
0100
;

//---------------dance-single - ----------------
#NOTES:
     dance-single:
     :
     Medium:
     7:
     0.454,0.523,0.172,0.181,0.150:
0000
0000
0000
0000
,
0000
0000
0000
0000
,
0000
0000
0000
0000
,
0000
0000
0000
0000
,
1000
0001
1000
0100
,
1100
0001
0100
0101
,
1001
0010
0100
1000
,
0001
1000
0010
0100
,
1000
0000
0000
1100
0000
0000
0000
0000
0001
0000
0000
0101
0000
0000
0000
0000
,
1000
0000
0000
1001
0000
0000
0000
0000
0010
0000
0000
0110
0000
0000
0000
0000
,
2000
3002
0203
0320
,
2030
3001
0001
0100
,
0010
1000
0100
0010
0001
1000
0100
0100
,
0000
0000
0000
0000
1000
0000
0100
0000
1000
0000
0100
1000
0000
0000
0000
0001
,
0000
0000
0000
0000
1000
0000
0000
1000
0000
0000
1000
0000
0001
0000
0000
0000
,
0100
0000
0001
0010
0100
1000
0001
0000
,
1100
1000
0010
1000
,
0110
0001
0010
0100
1000
0100
0010
0001
,
1000
0000
1000
0010
1000
0010
0100
0010
,
0200
0000
0000
0000
0000
0000
0000
0300
,
0010
1000
1001
0100
,
0110
0001
1001
1000
,
0000
0000
0000
0000
0001
0000
0000
0001
0000
0000
0001
0000
0010
0000
0100
0000
,
1000
0000
0000
0000
1000
0000
0001
0000
0100
0000
0001
0100
0000
0000
0000
0000
,
0010
0000
0000
0000
0100
0000
0000
0010
0000
0000
1000
0000
0000
0001
0000
0000
,
0000
0000
1000
0000
0000
0010
0000
0000
0100
0000
0000
0001
0000
0000
0000
0000
,
2000
3020
0230
0320
,
0230
0302
2003
3001
,
2100
0000
0100
0000
0000
0100
0000
0000
,
0100
0000
0000
3100
0000
0000
0000
0000
,
0020
0000
0100
0000
0000
0100
0000
0000
,
0100
0000
0000
0100
0000
0130
0000
0000
,
0002
0000
1000
0000
0000
1000
0000
0000
,
1000
0000
0000
1000
0000
1000
0000
0000
,
1000
0000
0000
1000
0000
0000
1003
0000
,
0010
0000
0000
0010
0000
0000
0010
0000
0000
1000
0000
0000
0100
0000
0100
0000
,
1000
0001
1000
0010
,
1000
0000
0001
0000
1000
0100
0010
0100
,
1000
0000
0001
0100
0010
1000
0001
0100
,
0010
0000
1000
0100
1000
0100
0010
0001
,
0010
0000
1000
0100
1000
0100
0010
0001
,
0010
0000
0000
0000
0100
0000
1000
0000
0100
0010
0000
0000
0010
0000
0000
0010
,
0000
0010
0100
0010
0100
0001
1000
0001
,
2000
0000
0000
3000
,
0001
0000
0000
0000
0010
0000
0000
0000
0010
0000
0000
0000
1000
0000
0000
1000
,
0000
0100
0000
0000
0100
0000
0000
1000
0000
0000
0000
0000
0001
0000
0001
0000
,
0000
0100
0000
0000
0100
0000
0000
0000
0001
0000
0000
0000
0110
0000
0000
0000
,
1000
0000
0000
1000
0000
0000
2000
0000
0000
0000
3000
0000
0001
0000
0010
0000
,
0100
0000
0000
0100
0000
0000
0100
0000
1000
0000
0000
1000
0000
0000
1000
0000
,
0001
0000
0000
0010
0000
0000
0100
0000
0000
1000
0000
0000
0020
0000
0000
0000
,
0130
0000
0000
0010
0000
0000
1000
0000
0001
0000
0000
1000
0000
0000
0002
0000
,
0000
0000
0000
0000
,
1003
0010
1000
0001
,
1000
0010
1000
0001
,
1000
0010
1000
0010
0100
0001
0100
0001
,
1000
0000
1000
0010
1000
0010
0010
0000
,
0100
0001
0101
0010
,
1010
0001
1001
0010
,
0010
0100
0001
0100
0001
1000
0010
1000
,
0010
0100
0001
1000
0001
0100
0010
1000
,
0001
0000
1000
0001
0010
0001
1000
0001
,
0000
0000
0000
0000
1000
0000
0010
0000
1000
0000
0001
0000
0100
0000
0000
0100
,
0000
0000
0000
0000
0000
0010
0000
0000
0010
0000
0000
0010
0000
0000
1000
0000
,
1000
1000
0001
0000
0001
0000
0100
0000
,
0101
0000
0000
0000
0000
1000
0000
0000
0001
0000
0000
1000
0000
0000
1001
0000
,
0010
0100
0010
1000
0010
0100
0001
0100
,
0010
0010
1000
1000
,
0001
0000
0001
1000
0000
0100
0010
0100
;

//---------------dance-single - ----------------
#NOTES:
     dance-single:
     :
     Easy:
     4:
     0.336,0.370,0.009,0.054,0.014:
0000
0000
0000
0000
,
0000
0000
0000
0000
,
0000
0000
0000
0000
,
0000
0000
0000
0000
,
1000
0010
1000
0001
,
0100
0000
0010
0000
1000
0000
0001
1000
,
0001
1000
0010
1000
,
0001
0100
0010
1000
,
0010
0000
0100
0100
0000
0001
0000
0000
,
0000
1000
0000
0000
0010
0000
0000
0000
,
0100
0010
1000
0010
,
0100
0001
1000
0010
,
0100
0000
0010
0000
1000
0000
0001
1000
,
0001
0100
0010
1000
,
0001
0000
0000
0000
0100
0000
0000
0100
0000
0000
0100
0000
0000
0000
0000
0000
,
1000
0010
0100
0001
,
1000
0000
0010
0000
0100
0000
0001
1000
,
0001
0100
0010
1000
,
0000
0001
0100
0000
0000
0010
1000
0000
,
0010
0100
0010
0000
1000
0010
1000
0000
,
0001
0001
0001
0001
,
0100
0100
0100
0100
,
0010
0010
0010
0010
,
0000
0000
1000
0000
0010
1000
0010
0000
,
0100
0000
0001
0000
1000
0010
1000
0000
,
0001
0000
0100
0000
0010
0100
0010
0000
,
1000
0001
1000
0001
,
1000
0001
1000
0000
0010
0100
0010
0000
,
2000
0000
0000
0000
,
0000
0000
3000
0000
,
0020
0000
0000
0000
,
0000
0000
0030
0000
,
0200
0000
0000
0000
,
0000
0000
0300
0000
,
0002
0000
0000
0000
,
0000
0003
0000
0000
,
1000
0000
0010
0000
1000
0010
1000
0000
,
0001
0000
0100
0000
0001
0000
1000
0010
,
0100
0000
0001
0000
0100
0000
0010
1000
,
0010
0000
0100
0000
0001
0000
1000
0001
,
0010
0000
0100
0000
1000
0000
0010
0100
,
0010
1000
1000
1000
,
0001
0100
0010
1000
,
0001
1000
0010
1000
,
0001
1000
0010
0100
,
0001
0000
1000
0010
1000
0000
0001
0000
,
0100
0000
0010
0000
1000
0010
1000
0000
,
0001
0000
0010
0000
0100
0000
1000
0010
,
1000
0001
0100
0010
,
1000
1000
1000
0001
,
0100
0000
0010
0000
1000
0010
1000
0000
,
0001
0001
0001
0001
,
1000
0000
1000
0000
0010
0100
0010
0000
,
1000
0000
1000
0000
0010
0100
0001
0100
,
0010
1000
1000
1000
,
0001
0000
0100
0000
0010
1000
0010
0000
,
1000
0001
1000
0001
,
0100
0010
0100
0010
0100
0000
0001
0000
,
0001
1000
1000
1000
,
2000
0000
0000
3000
,
0010
0000
0100
0000
0000
0010
0100
0010
,
0100
0000
0000
0001
1000
0000
0000
0000
,
1010
0000
0000
0000
0100
0000
0000
0100
0000
0000
0100
0000
0000
0000
0000
0000
,
0002
0000
1003
0000
0001
1000
0001
0000
,
0100
0000
0000
0000
0010
0000
0000
0010
0000
0000
0010
0000
0000
0000
0010
0000
,
0000
0000
1000
0000
0010
0000
1000
0010
,
1000
0000
0001
0100
0001
0000
1000
0010
,
1000
0001
0100
0010
,
1000
0000
0000
0000
;

//---------------dance-single - Copied from----------------
#NOTES:
     dance-single:
     Copied from:
     Beginner:
     2:
     0.336,0.370,0.009,0.054,0.014:
0000
0000
0000
0000
,
0000
0000
0000
0000
,
0000
0000
0000
0000
,
0000
0000
0000
0000
,
1000
0010
1000
0001
,
0100
0000
0010
0000
1000
0000
0001
1000
,
0001
1000
0010
1000
,
0001
0100
0010
1000
,
0010
0000
0100
0100
0000
0001
0000
0000
,
0000
1000
0000
0000
0010
0000
0000
0000
,
0100
0010
1000
0010
,
0100
0001
1000
0010
,
0100
0000
0010
0000
1000
0000
0001
1000
,
0001
0100
0010
1000
,
0001
0000
0000
0000
0100
0000
0000
0100
0000
0000
0100
0000
0000
0000
0000
0000
,
1000
0010
0100
0001
,
1000
0000
0010
0000
0100
0000
0001
1000
,
0001
0100
0010
1000
,
0000
0001
0100
0000
0000
0010
1000
0000
,
0010
0100
0010
0000
1000
0010
1000
0000
,
0001
0001
0001
0001
,
0100
0100
0100
0100
,
0010
0010
0010
0010
,
0000
0000
1000
0000
0010
1000
0010
0000
,
0100
0000
0001
0000
1000
0010
1000
0000
,
0001
0000
0100
0000
0010
0100
0010
0000
,
1000
0001
1000
0001
,
1000
0001
1000
0000
0010
0100
0010
0000
,
2000
0000
0000
0000
,
0000
0000
3000
0000
,
0020
0000
0000
0000
,
0000
0000
0030
0000
,
0200
0000
0000
0000
,
0000
0000
0300
0000
,
0002
0000
0000
0000
,
0000
0003
0000
0000
,
1000
0000
0010
0000
1000
0010
1000
0000
,
0001
0000
0100
0000
0001
0000
1000
0010
,
0100
0000
0001
0000
0100
0000
0010
1000
,
0010
0000
0100
0000
0001
0000
1000
0001
,
0010
0000
0100
0000
1000
0000
0010
0100
,
0010
1000
1000
1000
,
0001
0100
0010
1000
,
0001
1000
0010
1000
,
0001
1000
0010
0100
,
0001
0000
1000
0010
1000
0000
0001
0000
,
0100
0000
0010
0000
1000
0010
1000
0000
,
0001
0000
0010
0000
0100
0000
1000
0010
,
1000
0001
0100
0010
,
1000
1000
1000
0001
,
0100
0000
0010
0000
1000
0010
1000
0000
,
0001
0001
0001
0001
,
1000
0000
1000
0000
0010
0100
0010
0000
,
1000
0000
1000
0000
0010
0100
0001
0100
,
0010
1000
1000
1000
,
0001
0000
0100
0000
0010
1000
0010
0000
,
1000
0001
1000
0001
,
0100
0010
0100
0010
0100
0000
0001
0000
,
0001
1000
1000
1000
,
2000
0000
0000
3000
,
0010
0000
0100
0000
0000
0010
0100
0010
,
0100
0000
0000
0001
1000
0000
0000
0000
,
1010
0000
0000
0000
0100
0000
0000
0100
0000
0000
0100
0000
0000
0000
0000
0000
,
0002
0000
1003
0000
0001
1000
0001
0000
,
0100
0000
0000
0000
0010
0000
0000
0010
0000
0000
0010
0000
0000
0000
0010
0000
,
0000
0000
1000
0000
0010
0000
1000
0010
,
1000
0000
0001
0100
0001
0000
1000
0010
,
1000
0001
0100
0010
,
1000
0000
0000
0000
;
