#TITLE:Pump The Rhythm (Scorccio Mix);
#SUBTITLE:;
#ARTIST:Ultimate Heights;
#TITLETRANSLIT:;
#SUBTITLETRANSLIT:;
#ARTISTTRANSLIT:;
#CREDIT:SupremeX;
#BANNER:Pump The Rhythm-bn.png;
#BACKGROUND:Pump The Rhythm-bg.png;
#LYRICSPATH:;
#CDTITLE:;
#MUSIC:Pump The Rhythm (Scorccio Mix).ogg;
#OFFSET:-0.141;
#SAMPLESTART:43.060;
#SAMPLELENGTH:12.000;
#SELECTABLE:YES;
#BPMS:0.000=133.910,16.000=134.040;
#STOPS:;
#BGCHANGES:;

//---------------dance-single - ----------------
#NOTES:
     dance-single:
     :
     Hard:
     8:
     0.496,0.496,0.175,0.069,0.015: // measure 1
0000
0000
0000
0000
,  // measure 2
0000
0000
0000
0000
,  // measure 3
0000
0000
0000
0000
,  // measure 4
0000
0000
0000
0000
,  // measure 5
1000
0100
0010
0100
1000
0100
0010
0100
,  // measure 6
1000
0101
1010
0102
,  // measure 7
1000
1000
1000
1003
,  // measure 8
2001
0100
0100
3100
,  // measure 9
0001
0010
0100
0010
0001
0010
0011
0000
,  // measure 10
0100
1000
0100
1000
0001
0100
0100
0000
,  // measure 11
0001
0000
1000
0100
0010
0001
1000
0000
,  // measure 12
0001
0010
0100
1000
0001
0100
0001
0000
,  // measure 13
1000
0100
1000
0001
0100
0001
0100
0000
,  // measure 14
0010
1000
0010
0100
0010
1000
0010
0000
,  // measure 15
1000
0100
0010
0001
1000
0100
1100
0000
,  // measure 16
0010
0001
0010
0100
0010
0001
0010
0000
,  // measure 17
0100
1000
0100
0010
0100
1000
0100
0000
,  // measure 18
0010
0001
0010
0100
1000
0100
0100
0000
,  // measure 19
0010
0001
0010
0100
1000
0001
0100
0000
,  // measure 20
0010
1000
0010
0100
0001
0100
0010
0000
,  // measure 21
1000
0000
0001
0000
0100
0000
0010
0000
0001
0000
1000
0001
0000
0000
0100
0000
,  // measure 22
0010
0100
0010
1000
0001
1000
0001
0000
,  // measure 23
0100
0010
1000
0010
0100
0001
1000
0000
,  // measure 24
0001
0100
0001
1000
0100
1000
0001
0000
,  // measure 25
1000
0100
0010
0100
1000
0100
0010
0001
,  // measure 26
0010
0000
0110
0000
1000
1000
1000
0000
,  // measure 27
0001
0100
0001
0100
0010
1000
0010
1000
,  // measure 28
0001
0110
1001
0110
,  // measure 29
1000
0100
1000
0100
0010
0100
0010
0001
,  // measure 30
0010
0000
0000
0000
0000
0000
1100
0000
0000
1001
0000
0000
0101
0000
0000
0000
,  // measure 31
0010
0100
0010
0100
0001
1000
0001
0100
,  // measure 32
0010
1000
0010
0100
0001
0100
0010
0000
,  // measure 33
1000
0100
0010
0001
1000
0100
1000
0000
,  // measure 34
0001
1000
0010
0100
0110
0000
0001
0000
,  // measure 35
1000
0010
0100
0010
1000
0010
0100
0000
,  // measure 36
0001
0010
0100
0010
0001
0010
0100
0000
,  // measure 37
1000
0100
0010
0001
1000
0100
1000
0100
,  // measure 38
0010
0000
0001
0010
0100
1000
0200
0000
,  // measure 39
1000
1000
1300
0002
,  // measure 40
0100
0100
0100
0103
,  // measure 41
0010
1000
0001
0100
0001
1000
0010
0000
,  // measure 42
1000
0100
0010
0001
1000
0100
1000
0001
,  // measure 43
0001
0000
0100
0010
1000
0010
0100
0000
,  // measure 44
0001
1000
0100
1000
0100
0010
0001
0000
,  // measure 45
1000
0100
0010
0001
0010
0100
1000
0001
,  // measure 46
0100
0001
1000
0010
0100
0010
1000
0000
,  // measure 47
0001
0010
0100
1000
0001
0100
0010
0000
,  // measure 48
0010
1000
0001
0100
0010
1000
0001
0000
,  // measure 49
1000
0001
1000
0010
,  // measure 50
0100
0010
1000
0010
0100
0010
1000
0000
,  // measure 51
0001
0010
0100
0010
0001
0010
0100
0000
,  // measure 52
1000
0100
1000
0100
0010
0100
0010
0000
,  // measure 53
0001
0010
0001
0010
0100
1000
0001
0000
,  // measure 54
1000
0100
0010
0001
1000
0100
1000
0000
,  // measure 55
0001
0100
0010
1000
0001
0100
0010
1000
,  // measure 56
0002
0000
0103
0100
0020
0000
1030
1000
,  // measure 57
0200
0000
0310
0010
0001
1000
0100
0000
,  // measure 58
0100
1000
0001
1000
0010
0100
0010
0110
,  // measure 59
0000
0000
1001
0000
1000
0010
0100
0000
,  // measure 60
0100
0010
1000
0001
0010
0100
1000
0100
,  // measure 61
0010
0011
1100
1001
,  // measure 62
0010
0100
0010
1000
0001
0100
0001
0000
,  // measure 63
1100
0100
1000
0100
0010
0100
1000
0100
,  // measure 64
0010
0001
0110
0000
1000
0100
1001
0000
,  // measure 65
0101
0000
0010
1000
0010
1000
0000
0000
,  // measure 66
0001
0000
0010
0000
0100
0000
1000
0000
0020
0000
0000
0130
0000
0000
0000
0000
,  // measure 67
0001
0010
0100
0010
0001
0010
0100
0000
,  // measure 68
1000
0000
0100
0000
0010
0000
0001
0000
2000
0000
0000
3100
0000
0000
0000
0000
,  // measure 69
1000
0100
0010
0001
1000
0000
0000
0000
;

//---------------dance-single - ----------------
#NOTES:
     dance-single:
     :
     Medium:
     5:
     0.361,0.418,0.145,0.030,0.000:
0000
0000
0000
0000
,
0000
0000
0000
0000
,
0000
0000
0000
0000
,
0000
0000
0000
0000
,
0100
0000
0100
0000
1000
0001
0100
0000
,
0100
0000
0001
0000
1000
0100
0010
0000
,
0001
0000
1000
0000
0010
0100
0010
0000
,
1000
0000
0001
0000
1000
0100
1000
0000
,
0001
0000
1000
0000
0001
0100
0010
0000
,
0010
0100
0001
0000
1000
0000
1100
0000
,
0010
0001
0010
0000
0100
0000
1000
0000
,
0100
0000
0010
0000
0001
0100
0010
0000
,
0010
1000
0001
1000
,
0010
0100
0010
0000
0100
0000
0100
0000
,
0001
0000
1000
0000
0001
0100
0010
0000
,
0010
0000
1000
0000
0001
1000
0100
0000
,
0010
0001
1100
0110
,
0001
1000
0100
1100
,
0000
0001
0010
0010
,
0100
1000
0100
0000
0010
0001
0010
0000
,
0100
1000
0001
0001
,
0100
0000
0100
0000
0010
1000
0010
0000
,
0100
0001
0100
0010
,
1000
0010
1000
1001
,
0000
0010
1000
0001
,
0100
0000
0010
0000
1000
0001
0100
0000
,
0100
0010
0010
1000
,
0001
0000
0100
0010
0100
0000
1001
0000
,
0010
0000
1000
0000
0100
1000
0100
0000
,
0110
0000
0001
0000
1000
0010
0100
0000
,
0100
0000
0001
0000
1000
0001
0100
0000
,
0100
0001
1000
0000
0010
0100
0010
0000
,
1000
0001
1001
1001
,
0010
0100
0010
0000
0110
0000
0000
0000
,
0001
1000
0001
0000
1100
0000
1100
0000
,
0001
0100
0010
0000
1000
0000
1000
0000
,
0001
0100
0010
0000
0010
0100
0001
0000
,
0110
0000
1000
0000
0100
1000
0100
0000
,
1000
0000
0001
0000
0100
0001
0010
0000
,
0001
0010
0001
0000
0100
0010
0100
0000
,
0010
0000
0010
0000
1000
0001
1000
0000
,
0010
0010
0100
0100
,
0001
1000
0010
0000
1000
0010
1000
0000
,
0001
0001
0001
0001
,
2000
0000
0100
3100
,
0002
0010
0010
0013
,
0100
1000
0100
0000
0010
0001
0010
0000
,
0100
1000
0010
0000
0100
0000
0100
0000
,
0002
0000
1000
0000
1000
0000
1000
0003
,
0200
0010
0010
0310
,
1000
0000
0001
0000
0100
0010
0100
0000
,
0001
0000
0001
0000
1000
0100
1000
0000
,
0100
0100
0100
0100
,
0010
0010
0010
0010
,
0001
0100
0001
0000
1000
0100
1000
0000
,
0101
1010
0101
1010
,
0101
1001
0100
0010
,
0100
0000
0001
0000
1000
0100
1000
0000
,
0010
0000
0010
0000
0100
0001
0100
0000
,
0010
0000
1000
0000
0010
0100
0010
0000
,
1000
0000
1000
0000
0001
1000
0001
0000
,
0100
0000
0010
0000
1000
0010
0100
0000
,
0100
0000
0001
0000
1000
0100
1000
0000
,
0001
0100
0001
0000
1000
0001
0010
0000
,
0010
0001
0100
0000
0100
0001
1000
0000
,
0100
0100
0100
0100
,
0010
0001
0010
0001
0010
0000
0000
0000
,
0001
0001
0001
0001
,
1000
0100
1000
0100
1000
0000
0000
0000
;

//---------------dance-single - ----------------
#NOTES:
     dance-single:
     :
     Easy:
     3:
     0.235,0.261,0.030,0.038,0.000:
0000
0000
0000
0000
,
0000
0000
0000
0000
,
0000
0000
0000
0000
,
0000
0000
0000
0000
,
0100
0001
1000
0010
,
0010
1000
0001
0200
,
0000
0000
0000
0000
,
0000
0000
0000
0300
,
0001
0000
1000
1000
,
0000
0010
0100
0001
,
0000
1000
0010
0100
,
0000
0001
0001
0001
,
0000
1000
0010
0100
,
0000
0001
1000
0001
,
0000
1000
1000
1000
,
0000
0010
0100
0001
,
1000
0010
1000
1000
,
0000
0001
0100
0001
,
0000
1000
0010
0100
,
0001
1000
0010
0100
,
0001
1000
0001
1000
,
0000
0010
0100
0000
,
0001
1000
0010
0100
,
0001
0001
1000
1000
,
0000
0010
0100
0010
,
0100
0000
0001
0001
,
0000
1000
0010
0100
,
0001
1000
1000
1000
,
0000
0010
0100
0010
,
0100
0000
0000
0001
0000
0000
0001
0000
,
0000
1000
0000
1000
,
0010
0100
0001
0000
,
1000
1000
0020
0030
,
0100
0001
0100
0000
,
0010
0010
2000
3000
,
0001
0100
0001
0001
,
1000
0010
0100
0001
,
0001
0100
0010
0020
,
0000
0000
0000
0000
,
0000
0000
0000
0030
,
1000
1000
0001
0001
,
0100
0100
0010
0010
,
1000
0000
0001
0100
,
0001
0100
0010
0010
,
1000
1000
1000
1000
,
0001
0001
0001
0001
,
0100
0010
1000
0001
,
0100
0100
0010
0010
,
1000
1000
1000
1000
,
0001
0001
0001
0001
,
0100
0010
0100
0010
,
1000
0001
1000
1000
,
0010
0010
0010
0010
,
0100
0100
0100
0100
,
0001
1000
0001
1000
,
0110
0000
0110
0000
,
0110
0000
0110
0000
,
1000
0001
1000
1000
,
1000
0000
0001
0001
,
0100
0010
1000
0001
,
0001
0100
0010
0010
,
0000
1000
0001
0100
,
0010
1000
0001
0002
,
0000
1000
0000
1000
,
0000
1003
0000
0000
,
0010
0010
0010
0010
,
0100
0100
0100
0000
,
0001
0001
1000
1000
,
0001
1000
0001
0000
;

//---------------dance-single - Copied from----------------
#NOTES:
     dance-single:
     Copied from:
     Beginner:
     1:
     0.069,0.078,0.000,0.000,0.000:
0000
0000
0000
0000
,
0000
0000
0000
0000
,
0000
0000
0000
0000
,
0000
0000
0000
0000
,
0010
0000
0000
0000
,
0000
0000
0000
0010
,
0000
0000
0000
0000
,
0010
0000
0000
0000
,
1000
0000
0000
0000
,
0001
0000
0000
0000
,
1000
0000
0000
0000
,
0001
0000
0000
0000
,
0100
0000
0000
0000
,
0100
0000
0000
0000
,
0100
0000
0000
0000
,
0100
0000
0000
0000
,
0010
0000
0000
0000
,
1000
0000
0000
0000
,
0010
0000
0000
0000
,
1000
0000
0000
0000
,
0001
0000
0000
0000
,
0010
0000
0000
0000
,
0100
0000
0000
0000
,
1000
0000
0000
0000
,
0010
0000
0000
0000
,
0010
0000
0000
0000
,
0100
0000
0000
0000
,
0100
0000
0000
0000
,
0001
0000
0000
0000
,
0001
0000
0000
0000
,
1000
0000
0000
0000
,
1000
0000
0000
0000
,
0010
0000
0000
0000
,
0100
0000
0000
0000
,
0001
0000
0100
0000
,
0000
0000
0000
0000
,
0010
0000
0000
0000
,
0000
1000
0000
0000
,
0000
0001
0000
0000
,
0000
0000
0000
0000
,
0100
0000
0000
0000
,
0100
0000
0000
0000
,
0010
0000
0000
0000
,
0010
0000
0000
0000
,
1000
0000
0000
0000
,
1000
0000
0000
0000
,
0001
0000
0000
0000
,
0001
0000
0000
0000
,
0010
0000
0000
0000
,
0100
0000
0000
0000
,
1000
0000
0000
0000
,
0001
0000
0000
0000
,
0100
0000
0000
0000
,
0010
0000
0000
0000
,
1000
0000
0000
0000
,
0100
0000
0000
0000
,
1000
0000
0000
0000
,
0001
0000
0000
0000
,
1000
0000
0000
0000
,
0010
0000
0000
0000
,
1000
0000
0000
0000
,
0001
0000
0000
0000
,
1000
0000
0000
0000
,
0100
0000
0000
0000
,
0100
0000
0000
0000
,
1000
0000
0000
0000
,
1000
0000
0000
0000
,
0010
0000
0000
0000
,
0010
0000
0000
0000
;
