#TITLE:ひと夏の戯れYeah!! Samba;
#SUBTITLE:;
#ARTIST:BEMANI Sound Team "哲学";
#TITLETRANSLIT:One summer's fun games Yeah! Samba;
#SUBTITLETRANSLIT:;
#ARTISTTRANSLIT:BEMANI Sound Team "Philosophy";
#CREDIT:SupremeX;
#BANNER:One summer's fun games Yeah! Samba-bn.png;
#BACKGROUND:One summer's fun games Yeah! Samba-bg.png;
#LYRICSPATH:;
#CDTITLE:;
#MUSIC:One summer's fun games Yeah! Samba.ogg;
#OFFSET:-2.154;
#SAMPLESTART:72.600;
#SAMPLELENGTH:12.000;
#SELECTABLE:YES;
#BPMS:0.000=140.000;
#STOPS:;
#BGCHANGES:;

//---------------dance-single - ----------------
#NOTES:
     dance-single:
     :
     Hard:
     8:
     0.535,0.529,0.168,0.084,0.143: // measure 1
0000
0000
0000
0000
,  // measure 2
0000
0000
0000
0000
,  // measure 3
0000
0000
0000
0000
,  // measure 4
0000
0000
0000
0000
,  // measure 5
0000
0000
0001
0000
1000
0100
1000
0100
,  // measure 6
1000
0100
0010
0000
0010
0001
1000
0001
,  // measure 7
0101
0000
0010
0000
1000
0100
1000
0100
,  // measure 8
0010
0000
0001
0000
0010
0000
0100
0000
0010
0100
0000
0010
0100
0000
0000
0000
,  // measure 9
1000
0100
1000
0001
1000
0100
1000
0001
,  // measure 10
0100
0010
1000
0001
1000
0010
0100
0100
,  // measure 11
0001
0000
1000
0000
0001
0000
0000
0000
0000
0000
1000
0100
0000
0000
0000
0000
,  // measure 12
0000
0000
0010
0001
0000
0000
0000
0000
1000
0100
0000
0000
0200
0000
1000
0000
,  // measure 13
1300
0000
0010
0001
0010
0100
1000
1000
,  // measure 14
0100
0010
0001
0010
0100
1000
0100
0100
,  // measure 15
0010
0000
0001
0000
0010
0000
0000
0000
0000
0000
0000
0100
1000
0000
0000
0000
,  // measure 16
0000
0000
0000
0010
0100
0000
0000
0000
0001
0000
0000
0000
1000
0100
0010
0100
,  // measure 17
1000
0000
0001
0010
0100
0010
0001
1000
,  // measure 18
0001
0000
1000
0000
0010
0000
0000
0110
0000
0000
0000
0000
0000
0000
0000
0000
,  // measure 19
0001
0100
0010
0000
0100
0000
0010
0000
1000
0000
0001
0000
1000
0000
0100
0000
,  // measure 20
1000
0001
0100
0000
0101
0000
0010
0010
,  // measure 21
0010
0000
1000
0010
0100
0001
1000
0100
,  // measure 22
1000
0000
0100
0000
0020
0000
0000
0031
0000
0000
0000
0000
1000
0000
0000
0000
,  // measure 23
0100
1000
0000
0000
0100
0000
0010
0000
0001
0000
0010
0000
0100
0000
0010
0000
,  // measure 24
0001
0000
1000
0000
0100
0000
0000
1100
0000
0000
0110
0000
0000
0000
0011
0000
,  // measure 25
0100
0000
1000
0010
0100
0010
1000
0010
,  // measure 26
0100
0000
0001
0000
0200
0000
0000
0301
0000
0000
0000
0000
0000
0000
1000
0100
,  // measure 27
1000
0100
0010
0001
0010
0100
1000
0100
,  // measure 28
0010
0100
1000
0000
0101
0000
1001
1001
,  // measure 29
1001
0000
0000
0000
0100
0000
0010
0100
0000
0000
0010
0000
1000
0000
0100
0000
,  // measure 30
0010
0000
0001
0000
1000
0000
0000
0101
0000
0000
0000
0000
0000
0000
0000
0000
,  // measure 31
0010
1000
0010
1000
0001
0100
0001
0100
,  // measure 32
0001
0000
1000
0100
0010
0001
1000
0100
,  // measure 33
1000
0000
0100
0000
0010
0000
0000
0010
0001
0000
0100
0000
0010
0000
1000
0000
,  // measure 34
0001
0100
0010
1000
1000
0100
1000
0000
,  // measure 35
0000
0001
0100
0001
1000
0010
0100
0010
,  // measure 36
1000
0000
0010
0000
0100
0000
0001
0000
0010
0100
1000
0100
0010
0000
0010
0000
,  // measure 37
0001
0000
0001
0000
1000
0000
0000
0100
1000
0000
0100
0000
0010
0000
0001
0000
,  // measure 38
0010
0100
0010
0100
1000
1000
0001
0001
,  // measure 39
1000
0000
0010
1000
0010
0000
1000
0000
0001
0000
0100
0000
0010
0000
1000
0000
,  // measure 40
0001
1000
2000
0000
3100
1000
0100
0100
,  // measure 41
0100
0000
0100
0000
0010
0000
0000
0101
0000
0000
2020
0000
0000
0000
3030
0000
,  // measure 42
0001
0000
0010
0000
0100
0000
1000
0000
0001
0000
0100
0010
0000
0010
0100
0000
,  // measure 43
0001
0000
1000
0100
0010
0100
1000
0100
,  // measure 44
0010
0000
0000
0000
0001
0000
0100
0010
0100
0010
0100
0010
0100
0010
0100
0010
,  // measure 45
1000
0001
0200
0000
0310
0010
0010
1000
,  // measure 46
0100
0000
0100
0000
1000
0000
0001
0000
1000
0000
0000
0010
0100
0000
0000
0100
,  // measure 47
0010
0100
0001
0010
0100
1000
0010
1000
,  // measure 48
1001
0000
0001
0010
0100
1000
0001
0100
,  // measure 49
0001
1000
0010
0100
0100
0100
0001
0001
,  // measure 50
0001
0001
1000
0100
1000
0100
0020
0001
,  // measure 51
0031
0100
1000
0100
0010
0100
1000
0100
,  // measure 52
0010
0100
0002
0000
0000
0000
2003
0000
,  // measure 53
0000
0000
3100
0100
0010
0001
0010
0100
,  // measure 54
0010
0000
0001
0010
0100
1000
0010
0100
,  // measure 55
0001
0100
0010
1000
0010
1000
0100
0100
,  // measure 56
0100
0001
0000
1000
0100
1000
0100
0010
,  // measure 57
0001
1000
0100
0010
0001
1000
0100
1000
,  // measure 58
0100
0000
0100
0010
0001
0010
0001
0010
,  // measure 59
0100
0000
1000
0100
0010
0001
1000
0100
,  // measure 60
1000
0000
0001
0100
0010
1000
0001
0100
,  // measure 61
0001
0000
1000
0010
1000
0001
0100
0001
,  // measure 62
0101
0000
1000
0100
0010
0100
1000
0100
,  // measure 63
0110
0000
0000
0000
0000
0000
0011
0000
0000
1100
0000
0000
1001
0000
0000
0000
,  // measure 64
0110
0000
0000
0000
;

//---------------dance-single - ----------------
#NOTES:
     dance-single:
     :
     Medium:
     7:
     0.408,0.397,0.126,0.008,0.008:
0000
0000
0000
0000
,
0000
0000
0000
0000
,
0000
0000
0000
0000
,
0000
0000
0000
0000
,
0000
0000
1000
0100
1000
0100
0010
0010
,
0010
0000
0001
0000
1000
0010
0100
0010
,
0100
0000
0001
0000
1000
0000
0010
1000
,
0010
0000
1000
0000
0001
0000
0100
0010
,
0100
0000
0001
0000
1000
0100
1000
1000
,
0000
0000
0010
0000
0010
0100
0010
0010
,
0000
0000
0100
0000
0000
0001
1000
0000
,
0000
0010
0100
0000
0100
0000
0001
1000
,
0001
0000
1000
0000
1000
0001
0100
0000
,
0100
0000
0001
1000
0010
0100
0001
0000
,
1000
0000
0001
0000
0000
1000
0010
0000
,
0000
0010
0100
0000
0000
0000
0100
0000
,
0001
0000
1000
0000
0100
0000
0010
0001
,
0100
0010
1000
0000
0001
0000
1000
0000
,
0010
0000
0010
0100
0001
0100
0010
1000
,
0010
1000
1100
0010
,
0011
0000
0100
1000
0100
1000
0100
0000
,
0010
0001
0010
0000
0011
0000
1000
0000
,
1001
0000
0001
1000
0010
0100
0010
0000
,
1000
0000
1000
0001
0100
0000
0100
0001
,
1000
0000
1000
0000
0100
0010
0001
0010
,
0001
1000
0100
0000
1001
0000
0010
0000
,
0110
0000
0100
0001
1000
0001
0100
0000
,
0100
0000
0001
0010
0100
0000
1000
0100
,
0010
0000
0001
0000
1000
0010
0100
0000
,
0100
0010
1000
0000
0101
0000
0010
0000
,
1001
0000
0100
0000
0100
0000
0010
1000
,
0010
0000
1000
0001
0100
0000
0100
0001
,
1000
0000
0001
0000
1000
0010
0100
0010
,
1000
0010
0100
0000
0001
0000
1000
0000
,
0010
0000
1000
0001
1000
0010
0100
0000
,
0100
0000
0010
1000
0010
0000
1000
0001
,
0100
0000
0100
0000
0001
1000
0010
0000
,
0010
1000
0001
0000
1000
0100
1000
0100
,
0100
0000
0010
0000
0001
1000
0001
0000
,
1000
0010
0100
0000
0100
0000
0001
0001
,
0001
0000
0001
0000
1000
0000
0000
0100
0000
0000
2000
0000
0000
0000
0000
0000
,
3100
0100
0010
0001
0010
0001
0010
0000
,
0100
0000
1000
0100
1000
0100
1000
0000
,
0101
0000
0010
1000
0010
0000
0010
1000
,
0001
0000
0001
1000
0010
0000
0010
1000
,
0001
0000
0100
0010
0100
0000
0001
1000
,
0010
0000
0010
1000
0001
0000
1000
0010
,
0100
0000
0100
0001
1000
0000
1000
0010
,
0100
0000
0100
0010
1000
0000
1000
0100
,
0010
0000
0001
0010
0100
0000
0000
0000
,
1000
0000
0010
0100
0010
0100
0010
0100
,
0010
0000
1000
0000
1000
0001
0100
0000
,
0100
0001
1000
0000
0010
1000
0010
0000
,
0100
0000
0001
1000
0010
0000
0100
0001
,
1000
0000
0010
0000
1000
0100
1000
0100
,
0010
0000
0001
0000
0010
0000
1000
0010
,
0100
0000
0100
0010
1000
0000
1000
0010
,
0100
0000
0001
0010
0100
0000
1000
0001
,
0100
0000
0100
0001
1000
0001
0100
0010
,
0100
0001
1001
0010
,
0110
1000
1010
0001
,
0101
0000
1000
0100
1000
0000
0001
0100
,
0001
0000
0000
0000
0000
0000
1000
0000
0000
0001
0000
0000
0110
0000
0000
0000
,
1001
0000
0000
0000
;

//---------------dance-single - ----------------
#NOTES:
     dance-single:
     :
     Easy:
     3:
     0.265,0.265,0.176,0.109,0.000:
0000
0000
0000
0000
,
0000
0000
0000
0000
,
0000
0000
0000
0000
,
0000
0000
0000
0000
,
0000
1000
0010
1000
,
0010
0100
0001
0100
,
0001
1000
0010
1000
,
0010
0100
0001
0200
,
0300
0001
1000
0010
,
1000
1000
0001
0100
,
0010
1001
0000
1010
,
0000
0101
0000
1000
,
1000
0010
0100
0001
,
0001
1000
0010
1000
,
1000
0101
0000
1010
,
0000
0101
0000
1000
,
0010
1000
1000
0001
,
0100
0010
0010
0000
,
1000
0010
0100
0001
,
1000
0001
0001
0100
,
0100
0010
1000
0001
,
1000
0001
0001
0000
,
1000
0010
0100
0001
,
1000
0010
0100
0100
,
0000
1001
0000
1010
,
0000
0101
0001
0001
,
0001
1000
0010
0100
,
0001
1000
0010
0100
,
0001
1010
0000
0101
,
0000
1010
1000
1000
,
1000
0001
0100
0001
,
0100
0010
1000
0010
,
1000
0000
0002
0000
0000
0000
0000
0003
,
0000
0100
0100
0100
,
0000
0000
0020
0000
0000
0000
0000
0030
,
0000
1000
1000
1000
,
0000
0200
0000
0300
,
0000
0010
0010
0010
,
0000
2000
0000
3000
,
0000
0100
0001
1000
,
0010
0000
0100
0000
0000
1001
0000
0000
,
0000
1000
0010
1000
,
1000
0001
0001
0100
,
0100
0010
0010
1000
,
1000
0001
0100
0001
,
0000
1000
0010
0100
,
0100
0001
1000
0010
,
0010
1000
0001
1000
,
0010
0100
0001
1000
,
0001
0220
0000
0000
,
0330
2002
0000
0000
,
3003
0110
1000
0001
,
1000
0010
0100
0001
,
1000
0010
1000
0001
,
0100
0010
0010
1000
,
1000
0000
0001
0001
,
0100
0010
1000
1000
,
0001
0100
0010
1000
,
0001
0100
0010
1000
,
1001
0020
0000
0000
,
0030
0200
0000
0000
,
0300
2002
0000
0000
,
3003
0000
0000
0110
0000
0000
0110
0000
,
1001
0000
0000
0000
;

//---------------dance-single - Copied from----------------
#NOTES:
     dance-single:
     Copied from:
     Beginner:
     1:
     0.072,0.079,0.008,0.042,0.000:
0000
0000
0000
0000
,
0000
0000
0000
0000
,
0000
0000
0000
0000
,
0000
0000
0000
0000
,
0000
1000
0000
0000
,
0000
1000
0000
0000
,
0000
0001
0000
0000
,
0000
0001
0000
0000
,
0000
0100
0000
0000
,
0000
0100
0000
0000
,
0000
0010
0000
0000
,
0000
0010
0000
0000
,
0000
1000
0000
0000
,
0000
1000
0000
0000
,
0000
0001
0000
0000
,
0000
0001
0000
0000
,
0000
0100
0000
0000
,
0000
0010
0000
0000
,
0000
0100
0000
0000
,
0000
0010
0000
0000
,
0000
1000
0000
0000
,
0000
0001
0000
0000
,
0000
1000
0000
0000
,
0000
0001
0000
0000
,
0000
0100
0000
0000
,
0000
0010
0000
0000
,
0000
0100
0000
0000
,
0000
0010
0000
0000
,
0000
1000
0000
0000
,
0000
0001
0000
0000
,
0000
1000
0000
0000
,
0000
0001
0000
0000
,
0000
0200
0000
0000
,
0000
0000
0000
0300
,
0000
0020
0000
0000
,
0000
0000
0000
0030
,
0000
2000
0000
0000
,
0000
0000
0000
3000
,
0000
0002
0000
0000
,
0000
0000
0000
0000
0000
0003
0000
0000
,
0000
0110
0000
0000
,
0000
1000
0000
0000
,
0000
1000
0000
0000
,
0000
0100
0000
0000
,
0100
0000
0000
0000
,
0000
0010
0000
0000
,
0000
0010
0000
0000
,
0000
0001
0000
0000
,
0001
0000
0000
0000
,
0000
2000
0000
0000
,
0000
0000
0000
0000
,
3000
0010
0000
0000
,
0000
0100
0000
0000
,
0000
0001
0000
0000
,
0000
1000
0000
0000
,
0000
0000
0010
0000
,
0000
0000
0100
0000
,
0000
0001
0000
0000
,
0000
1000
0000
0000
,
0000
0010
0000
0000
,
0000
0100
0000
0000
,
0000
0001
0000
0000
,
0000
0000
0000
1000
;
