#TITLE:Oh My Love -super euro version-;
#SUBTITLE:;
#ARTIST:SES;
#TITLETRANSLIT:;
#SUBTITLETRANSLIT:;
#ARTISTTRANSLIT:;
#CREDIT:SupremeX;
#BANNER:Oh My Love-bn.png;
#BACKGROUND:Oh My Love-bg.png;
#LYRICSPATH:;
#CDTITLE:;
#MUSIC:Oh My Love -super euro version-.ogg;
#OFFSET:-0.127;
#SAMPLESTART:6.060;
#SAMPLELENGTH:12.000;
#SELECTABLE:YES;
#BPMS:0.000=150.000;
#STOPS:;
#BGCHANGES:0.000=Oh My Love.avi=1.000=0=0=1,
99999=-nosongbg-=1.000=0=0=0 // don't automatically add -songbackground-
;

//---------------dance-single - ----------------
#NOTES:
     dance-single:
     :
     Hard:
     8:
     0.495,0.552,0.262,0.207,0.022: // measure 1
0000
0000
0000
0000
,  // measure 2
0000
0000
0000
0000
,  // measure 3
0000
0000
0000
0000
,  // measure 4
0000
0000
0000
0000
0000
0000
1000
0200
,  // measure 5
0000
0000
0000
0300
0000
0010
0001
0020
,  // measure 6
0000
0000
0000
0000
0030
0100
1000
0200
,  // measure 7
0000
0300
0010
0010
0000
0001
0000
1000
,  // measure 8
0100
0010
0001
1000
0001
0010
0100
1000
,  // measure 9
2000
0000
0000
0000
3000
0100
0010
0002
,  // measure 10
0000
0000
0000
0000
0003
1000
0100
2000
,  // measure 11
0000
3000
0001
0002
0000
0000
0000
0000
,  // measure 12
0000
0000
0003
0000
0000
0100
0100
0100
,  // measure 13
0000
0000
0001
0000
1000
0100
1000
0100
,  // measure 14
0000
1000
1000
0000
0010
0000
0100
0010
,  // measure 15
0000
0001
1000
0100
1000
0001
0100
0001
,  // measure 16
0000
1000
0000
1000
0010
0100
0010
0100
,  // measure 17
0000
0001
0001
0001
0000
1000
0010
0100
,  // measure 18
0000
0100
0100
0100
0000
0001
1000
0001
,  // measure 19
0000
1000
1000
1000
0000
0100
0010
0100
,  // measure 20
0000
0001
1000
0001
0100
0000
1001
0000
,  // measure 21
0000
0010
0100
0010
0000
1000
0001
2000
,  // measure 22
0000
0000
3000
0000
0000
0100
0010
0100
,  // measure 23
0000
0010
1000
0001
0100
0010
1000
0010
,  // measure 24
0000
0100
0001
0000
1000
0100
1000
0010
,  // measure 25
0000
0000
0010
0000
0100
0001
1000
0010
,  // measure 26
0000
0100
0100
0010
0000
1000
0001
0100
,  // measure 27
0000
0010
0100
0010
0100
0000
0000
1000
,  // measure 28
0000
1000
0010
0100
0010
1000
0001
0000
,  // measure 29
0000
0000
1000
0010
1000
0000
0010
0100
0010
0000
0100
0000
0100
0000
0000
0000
,  // measure 30
0000
0001
1000
0001
0000
0010
0010
0000
,  // measure 31
0000
0100
1000
1100
0000
0110
0000
0001
,  // measure 32
0010
0100
1000
0100
1000
0000
0110
0000
,  // measure 33
0101
0000
0010
1000
0010
0000
1000
0100
1000
0000
0100
0000
0100
0000
0000
0000
,  // measure 34
0000
0010
0001
0020
0000
0031
0001
0000
,  // measure 35
0000
0100
0010
0200
0000
0310
0000
2000
,  // measure 36
0000
3100
0010
0001
0010
0100
0010
0000
,  // measure 37
1100
0000
0010
0010
0000
0001
1000
0100
,  // measure 38
0010
0100
0001
0000
0110
0000
1100
0000
,  // measure 39
1000
0001
1000
1000
0000
0010
0100
0001
,  // measure 40
1000
0010
0100
0001
1000
0100
1000
2000
,  // measure 41
0000
0000
0000
3000
0000
0001
0100
0002
,  // measure 42
0000
0000
0000
0000
0003
1000
0010
0200
,  // measure 43
0000
0000
0001
0301
0000
1000
0000
0100
,  // measure 44
1000
0100
0010
0001
0010
0100
1000
0100
,  // measure 45
0020
0000
0000
0000
0030
0001
0010
0002
,  // measure 46
0000
0000
0000
0000
0003
1000
0100
2000
,  // measure 47
0000
3000
0010
0020
0000
0000
0000
0000
,  // measure 48
0000
0000
0000
0030
0000
0100
0010
0100
,  // measure 49
0110
0000
0110
0000
0001
0010
0100
1000
,  // measure 50
1010
0000
0101
0000
1000
0100
0010
0001
,  // measure 51
1100
0000
1100
0000
0001
0100
0010
1000
,  // measure 52
0101
0000
0101
0000
1000
0010
0100
0001
,  // measure 53
0110
0000
0110
0000
1000
0010
0100
0001
,  // measure 54
1001
0000
1001
0000
0010
0100
1000
0010
,  // measure 55
0101
0000
1010
0000
0100
0001
0010
0100
,  // measure 56
1100
0000
0110
0000
0001
0010
0100
2000
,  // measure 57
0000
3000
0000
0000
;

//---------------dance-single - ----------------
#NOTES:
     dance-single:
     :
     Medium:
     5:
     0.336,0.371,0.229,0.207,0.000:
0000
0000
0000
0000
,
0000
0000
0000
0000
,
0000
0000
0000
0000
,
0000
0000
0000
0000
0000
0000
1000
0200
,
0000
0000
0000
0300
0000
0000
0010
0000
,
0002
0000
0003
1000
,
0020
0000
0000
0000
0000
0030
0000
0000
,
1000
0000
0001
0000
1000
0000
0010
0100
,
0020
0000
0000
0000
0030
0000
0000
0200
,
0000
0000
0000
0000
0300
0000
0000
0002
,
0000
0003
1000
1000
0000
0000
0010
0000
,
0100
0010
1000
0000
,
0001
0000
1000
0000
1000
0000
0000
1100
,
0000
0000
0000
0100
,
0010
0001
1000
0001
,
0100
0010
1000
1000
,
0000
1001
0000
1001
0000
0000
0000
0100
,
0000
0110
0000
0110
0000
0000
0000
0001
,
0000
1000
0010
0100
,
0001
0000
1000
0000
0010
1000
0010
0000
,
0100
0100
0001
1000
,
0000
0100
0000
0010
,
0001
0000
1000
0000
1000
0000
0100
0100
,
0000
0010
0001
1000
,
1000
0000
0010
0000
0100
0000
0001
0001
,
0000
1000
0010
1000
0000
0001
0100
0001
,
0000
1000
0010
1000
0010
0000
0000
0000
,
0100
0001
1000
0001
,
0000
1010
1010
1010
,
0000
0001
0100
0010
,
1000
1000
0010
0100
,
0011
0011
0011
0011
,
0000
1000
0010
1010
,
0000
0100
0001
0101
,
0000
1000
1000
0001
,
0100
0000
1010
1010
,
0001
0000
0100
0100
0000
0010
0000
1000
,
0000
0001
1000
0000
0010
0000
0100
0000
,
0001
0000
1000
1000
0000
0010
0000
0100
,
0000
0001
1000
0001
1000
0000
0010
0000
,
0220
0000
0000
0330
0000
0000
0000
2200
,
0000
0000
0000
0000
3300
0000
0000
0022
,
0000
0000
0000
0033
0000
0000
0000
0000
,
1000
0010
1000
0000
0001
0000
0001
0000
,
0200
0000
0000
0300
0000
0000
0000
0020
,
0000
0000
0000
0000
0030
0000
0000
2002
,
0000
3003
2002
0000
0000
0000
0000
0000
,
0000
0000
0000
3003
0000
0000
0100
0000
,
0010
0010
1000
1000
,
0001
0001
1000
0010
,
0100
0000
0100
0000
0001
1000
0001
0000
,
1000
0000
1000
0000
0010
0100
0010
0000
,
0001
0000
0001
0000
1000
0010
0100
0000
,
0001
0000
0001
0000
1000
0010
0100
0000
,
1000
0000
1000
0000
0010
0100
0010
0000
,
0100
0000
0100
0000
0001
0000
1000
0020
,
0000
0000
0000
0030
;

//---------------dance-single - ----------------
#NOTES:
     dance-single:
     :
     Easy:
     3:
     0.254,0.365,0.065,0.142,0.000:
0000
0000
0000
0000
,
0000
0000
0000
0000
,
0000
0000
0000
0000
,
0000
0000
0000
0000
,
2000
0000
3000
0000
,
0020
0000
0030
0000
,
0200
0000
0000
0000
0000
0300
0000
0000
,
0001
0001
0001
0001
,
2000
0000
3000
0000
,
0020
0000
0030
0000
,
0200
0000
0000
0000
,
0000
0000
0300
0000
,
0001
0000
1000
0000
0010
0000
0000
0100
,
0000
0000
0000
0001
,
0001
0000
1000
0000
1000
0000
0000
0110
,
0000
0000
0000
0001
,
1000
0001
0100
0010
,
1000
0010
1000
0001
,
0100
0010
0010
1000
,
0001
1000
1000
1000
,
0000
0000
0000
0010
0000
0000
0000
0110
,
0000
0000
0000
0001
,
0001
1000
1000
0010
,
0100
0000
0001
0000
1000
0000
0010
1000
,
0000
0000
0001
0000
0100
0000
0001
0100
,
0000
0010
0000
0000
,
1000
1000
1000
0000
,
0010
0010
0010
0010
,
0000
0100
0100
0100
,
0000
0001
1000
1000
,
0000
0010
0100
0001
,
1000
0010
0100
0100
,
0000
0001
1000
1000
,
0000
0010
0100
0100
,
0000
0001
1000
0010
,
0100
0001
1000
0001
,
0001
0100
0001
0001
,
0100
0010
0010
0100
,
0010
1000
1000
0001
,
0100
0000
0010
0000
1000
0000
0000
0002
,
0000
0000
0000
0000
0003
0000
0000
2000
,
0000
0000
0000
0000
3000
0000
0000
0020
,
0000
0000
0000
0000
0000
0030
0000
0000
,
0100
0100
0100
0100
,
0002
0000
0000
0000
0003
0000
0000
2000
,
0000
0000
0000
0000
3000
0000
0000
0020
,
0000
0230
0000
0000
,
0000
0000
0300
0000
,
1001
1001
0100
0010
,
0100
0100
0001
1000
,
0110
0110
0001
0001
,
1000
0010
0100
0001
,
1000
1000
0010
0010
,
0100
0100
0001
0001
,
1000
1000
0010
0010
,
0100
0100
0001
0001
;

//---------------dance-single - Copied from----------------
#NOTES:
     dance-single:
     Copied from:
     Beginner:
     1:
     0.075,0.090,0.000,0.000,0.000:
0000
0000
0000
0000
,
0000
0000
0000
0000
,
0000
0000
0000
0000
,
0000
0000
0000
0000
,
1000
0000
0000
0000
0000
0000
0000
0010
,
0000
0000
0000
0000
0000
0000
0000
0100
,
0000
0000
0000
0000
,
0000
0000
0000
0000
,
0001
0000
0000
0000
0000
0000
0000
0100
,
0000
0000
0000
0000
0000
0000
0000
0010
,
0000
0000
0000
0000
,
0000
0000
0000
0000
,
1000
0000
0000
0000
0000
0000
0000
1000
,
0000
0000
0000
0000
0000
0000
0000
0100
,
0000
0000
0000
0000
0000
0000
0000
0100
,
0000
0000
0000
0000
0000
0000
0000
0010
,
0000
0000
0000
0000
0000
0000
0000
0010
,
0000
0000
0000
0000
0000
0000
0000
0001
,
0000
0000
0000
0000
0000
0000
0000
0001
,
0000
0000
0000
0000
,
1000
0000
0000
0000
,
1000
0000
0000
0000
0000
0000
0000
0100
,
0000
0000
0000
0000
0000
0000
0000
0100
,
0000
0000
0000
0000
0000
0000
0000
0010
,
0000
0000
0000
0000
0000
0000
0000
0010
,
0000
0000
0000
0000
0000
0000
0000
0001
,
0000
0000
0000
0000
0000
0000
0000
0001
,
0000
0000
0000
0000
,
1000
0000
0000
0010
,
0000
0000
0000
0000
,
0100
0000
0000
0000
,
0001
0000
0000
0000
,
1000
0000
0000
0010
,
0000
0000
0000
1000
,
0000
0000
0000
0000
,
0001
0000
0000
0000
,
0100
0000
0000
0000
,
0100
0000
0000
0000
,
0010
0000
0000
0000
,
1000
0000
0000
0000
0000
0000
0000
0001
,
0000
0000
0000
0000
0000
0000
0000
0001
,
0000
0000
0000
0000
0000
0000
0000
0001
,
0000
0000
0000
0000
,
0000
0000
0000
0000
,
0100
0000
0000
0000
0000
0000
0000
0100
,
0000
0000
0000
0000
0000
0000
0000
0100
,
0000
0000
0000
0000
,
0000
0000
0000
0000
,
0010
0000
0000
0000
,
1000
0000
0000
0000
,
0010
0000
0000
0000
,
1000
0000
0000
0000
,
0001
0000
0000
0000
,
0001
0000
0000
0000
,
0001
0000
0000
0000
,
0001
0000
0000
0000
;
