#TITLE:Nitro Bot;
#SUBTITLE:;
#ARTIST:Sentai Express;
#TITLETRANSLIT:;
#SUBTITLETRANSLIT:;
#ARTISTTRANSLIT:;
#CREDIT:SupremeX;
#BANNER:Nitro Robot-bn.png;
#BACKGROUND:Nitro Robot-bg.png;
#LYRICSPATH:;
#CDTITLE:;
#MUSIC:Nitro Bot.ogg;
#OFFSET:-0.025;
#SAMPLESTART:36.040;
#SAMPLELENGTH:12.000;
#SELECTABLE:YES;
#BPMS:0.000=112.620;
#STOPS:;
#BGCHANGES:;

//---------------dance-single - ----------------
#NOTES:
     dance-single:
     :
     Hard:
     8:
     0.478,0.585,0.385,0.177,0.858: // measure 1
0000
0000
0000
0000
,  // measure 2
0000
0000
0000
0000
,  // measure 3
0000
0000
0000
0000
,  // measure 4
0000
0000
0000
0000
0000
0000
0000
0000
0000
0000
0000
1000
,  // measure 5
0000
0000
0000
0100
1000
0000
0000
0000
0000
0100
1000
0000
0000
0000
0000
0100
0010
0000
0000
0000
0000
0100
0010
0000
,  // measure 6
0000
0000
0000
0010
0001
0000
0000
0000
0000
0010
0001
0000
0000
0000
0000
0000
0000
0000
0000
0000
0000
1000
0100
0000
,  // measure 7
0000
0000
0000
1000
0100
0000
0000
0000
0000
0100
0010
0000
0000
0000
0000
0100
0010
0000
0000
0000
0000
0010
0001
0000
,  // measure 8
0000
0000
0000
0010
0001
0000
0000
0000
0000
1000
0100
0000
0000
0000
0000
2000
0000
0000
0000
0000
0000
0000
0000
0000
,  // measure 9
0000
0000
0000
0000
0000
0000
0000
3100
,  // measure 10
0000
0000
0100
0010
0100
0010
0000
0000
0001
0000
0010
0000
0100
0000
1000
0000
,  // measure 11
0000
1100
0000
0110
0000
0011
0000
1000
,  // measure 12
0000
0000
0001
0100
0001
0100
0000
0000
0010
0000
1000
0000
0001
0000
1000
0000
,  // measure 13
0010
0110
0000
0001
1000
1100
0000
0010
,  // measure 14
0000
0000
0001
0010
0001
0010
0000
0000
0001
0000
0000
0000
1000
0000
0200
0000
,  // measure 15
0000
0320
0000
0031
1000
0100
0000
1100
,  // measure 16
0000
0000
0100
0010
0100
0010
0000
0000
0001
0000
0000
1000
0000
0000
0001
0000
,  // measure 17
1000
1000
0000
0001
0100
0001
0100
0110
,  // measure 18
0000
0000
2000
0000
3000
0010
1000
0000
1010
0000
0000
0000
0000
0100
0010
0100
,  // measure 19
0000
0001
0000
0010
0000
0001
0000
1000
0000
0100
0000
0010
0000
0001
0000
1000
,  // measure 20
0000
0000
0000
0200
0000
0300
1000
0100
0000
0100
0000
0000
0000
0010
0001
0010
,  // measure 21
0000
0001
0000
0010
0000
0100
0000
0010
0000
0100
0000
1000
0000
0100
0000
1000
,  // measure 22
0000
0000
0000
0200
0000
0300
0010
0100
0000
0110
0000
0000
0000
0010
0001
0010
,  // measure 23
0000
0001
0000
0010
0000
0100
0000
1000
0000
0100
0000
0010
0000
0100
0000
0110
,  // measure 24
0000
0000
0000
0002
0000
0003
0001
0010
0000
0011
0000
0000
0000
0100
1000
0200
,  // measure 25
0000
0000
0000
0320
0000
0000
0000
2030
0000
0000
0000
3100
0000
0000
0000
0011
,  // measure 26
0000
0000
0110
0000
0000
1100
0000
0000
1001
0000
0000
0110
0000
0000
1001
0000
,  // measure 27
0000
0220
0000
0000
0000
0000
0000
0000
0000
0000
0000
0330
0000
0000
0000
1001
,  // measure 28
0000
0000
0000
0200
0000
0000
0000
1300
0000
0100
0000
1000
0000
0100
0000
0010
,  // measure 29
0000
0001
0000
2000
0000
0000
0000
0100
0000
0000
0000
0100
0000
0000
0000
3100
,  // measure 30
0000
0000
0000
1000
0000
0100
0000
1000
0000
0001
0000
0100
0000
0001
0000
1000
,  // measure 31
0000
0100
0000
0020
0000
0000
0000
0001
0000
0000
0000
0001
0000
0000
0000
0031
,  // measure 32
0000
0000
0000
0010
0000
1000
0000
0010
0000
0100
0000
0001
0000
0100
0000
0010
,  // measure 33
0000
1000
0000
0001
0000
0000
0000
1010
0000
0000
0000
0101
0000
0000
0000
1010
,  // measure 34
0000
0000
0000
0100
0000
0001
0000
1000
0000
0001
0000
0010
0000
0100
0000
0010
,  // measure 35
0000
0001
0000
0010
0000
0000
0000
0110
0000
0000
0000
0100
0000
1000
0000
1100
,  // measure 36
0000
0000
0000
0010
0000
0100
0000
0010
0100
0010
0100
0000
0000
0101
0000
0000
,  // measure 37
1010
0000
0000
1001
0000
0010
0000
0100
0010
0100
0010
0000
0000
1000
0000
0100
,  // measure 38
1000
0010
0100
0001
0000
1000
0000
0010
0100
0010
0100
0000
0000
0101
0000
0000
,  // measure 39
1010
0000
0000
1001
0000
0100
0000
0010
0100
0010
0100
0000
0000
0100
0001
1000
,  // measure 40
0010
0100
0001
1000
0000
0100
0000
0010
0001
0010
0001
0000
0000
0110
0000
0000
,  // measure 41
1100
0000
0000
0011
0000
1000
0000
0100
1000
0100
1000
0000
0000
0001
0000
0100
,  // measure 42
0010
1000
0001
0100
0000
0010
0000
1000
0001
1000
0001
0000
0000
0110
0000
0000
,  // measure 43
1100
0000
0000
0110
0000
0000
0001
0100
0001
0100
0000
0000
0010
0000
1000
0000
,  // measure 44
0001
1000
2002
0000
0000
0000
0000
0000
,  // measure 45
0000
0000
0000
0000
,  // measure 46
3003
0000
0000
0000
;

//---------------dance-single - ----------------
#NOTES:
     dance-single:
     :
     Medium:
     6:
     0.337,0.398,0.239,0.156,0.650:
0000
0000
0000
0000
,
0000
0000
0000
0000
,
0000
0000
0000
0000
,
0000
0000
0000
0000
0000
0000
0000
0000
0000
0000
0000
1000
,
0000
0000
1100
0000
0000
1000
0000
0000
0110
0000
0000
0010
,
0000
0000
0011
0000
0000
0001
0000
0000
0000
0000
0000
0100
,
0000
0000
1100
0000
0000
0010
0000
0000
0110
0000
0000
0001
,
0000
0000
0000
0000
1001
0000
0000
0000
0000
0000
0100
0000
0000
0000
0000
2000
0000
0000
0000
0000
0000
0000
0000
0000
,
0000
0000
0000
0000
0000
0000
0000
3100
,
0000
1000
1000
0000
0001
0100
0010
2000
,
0000
3200
0000
2300
0000
3001
0000
0100
,
0000
0010
0010
0000
1000
0100
1000
0100
,
0010
0010
0000
0001
0100
0100
0000
0010
,
0000
0000
1000
0000
1000
0000
0000
0001
0000
0000
0000
0000
1000
0000
0200
0000
,
0000
0320
0000
0032
0000
0103
0000
0101
,
0000
0000
0010
0000
0010
0000
0000
0000
1000
0000
0000
0001
0000
0000
1000
0000
,
0100
0100
0000
1000
0010
0010
0000
0101
,
0000
0000
1000
0000
0000
0010
0100
0000
0100
0000
0000
0000
0000
0001
1000
0001
,
0000
0000
0000
0010
0000
0000
0000
0100
0000
0000
0000
1000
0000
0000
0000
0100
,
0000
0000
0000
0010
0000
0000
0001
0100
0000
0100
0000
0000
0000
0010
1000
0010
,
0000
0000
0000
1000
0000
0000
0000
0010
0000
0000
0000
0100
0000
0000
0000
0100
,
0000
0000
0000
0010
0000
0000
0001
1000
0000
1000
0000
0000
0000
0010
0100
0010
,
0000
0000
0000
0100
0000
0000
0000
0001
0000
0000
0000
1000
0000
0100
0000
0100
,
0000
0000
0000
0010
0000
0000
0001
0010
0000
0010
0000
0000
0000
0100
1000
0100
,
0000
0000
0000
2000
0000
0000
0000
3100
0000
0000
0000
1000
0000
0000
0000
0100
,
0000
0000
0110
0000
0000
0001
0000
0000
0101
0000
0000
0010
0000
0000
1001
0000
,
0000
0220
0000
0000
0000
0000
0000
0000
0000
0000
0000
0330
0000
0000
0000
0001
,
0000
0000
0000
1000
0000
0000
0000
0001
0000
0000
0000
1000
0000
0010
0000
0100
,
0000
0001
0000
0200
0000
0000
0000
0000
0000
0000
0000
0000
0000
0000
0000
0300
,
0000
0000
0000
0010
0000
0000
0000
0010
0000
1000
0000
0100
0000
1000
0000
0100
,
0000
0010
0000
0002
0000
0000
0000
0000
0000
0000
0000
0000
0000
0000
0000
0003
,
0000
0000
0000
0010
0000
0000
0000
0010
0000
0000
0000
0100
0000
1000
0000
0100
,
0000
0000
0000
0010
0000
0000
0000
0011
0000
0000
0000
0100
0000
0000
0000
0110
,
0000
0000
0000
1000
0000
0001
0000
0000
0000
1000
0000
0010
0000
1000
0000
0010
,
0000
0000
0000
0200
0000
0000
0000
0000
0000
0000
0000
0000
0000
0000
0000
0300
,
0000
0000
0000
0010
0000
0001
0000
1000
0000
1000
0000
0000
0000
0010
0000
0000
,
0110
0000
0000
0110
0000
0001
0000
1000
0000
1000
0000
0000
0000
0010
0000
0100
,
0000
0010
0000
0100
0000
0001
0000
1000
0000
1000
0000
0000
0000
0001
0000
0000
,
0110
0000
0000
1100
0000
0010
0000
0000
0000
0001
0000
0000
0000
0100
0000
0000
,
0000
0010
0000
0000
0000
1000
0000
0010
0000
0010
0000
0000
0000
0100
0000
0000
,
1100
0000
0000
0011
0000
1000
0000
0100
0000
0100
0000
0000
0000
0010
0000
0000
,
0000
0001
0000
0000
0000
0010
0000
0100
0000
0100
0000
0000
0000
1000
0000
0000
,
1100
0000
0000
0110
0000
0000
0000
0001
0000
0001
0000
0000
1000
0000
0100
0000
,
0010
0001
0220
0000
0000
0000
0000
0000
,
0000
0000
0000
0000
,
0330
0000
0000
0000
;

//---------------dance-single - ----------------
#NOTES:
     dance-single:
     :
     Easy:
     3:
     0.230,0.210,0.052,0.083,0.380:
0000
0000
0000
0000
,
0000
0000
0000
0000
0000
0000
0000
0000
0000
0000
0000
1000
,
0000
0000
1000
0000
0000
0010
0000
0000
0010
0000
0000
0100
,
0000
0000
0100
0000
0000
0001
0000
0000
0001
0000
0000
1000
,
0000
0000
1000
0000
0000
0010
0000
0000
0010
0000
0000
0100
,
0000
0000
0100
0000
0000
0001
0000
0000
0001
0000
0000
1000
,
0000
0000
1000
0000
0000
0010
0000
0000
0010
0000
0000
0100
,
0000
0000
0000
0000
0100
0000
0000
0000
0000
0000
0001
0000
0000
0000
0000
0002
0000
0000
0000
0000
0000
0000
0000
0000
,
0000
0000
0000
0000
0000
0000
0003
1000
,
0000
0010
0000
0100
0000
0001
0000
1000
,
0000
1000
0000
0010
0000
0010
0000
0100
,
0000
0001
0000
0100
0000
0010
0000
1000
,
0000
1000
0000
0001
0000
0001
0000
0100
,
0000
0010
0000
1000
0000
0010
0000
0100
,
0000
0100
0000
0001
0000
0001
0000
1000
,
0000
0010
0000
0100
0000
0010
0000
1000
,
0000
1000
0000
0001
0000
0001
0000
0100
,
0000
0000
0000
0010
0000
0000
0000
0010
0000
0000
0000
0000
0000
0000
0000
1000
,
0000
0000
0000
0001
0000
0000
0000
1000
0000
0000
0000
0001
0000
0000
0000
0100
,
0000
0000
0000
0010
0000
0000
0000
1010
0000
0000
0000
0000
0000
0000
0000
0100
,
0000
0000
0000
0001
0000
0000
0000
1000
0000
0000
0000
0010
0000
0000
0000
0100
,
0000
0000
0000
0001
0000
0000
0000
0001
0000
0000
0000
0000
0000
0000
0000
1000
,
0000
0000
0000
0010
0000
0000
0000
0100
0000
0000
0000
0001
0000
0000
0000
1000
,
0000
0000
0000
0010
0000
0000
0000
0110
0000
0000
0000
0000
0000
0000
0000
1000
,
0000
0000
0000
0000
0000
0000
0000
0110
0000
0000
0000
0000
0000
0000
0000
0000
,
0001
0000
0000
0000
0000
0000
0000
0000
0000
0000
0000
0001
0000
0000
0000
0000
0000
0000
0000
0000
0000
0000
1000
0000
0000
0000
0000
0000
0000
0000
0000
0000
,
0220
0000
0000
0330
,
0000
0000
0000
1000
0000
0000
0000
1000
0000
0000
0000
1000
0000
0000
0000
1000
,
0000
0000
0000
0002
0000
0000
0000
0000
0000
0000
0000
0000
0003
0000
0000
0000
,
0000
0000
0000
1000
0000
0000
0000
0010
0000
0000
0000
0100
0000
0000
0000
0010
,
0000
0000
0000
0200
0000
0000
0000
0000
0000
0000
0300
0000
0000
0000
0000
0000
,
0000
0000
0000
0010
0000
0000
0000
0001
0000
0000
0000
0010
0000
0000
0000
0001
,
0000
0000
0000
0001
0000
0000
0000
0001
0000
0000
0000
0001
0000
0000
0000
0001
,
0000
0000
0000
1000
0000
0000
0000
0001
0000
0000
0000
1000
0000
0000
0000
0001
,
0000
0000
0000
2000
0000
0000
0000
0000
0000
0000
0000
0000
0000
0000
0000
3000
,
0000
0010
0010
0100
,
0100
0001
1000
0010
,
1000
0001
0100
0010
,
1000
0001
0100
0010
,
0010
1000
0001
0100
,
0010
0100
0001
1000
,
0001
1000
0010
0100
,
0001
1000
0010
0100
,
0010
2002
0000
0000
,
0000
0000
0000
0000
0000
0000
0000
0000
0000
0000
0000
0000
0000
3003
0000
0000
;

//---------------dance-single - Copied from----------------
#NOTES:
     dance-single:
     Copied from:
     Beginner:
     1:
     0.061,0.067,0.010,0.021,0.130:
0000
0000
0000
0000
,
0000
0000
0000
0000
0000
0000
0000
0000
0000
0000
0000
0000
0000
0000
0000
1000
,
0000
0000
0000
0000
,
0000
0000
0000
0000
0000
0000
0000
0000
0000
0000
0000
0000
0000
0000
0000
0001
,
0000
0000
0000
0000
,
0000
0000
0000
0000
0000
0000
0000
0000
0000
0000
0000
0000
0000
0000
0000
1000
,
0000
0000
0000
0000
,
0000
0000
0000
0000
0000
0002
0000
0000
,
0000
0000
0000
0000
0000
0000
0000
0003
,
0000
0000
0000
0000
0000
0000
0000
0100
,
0000
0000
0000
0000
0000
0000
0000
0000
0000
0000
0000
0000
0000
0000
0000
0010
,
0000
0000
0000
0000
0000
0000
0000
0000
0000
0000
0000
0000
0000
0000
0000
1000
,
0000
0000
0000
0000
0000
0000
0000
0000
0000
0000
0000
0000
0000
0000
0000
0001
,
0000
0000
0000
0000
0000
0000
0000
0000
0000
0000
0000
0000
0000
0000
0000
0100
,
0000
0000
0000
0000
0000
0000
0000
0000
0000
0000
0000
0000
0000
0000
0000
0010
,
0000
0000
0000
0000
0000
0000
0000
0000
0000
0000
0000
0000
0000
0000
0000
1000
,
0000
0000
0000
0000
0000
0000
0000
0000
0000
0000
0000
0000
0000
0000
0000
0001
,
0000
0000
0000
0000
0000
0000
0000
0000
0000
0000
0000
0000
0000
0000
0000
1000
,
0000
0000
0000
0000
0000
0000
0000
0000
0000
0000
0000
0000
0000
0000
0000
0010
,
0000
0000
0000
0000
0000
0000
0000
0000
0000
0000
0000
0000
0000
0000
0000
0100
,
0000
0000
0000
0000
0000
0000
0000
0000
0000
0000
0000
0000
0000
0000
0000
0001
,
0000
0000
0000
0000
0000
0000
0000
0000
0000
0000
0000
0000
0000
0000
0000
1000
,
0000
0000
0000
0000
0000
0000
0000
0000
0000
0000
0000
0000
0000
0000
0000
0010
,
0000
0000
0000
0000
0000
0000
0000
0000
0000
0000
0000
0000
0000
0000
0000
0100
,
0000
0000
0000
0000
,
0001
0000
0000
0000
,
0000
0200
0000
0000
0000
0000
0000
0300
,
0000
0000
0000
0010
0000
0000
0000
0000
0000
0000
0000
0000
0000
0000
0000
0000
,
0000
0000
0000
0010
0000
0000
0000
0000
0000
0000
0000
0000
0000
0000
0000
0000
,
0000
0000
0000
1000
0000
0000
0000
0000
0000
0000
0000
0000
0000
0000
0000
0000
,
0000
0000
0000
1000
0000
0000
0000
0000
0000
0000
0000
0000
0000
0000
0000
0000
,
0000
0000
0000
0001
0000
0000
0000
0000
0000
0000
0000
0000
0000
0000
0000
0000
,
0000
0000
0000
0001
0000
0000
0000
0000
0000
0000
0000
0000
0000
0000
0000
0000
,
0000
0000
0000
0100
0000
0000
0000
0000
0000
0000
0000
0000
0000
0000
0000
0000
,
0000
0000
0000
0100
0000
0000
0000
0000
0000
0000
0000
0000
0000
0000
0000
0000
,
0000
0010
0000
0000
,
0000
0000
1000
0000
,
0000
0000
0010
0000
,
0000
0000
1000
0000
,
0000
0001
0000
0000
,
0000
0100
0000
0000
,
0000
0001
0000
0000
,
0000
0100
0000
0000
,
0000
1001
0000
0000
;
