#TITLE:虹色遊園地;
#SUBTITLE:;
#ARTIST:Mutsuhiko Izumi VS DJ TOTTO;
#TITLETRANSLIT:Nijiiro yuenchi;
#SUBTITLETRANSLIT:;
#ARTISTTRANSLIT:;
#GENRE:;
#CREDIT:SupremeX;
#BANNER:Nijiiro yuenchi-bn.png;
#BACKGROUND:Nijiiro yuenchi-bg.png;
#LYRICSPATH:;
#CDTITLE:;
#MUSIC:Nijiiro yuenchi.ogg;
#OFFSET:-1.164005;
#SAMPLESTART:10.120000;
#SAMPLELENGTH:12.000000;
#SELECTABLE:YES;
#BPMS:0.000000=220.001007
;
#STOPS:
;
#BGCHANGES:-3.000=Nijiiro yuenchi.avi=1.000=1=0=0=StretchNoLoop==CrossFade==,
99999=-nosongbg-=1.000=0=0=0 // don't automatically add -songbackground-
;
#KEYSOUNDS:;
#ATTACKS:;

//---------------dance-single - ----------------
#NOTES:
     dance-single:
     :
     Hard:
     9:
     0.747980,0.729941,0.146344,0.252037,0.016260,644.000000,626.000000,18.000000,31.000000,0.000000,0.000000,0.747980,0.729941,0.146344,0.252037,0.016260,644.000000,626.000000,18.000000,31.000000,0.000000,0.000000:
0000
0000
0000
0000
,
0000
0000
0000
0000
,
0000
0000
0000
0000
,
0000
0000
0000
0000
,
0000
0000
0000
0000
,
0000
0000
0000
0000
,
0000
0000
0000
0000
,
0000
0000
0000
0000
0000
0100
0000
0010
,
0010
0000
1000
0100
0010
0100
1000
0010
,
1000
0010
1000
0010
1000
0010
0100
0001
,
0100
0001
0100
0001
0100
0001
1000
0100
,
0010
0001
0010
0100
1000
0001
1000
0010
,
0100
0001
1000
0010
0000
0100
0001
0100
,
0001
0100
0001
0100
0010
1000
0010
1000
,
0010
1000
0001
0010
0100
1000
0100
0010
,
0001
1000
0010
0100
0001
2000
0000
0100
,
3100
0000
1000
0100
1000
0001
1000
0100
,
2000
0000
3100
0000
1000
0100
0010
0001
,
0020
0000
0031
0000
0001
1000
0010
0100
,
0020
0000
1030
0000
0100
1000
0100
1000
,
0010
0100
0010
0100
0000
0010
0001
0010
,
0002
0000
0103
0000
0001
0010
0100
1000
,
0200
0000
1300
0000
1000
0100
1000
0001
,
1000
0100
1000
0001
1000
0100
1000
0001
,
0100
0100
0000
0001
0010
0100
1000
0001
,
0100
0010
1000
0001
0010
0100
1000
0100
,
0010
0001
1000
0010
0100
0001
1000
0010
,
0100
0010
0100
0001
1000
0001
0100
0010
,
1000
0001
0100
0010
0000
1000
0001
1000
,
0100
0010
0001
0010
0100
1000
0010
0100
,
0001
1000
0010
0100
0001
0100
0010
1000
,
0010
0100
0001
0100
0010
1000
0001
0100
,
0001
1000
0001
0100
0010
1000
0100
0010
,
0002
0000
0103
0000
0010
1000
0010
0100
,
0020
0000
0130
0000
0010
1000
0001
0100
,
0002
0000
1003
0000
0100
1000
0100
0010
,
0002
0000
1003
0000
0000
0100
1000
0100
,
0020
0000
0130
0000
0010
0100
0001
0100
,
0002
0000
1003
0000
0100
1000
0100
0010
,
0100
0010
0001
0100
0001
1000
0010
0100
,
0010
0000
1000
0100
0010
0001
0010
0100
,
1000
0100
0100
0100
1000
0100
0010
0001
,
0100
0001
0001
0001
0100
0010
1000
0001
,
1000
0010
0010
0010
1000
0100
0010
0001
,
1000
0100
1000
0100
0000
0010
0010
0100
,
0001
0100
0010
1000
1000
1000
0010
0100
,
0001
1000
0001
0100
0100
0100
0010
1000
,
0001
1000
0010
0100
0100
0000
1010
0000
,
0101
0000
1001
0000
0010
0100
1000
0100
,
0010
0000
0001
0100
0010
0100
0001
1000
,
0000
0101
0000
1000
0010
1000
0010
0100
,
0001
0100
0001
1000
0100
1000
0001
0100
,
0010
0200
0000
0300
0000
0010
1000
0001
,
1000
0000
0110
0000
0001
0100
0000
0010
,
1000
0000
0110
0000
0001
0010
0100
1000
,
0010
0100
0001
1000
0001
0100
0010
0100
,
0010
1000
0000
0110
0000
0001
0100
0010
,
0000
1001
0000
0100
0010
0100
0000
0001
,
0100
0000
0010
1000
0000
0010
0100
0001
,
0100
0010
1000
0010
0100
0001
1000
0100
,
0010
0000
0011
0000
0000
0100
1000
0010
,
0000
0010
1000
0100
0010
0001
0010
0100
,
2000
0000
3100
0000
0000
0010
0010
0001
,
0100
0100
0010
1000
1000
0001
0010
0100
,
1000
0010
1000
0001
0010
0001
1000
0100
,
0010
0100
1000
0100
0010
0001
1000
0010
,
0100
0010
1000
0010
0100
0001
0010
0100
,
0010
0001
0100
0010
0100
0010
1000
0010
,
0100
0010
0100
0010
1000
0100
0010
0001
,
0010
0100
0010
0001
0010
0100
1000
0100
,
1000
0100
0010
0001
0010
0100
1000
0010
,
1000
0010
0100
0010
0200
0000
0000
0000
,
0000
0000
0000
0000
0000
0000
0000
0000
0000
0000
0000
0000
0000
0000
0000
0010
,
0000
0000
0320
0000
0000
0000
0000
0000
0000
1000
0000
0000
2030
0000
0000
0000
,
0000
0000
0000
0001
0000
0000
3002
0000
0000
0000
0000
0000
0000
0000
2003
0000
,
0000
0000
0000
0000
0000
3010
0000
0000
0000
0000
0220
0000
0000
0000
0000
0000
,
0000
0000
0000
0000
,
0000
0000
0330
0000
0000
0001
1000
0100
,
1000
0100
0010
0001
0010
0200
0000
1300
,
0100
1000
0100
0010
0001
0020
0000
0031
,
0010
0100
1000
0100
1000
0200
0000
1300
,
0100
1000
0001
0100
0001
2000
0000
0000
,
0000
0000
0000
0000
0000
3200
0000
0000
,
0000
0000
0000
0000
0300
0010
0001
0010
,
0100
0000
1001
0000
0100
1000
0100
0010
,
0100
0000
0110
0000
0001
1000
0100
1000
,
0100
0000
0011
0000
0100
1000
0100
1000
,
0200
0000
0310
0000
0000
0010
0001
0010
,
0001
0000
1001
0000
0010
0100
1000
0100
,
0010
0000
0110
0000
0001
0010
0100
1000
,
0000
0100
1000
0100
0000
0010
0001
1000
,
0001
1000
0002
0000
0003
1000
0100
1000
,
0100
1000
0001
0010
0100
0010
0001
0010
,
0100
0010
1000
0001
1000
0010
0100
0001
,
1000
0010
0100
0001
1000
0100
1000
0100
,
1000
0010
0100
0010
0100
0001
1000
0001
,
1000
0001
1000
0010
0100
0010
0100
0010
,
1000
0001
0100
0001
1000
0100
1000
0100
,
0010
0001
0010
0001
1000
0100
1000
0100
,
0010
0001
0010
0001
0010
0100
1000
0001
,
0100
0010
1000
0001
0100
0010
1000
0001
,
0100
0010
1000
0010
0100
0020
0000
0000
,
0000
0000
0000
0000
0030
1000
0100
0010
,
0001
0000
1100
0000
0110
0000
0001
2002
,
0000
0000
0000
0000
,
0000
0000
0000
0000
0000
3003
0000
0000
;

//---------------dance-single - ----------------
#NOTES:
     dance-single:
     :
     Medium:
     8:
     0.609766,0.729077,0.186995,0.105693,0.000000,525.000000,502.000000,23.000000,13.000000,0.000000,0.000000,0.609766,0.729077,0.186995,0.105693,0.000000,525.000000,502.000000,23.000000,13.000000,0.000000,0.000000:
0000
0000
0000
0000
,
0000
0000
0000
0000
,
0000
0000
0000
0000
,
0000
0000
0000
0000
,
0000
0000
0000
0000
,
0000
0000
0000
0000
,
0000
0000
0000
0000
,
0000
0000
0000
0000
0000
0010
0000
1000
,
1000
0000
0001
0010
0100
1000
0000
0010
,
0100
0010
0000
1000
0000
0001
0100
0001
,
0100
0000
0010
0000
1000
0001
0010
0100
,
1000
0000
0001
0000
1000
0010
0100
0010
,
0000
1000
0001
1000
0000
0001
0100
0001
,
0100
0000
0010
0000
1000
0010
1000
0010
,
0100
0000
0100
0000
0001
0010
0100
0010
,
0001
0010
0100
0010
0001
0100
0010
0100
,
0010
0000
1000
0100
1000
0100
0000
0010
,
0001
0000
0100
0000
0001
1000
0001
1000
,
0001
0000
1001
0000
0010
0100
0010
0100
,
0010
0000
0110
0000
1000
0100
0010
0000
,
0001
0010
0100
0000
0000
1000
0100
1000
,
0100
0000
0110
0000
0001
0010
0100
0010
,
0001
0000
0011
0000
0100
1000
0100
1000
,
0100
0010
0100
0010
0000
0001
0010
0001
,
0010
0000
0100
0000
0000
1000
0100
1000
,
0100
1000
0100
1000
0000
0010
0100
0010
,
0100
0010
0100
0010
0000
1000
0001
1000
,
0001
1000
0001
1000
0000
0010
0100
0010
,
0100
0010
0100
0010
0000
1000
0100
0010
,
0100
1000
0100
0010
0000
0001
0010
0100
,
0010
0001
0010
0100
0010
0002
0000
0000
,
0000
2003
0000
0000
0000
3200
0000
0000
,
0000
0300
0000
0000
0010
0001
0010
0001
,
0010
0000
0001
0000
1000
0100
1000
0100
,
1000
0000
0001
0000
0100
0010
0100
0010
,
1000
0000
0001
0000
0000
1000
0100
1000
,
0000
0001
1000
0001
0000
0100
0010
0100
,
0010
0000
0100
0000
0001
0010
0001
0010
,
0001
0000
0010
0000
0100
1000
0100
1000
,
0100
0010
0001
0000
1000
0000
0100
0100
,
0000
0000
1000
0100
,
0010
0001
0010
0001
0010
0000
0001
0000
,
1000
0100
1000
0100
1000
0000
0100
0000
,
0010
0001
0010
0001
0010
0100
1000
0100
,
0010
0100
0100
0000
1000
0000
0100
0000
,
0010
0100
0001
0100
0010
0000
0100
0000
,
0001
0100
0001
0100
0001
0000
1001
0000
,
0100
0010
0100
0010
0100
0000
0001
0000
,
0110
1100
0000
0010
,
0001
0000
0001
0000
0000
1000
0000
0000
,
1000
0000
0010
0000
0010
0100
0001
0100
,
0000
0010
1000
0010
0000
0100
0000
0001
,
0010
0100
1000
0100
0000
0010
0001
0010
,
0000
0000
0100
1000
0000
1000
0100
0000
,
0010
0000
0010
0000
0001
0010
0001
0010
,
0001
0100
0001
0100
0001
1000
0100
1000
,
0100
1000
0100
0010
0000
0001
0000
0010
,
0100
0000
0110
0000
0000
1000
0100
1000
,
0000
0200
0000
0310
0000
0001
0000
0010
,
0100
0000
1100
0000
0000
0010
0001
0010
,
0100
0010
0000
0000
0001
0000
0100
0020
,
0000
0130
0000
0000
0010
0000
1000
0100
,
0000
1100
0000
0000
0000
0010
0001
0010
,
0100
0010
0001
1000
0100
0010
0100
1000
,
0100
0000
1000
0100
1000
0001
0100
0010
,
0100
0010
0100
0001
0000
1000
0100
0010
,
0100
1000
0100
0010
0000
0001
0010
0100
,
0010
0001
0010
0100
0000
1000
0100
1000
,
0100
1000
0100
1000
0000
0010
0100
0010
,
0100
0010
0100
0010
0000
0100
0001
0100
,
0001
0100
0001
0100
0020
0000
0000
0000
,
0000
0000
0000
0000
,
0030
0000
0000
0000
,
0000
1000
0000
0000
0000
0000
1000
0000
,
0000
0000
0000
0010
0000
0000
0000
0100
,
0000
0000
0000
0001
0000
0020
0000
0000
,
0000
0000
0000
0000
,
0030
0000
0000
0000
0000
0100
0000
1000
,
0000
0100
0000
0010
0000
0100
0000
1000
,
0000
0100
0000
0010
0000
0001
0000
0010
,
0000
0100
0000
1000
0000
0001
0000
1000
,
0000
0001
0000
1000
0000
2200
0000
0000
,
0000
0000
0000
0000
,
0000
3300
0000
0000
0000
0010
0001
0010
,
0001
0000
0110
0000
1000
0100
1000
0100
,
0010
0000
0011
0000
1000
0100
1000
0100
,
0010
0000
0110
0000
0001
0010
0100
1000
,
0100
0000
1100
0000
0000
0010
0001
0010
,
0001
0000
0110
0000
1000
0100
1000
0100
,
1000
0000
0101
0000
1000
0010
1000
0010
,
0100
0001
0100
0001
0000
1000
0010
1000
,
0010
1000
0000
0000
0000
0001
0010
0100
,
0010
0001
0010
0100
0010
0001
0000
1100
,
0000
0110
0000
0000
0010
0001
0010
0100
,
0010
0001
0010
0100
0010
1000
0000
0110
,
0000
1001
0000
0101
0000
0010
1000
0010
,
1000
0001
0100
0001
0100
0010
1000
0010
,
1000
0001
1000
0001
0000
0100
0010
0100
,
0010
1000
0001
1000
0000
0010
0100
0010
,
0100
0001
1000
0001
1000
0020
0000
0000
,
0000
0000
0000
0000
,
0000
0000
0000
0000
0000
0230
0000
0000
,
0000
0000
0000
0000
0000
0301
1000
0100
,
1000
0000
0100
0000
0010
0000
0001
2002
,
0000
0000
0000
0000
,
0000
0000
3003
0000
;

//---------------dance-single - ----------------
#NOTES:
     dance-single:
     :
     Easy:
     4:
     0.378636,0.386439,0.016260,0.048781,0.004065,326.000000,324.000000,2.000000,6.000000,0.000000,0.000000,0.378636,0.386439,0.016260,0.048781,0.004065,326.000000,324.000000,2.000000,6.000000,0.000000,0.000000:
0000
0000
0000
0000
,
0000
0000
0000
0000
,
0000
0000
0000
0000
,
0000
0000
0000
0000
,
0000
0000
0000
0000
,
0000
0000
0000
0000
,
0000
0000
0000
0000
,
0000
0000
0000
0000
0000
0000
0000
1000
,
0000
0000
0000
0000
0000
0010
0000
0100
,
0000
0010
0000
1000
0000
0010
0000
0100
,
0000
0010
0000
1000
0000
0010
0000
0100
,
0000
0001
0000
1000
0000
0001
0000
0001
,
0000
1000
0000
1000
0000
0010
0000
0100
,
0000
0010
0000
1000
0000
0010
0000
0100
,
0000
0001
0000
0010
0000
0100
0000
1000
,
0000
0010
0000
0100
0000
0010
0000
1000
,
0000
1000
0000
0000
0000
0001
0000
0100
,
0000
0010
0000
0010
0000
1000
0000
0010
,
0000
0100
0000
0100
0000
0001
0000
0010
,
0000
0100
0000
0100
0000
0010
0000
1000
,
0000
0010
0000
1000
0000
0001
0000
0100
,
0000
0010
0000
0010
0000
1000
0000
0001
,
0000
1000
0000
1000
0000
0010
0000
0100
,
0000
0010
0000
1000
0000
0001
0000
0100
,
0000
0100
0000
0000
0000
0010
0000
1000
,
0000
0010
0000
1000
0000
0010
0000
0010
,
0000
0010
0000
0100
0000
0100
0000
0100
,
0000
0100
0000
0100
0000
0001
0000
0001
,
0000
0001
0000
0001
0000
1000
0000
0010
,
0000
1000
0000
0010
0000
0100
0000
0001
,
0000
0100
0000
0001
0000
2000
0000
0000
,
0000
0000
0000
0000
,
0000
0000
0000
3000
0000
0001
0000
0010
,
0000
0100
0000
0100
0000
0010
0000
1000
,
0000
0010
0000
0010
0000
0100
0000
0001
,
0000
0100
0000
0100
0000
0010
0000
1000
,
0000
0010
0000
1000
0000
0001
0000
0100
,
0000
0010
0000
0010
0000
1000
0000
0001
,
0000
0100
0000
0100
0000
0010
0000
1000
,
0000
0010
0000
0100
0000
0001
0000
0100
,
0000
0100
0000
0000
0000
0010
0000
1000
,
0000
0010
0000
0100
0000
0001
0000
0010
,
0000
0100
0000
1000
0000
0010
0000
0100
,
0000
0001
0000
1000
0000
0010
0000
1000
,
0000
0010
0000
1000
0000
0010
0000
0100
,
0000
0001
0000
1000
0000
0010
0000
0100
,
0000
0010
0000
1000
0000
0001
0000
1000
,
0000
0010
0000
0100
0000
0000
0001
0000
,
0001
0000
0001
0000
0000
0000
0000
1000
,
0000
0010
0000
0000
0000
0100
0000
0010
,
0000
1000
0000
0010
0000
0100
0000
0100
,
0000
0001
0000
0001
0000
1000
0000
0010
,
0000
0100
0000
0010
0000
1000
0000
0001
,
0000
0100
0000
0010
0000
1000
0000
0010
,
0000
1000
0000
0001
0000
0100
0000
0010
,
0000
1000
0000
0010
0000
0100
0000
0010
,
0000
0100
0000
0000
0000
0001
0000
0001
,
0000
0001
0000
0001
0000
1000
0000
1000
,
0000
1000
0000
1000
0000
0010
0000
0100
,
0000
0010
0000
0100
0000
0010
0000
0010
,
0000
0010
0000
0000
0000
1000
0000
0010
,
0000
0100
0000
0010
0000
1000
0000
1000
,
0000
1000
0000
0000
0000
0001
0000
0100
,
0000
0010
0000
1000
0000
0010
0000
0010
,
0000
0010
0000
0000
0000
1000
0000
0001
,
0000
1000
0000
0001
0000
0100
0000
0001
,
0000
1000
0000
0001
0000
0100
0000
0010
,
0000
1000
0000
0010
0000
0100
0000
0100
,
0000
0100
0000
0100
0000
0001
0000
0010
,
0000
0100
0000
1000
0000
0010
0000
0100
,
0000
0010
0000
0100
0000
0002
0000
0000
,
0000
0000
0000
0000
,
0003
0000
0000
0000
,
0000
0000
1000
0000
0000
0000
0000
0010
,
0000
0000
0100
0000
,
0001
0000
0000
0000
0000
0000
1000
0000
0000
0000
0000
0010
0000
0000
0000
0000
,
0000
0000
0000
0000
,
0000
0000
0000
0000
0000
1000
0000
0000
,
0000
0000
0000
0000
0000
0010
0000
0000
,
0000
0000
0000
0000
0000
0100
0000
0000
,
0000
0000
0001
0000
0000
1000
0000
0000
,
0000
0001
0000
0000
0000
0202
0000
0000
,
0000
0000
0000
0000
,
0000
0003
0300
0000
0000
1000
0000
0010
,
0000
1000
0000
0010
0000
0100
0000
0100
,
0000
0100
0000
0001
0000
1000
0000
0001
,
0000
1000
0000
0001
0000
0010
0000
0100
,
0000
0010
0000
0100
0000
0010
0000
1000
,
0000
1000
0000
1000
0000
0001
0000
0100
,
0000
0010
0000
0010
0000
1000
0000
0001
,
0000
1000
0000
0001
0000
0100
0000
0100
,
0000
0100
0000
0000
0000
0010
0000
1000
,
0000
0010
0000
0100
0000
0010
0000
1000
,
0000
0010
0000
0100
0000
0010
0000
0100
,
0000
0001
0000
0100
0000
0010
0000
0100
,
0000
0010
0000
1000
0000
0010
0000
0100
,
0000
0001
0000
0010
0000
0100
0000
1000
,
0000
0010
0000
0100
0000
0010
0000
1000
,
0000
0010
0000
0100
0000
0010
0000
1000
,
0000
0001
0000
0100
0000
0010
0000
1000
,
0000
0001
0000
0100
0000
0010
0000
1000
,
0000
0010
0000
0100
0000
0001
0000
0000
,
0000
0000
0000
0000
0000
1000
0000
0000
,
0010
0000
0100
0000
0010
0000
1000
2002
,
0000
0000
0000
0000
,
0000
0000
0000
0000
0000
3003
0000
0000
;

//---------------dance-single - Copied from----------------
#NOTES:
     dance-single:
     Copied from:
     Beginner:
     2:
     0.109177,0.171751,0.024391,0.048781,0.000000,94.000000,91.000000,3.000000,6.000000,0.000000,0.000000,0.109177,0.171751,0.024391,0.048781,0.000000,94.000000,91.000000,3.000000,6.000000,0.000000,0.000000:
0000
0000
0000
0000
,
0000
0000
0000
0000
,
0000
0000
0000
0000
,
0000
0000
0000
0000
,
0000
0000
0000
0000
,
0000
0000
0000
0000
,
0000
0000
0000
0000
,
0000
0000
0000
0000
0000
1000
0000
0000
,
0000
0000
0000
0000
0000
0001
0000
0000
,
0000
0000
0000
0000
0000
1000
0000
0000
,
0000
0000
0000
0000
0000
0010
0000
0000
,
0000
0000
0000
0000
0000
0100
0000
0000
,
0000
0000
0000
0000
0000
0001
0000
0000
,
0000
0000
0000
0000
0000
1000
0000
0000
,
0000
0000
0000
0000
0000
0010
0000
0000
,
0000
0000
0000
0000
0000
0100
0000
0000
,
0000
0000
0000
0000
0000
0001
0000
0000
,
0000
0000
0000
0000
0000
0001
0000
0000
,
0000
0000
0000
0000
0000
0001
0000
0000
,
0000
0000
0000
0000
0000
1000
0000
0000
,
0000
0000
0000
0000
0000
0010
0000
0000
,
0000
0000
0000
0000
0000
0010
0000
0000
,
0000
0000
0000
0000
0000
0010
0000
0000
,
0000
0000
0000
0000
0000
0100
0000
0000
,
0000
0000
0000
0000
0000
1000
0000
0000
,
0000
0000
0000
0000
0000
1000
0000
0000
,
0000
0000
0000
0000
0000
0100
0000
0000
,
0000
0000
0000
0000
0000
0100
0000
0000
,
0000
0000
0000
0000
0000
0010
0000
0000
,
0000
0000
0000
0000
0000
0010
0000
0000
,
0000
0000
0000
0000
0000
0002
0000
0000
,
0000
0000
0000
0000
0000
0000
0000
0003
,
0000
0000
0000
0000
0000
1000
0000
0000
,
0000
0000
0000
0000
0000
1000
0000
0000
,
0000
0000
0000
0000
0000
1000
0000
0000
,
0000
0000
0000
0000
0000
1000
0000
0000
,
0000
0000
0000
0000
0000
0010
0000
0000
,
0000
0000
0000
0000
0000
0010
0000
0000
,
0000
0000
0000
0000
0000
0010
0000
0000
,
0000
0000
0000
0000
0000
0010
0000
0000
,
0000
0000
0000
0000
0000
0100
0000
0000
,
0000
0000
0000
0000
0000
0100
0000
0000
,
0000
0000
0000
0000
0000
0100
0000
0000
,
0000
0000
0000
0000
0000
0100
0000
0000
,
0000
0000
0000
0000
0000
0010
0000
0000
,
0000
0000
0000
0000
0000
0010
0000
0000
,
0000
0000
0000
0000
0000
0010
0000
0000
,
0000
0000
0000
0000
0000
0010
0000
0000
,
0000
0000
0000
0000
0000
0001
0000
0000
,
0000
0000
0000
0000
0000
0001
0000
0000
,
0000
0000
0000
0000
0000
0001
0000
0000
,
0000
0000
0000
0000
0000
0001
0000
0000
,
0000
0000
0000
0000
0000
1000
0000
0000
,
0000
0000
0000
0000
0000
1000
0000
0000
,
0000
0000
0000
0000
0000
1000
0000
0000
,
0000
0000
0000
0000
0000
1000
0000
0000
,
0000
0000
0000
0000
0000
0010
0000
0000
,
0000
0000
0000
0000
0000
0010
0000
0000
,
0000
0000
0000
0000
0000
0010
0000
0000
,
0000
0000
0000
0000
0000
0010
0000
0000
,
0000
0000
0000
0000
0000
0100
0000
0000
,
0000
0000
0000
0000
0000
0100
0000
0000
,
0000
0000
0000
0000
0000
0100
0000
0000
,
0000
0000
0000
0000
0000
0100
0000
0000
,
0000
0000
0000
0000
0000
0010
0000
0000
,
0000
0000
0000
0000
0000
0010
0000
0000
,
0000
0000
0000
0000
0000
1000
0000
0000
,
0000
0000
0000
0000
0000
1000
0000
0000
,
0000
0000
0000
0000
0000
0001
0000
0000
,
0000
0000
0000
0000
0000
0001
0000
0000
,
0000
0000
0000
0000
0000
2000
0000
0000
,
0000
0000
0000
0000
,
3000
0000
0000
0000
,
0000
0010
0000
0000
,
0000
0000
0000
0100
0000
0000
0000
0000
,
0000
0000
0010
0000
,
0000
0000
0000
0000
,
0000
0000
0000
0000
0000
0100
0000
0000
,
0000
0000
0000
0000
0000
0010
0000
0000
,
0000
0000
0000
0000
0000
0100
0000
0000
,
0000
0000
0000
0000
0000
0010
0000
0000
,
0000
0000
0000
0000
0000
2002
0000
0000
,
0000
0000
0000
0000
0000
0000
0000
3003
,
0000
0000
0000
0000
0000
0100
0000
0000
,
0000
0000
0000
0000
0000
0010
0000
0000
,
0000
0000
0000
0000
0000
0100
0000
0000
,
0000
0000
0000
0000
0000
0010
0000
0000
,
0000
0000
0000
0000
0000
1000
0000
0000
,
0000
0000
0000
0000
0000
0001
0000
0000
,
0000
0000
0000
0000
0000
1000
0000
0000
,
0000
0000
0000
0000
0000
0001
0000
0000
,
0000
0000
0000
0000
0000
1000
0000
0000
,
0000
0000
0000
0000
0000
1000
0000
0000
,
0000
0000
0000
0000
0000
0001
0000
0000
,
0000
0000
0000
0000
0000
0001
0000
0000
,
0000
0000
0000
0000
0000
0100
0000
0000
,
0000
0000
0000
0000
0000
0100
0000
0000
,
0000
0000
0000
0000
0000
0010
0000
0000
,
0000
0000
0000
0000
0000
0010
0000
0000
,
0000
0000
0000
0000
0000
1000
0000
0000
,
0000
0000
0000
0000
,
0000
0000
0000
0000
0000
1001
0000
0000
,
0000
0000
0000
0000
0000
0010
0000
0000
,
0000
0000
0000
0000
0000
0000
0000
2002
,
0000
0000
0000
0000
,
0000
0000
0000
0000
0000
3003
0000
0000
;
