#TITLE:MyonMyonMyonMyonMyonMyon!;
#SUBTITLE:;
#ARTIST:ムソウマテリアライズ;
#TITLETRANSLIT:;
#SUBTITLETRANSLIT:;
#ARTISTTRANSLIT:Shibayan Records;
#CREDIT:SupremeX;
#BANNER:MyonMyonMyonMyonMyonMyon!-bn.png;
#BACKGROUND:MyonMyonMyonMyonMyonMyon!-bg.png;
#LYRICSPATH:;
#CDTITLE:;
#MUSIC:MyonMyonMyonMyonMyonMyon!.ogg;
#OFFSET:-0.389;
#SAMPLESTART:45.700;
#SAMPLELENGTH:12.000;
#SELECTABLE:YES;
#BPMS:0.000=127.010;
#STOPS:;
#BGCHANGES:;

//---------------dance-single - ----------------
#NOTES:
     dance-single:
     :
     Hard:
     7:
     0.422,0.415,0.022,0.100,0.000: // measure 1
0000
0000
0000
0000
,  // measure 2
0000
0000
0000
0000
,  // measure 3
0000
0000
0000
0000
,  // measure 4
0000
0000
0000
0000
,  // measure 5
1000
1000
0010
0000
0100
0000
0001
1000
,  // measure 6
0000
0001
0100
0001
0010
0010
0100
1000
,  // measure 7
0100
0100
0010
0001
0010
0000
0100
1000
,  // measure 8
0000
0100
0100
1000
0100
0100
1000
1000
,  // measure 9
0001
0101
0010
1000
0001
0000
0100
0002
,  // measure 10
0000
0103
1000
0100
0010
0010
0001
0001
,  // measure 11
1000
0100
0000
0000
1100
0000
0001
0010
,  // measure 12
0100
0010
0001
0010
0100
0010
0001
0000
,  // measure 13
1000
0100
0000
0100
1000
0000
0001
0100
,  // measure 14
0000
0100
0001
0010
0100
0100
1000
1000
,  // measure 15
0001
0010
0000
0010
0001
0000
0100
0020
,  // measure 16
0000
0031
0010
0001
0010
0100
1000
0000
,  // measure 17
0010
0010
0100
0001
0100
0000
0001
0001
,  // measure 18
0000
1000
0100
1000
0100
0100
0010
0010
,  // measure 19
0001
0100
0001
1000
0200
0000
1300
0010
,  // measure 20
1000
0100
0010
0100
0010
0001
0010
0000
,  // measure 21
0100
0100
1000
0100
1000
0000
0001
0100
,  // measure 22
0000
0100
0001
1000
0010
0010
0100
0100
,  // measure 23
0001
0001
1000
0100
1000
0000
0001
1000
,  // measure 24
0000
0010
0100
0001
1000
0010
0200
0000
,  // measure 25
0310
0100
0000
0001
1000
0000
1000
0001
,  // measure 26
0000
0100
0010
0100
0010
0010
2000
0000
,  // measure 27
3001
0001
1000
0100
1000
0000
0001
0020
,  // measure 28
0000
0031
1000
0100
0010
0100
1000
0000
,  // measure 29
0001
0100
0000
0100
0001
0000
1000
0010
,  // measure 30
0000
0010
1000
0000
0001
0010
0100
1000
,  // measure 31
0010
0010
0100
0001
0100
0000
0001
0020
,  // measure 32
0000
0031
0010
0100
1000
0001
0100
0000
,  // measure 33
0001
0001
1000
0010
0100
0000
0100
0010
,  // measure 34
0000
1000
0001
0000
0100
0100
0001
0001
,  // measure 35
1000
0010
0000
0000
0100
0000
0001
2000
,  // measure 36
0000
3100
1000
0100
0010
0001
0010
0000
,  // measure 37
0100
0100
1000
0010
1000
0000
0001
0100
,  // measure 38
0000
0100
0001
0000
0010
0010
0100
0100
,  // measure 39
1000
1000
0000
0100
0010
0000
0010
0200
,  // measure 40
0000
0310
0100
0010
1000
0001
1000
0000
,  // measure 41
0001
0100
0010
0000
0010
0100
0000
0010
,  // measure 42
0000
1000
0100
0000
1000
1000
0001
0000
,  // measure 43
0100
0010
1000
0000
0001
1000
0000
0010
,  // measure 44
0000
1000
0001
0000
0100
0100
0100
0000
;

//---------------dance-single - ----------------
#NOTES:
     dance-single:
     :
     Medium:
     5:
     0.266,0.233,0.011,0.000,0.000:
0000
0000
0000
0000
,
0000
0000
0000
0000
,
0000
0000
0000
0000
,
0000
0000
0000
0000
,
0001
0001
0100
0000
0010
0000
1000
0000
,
0001
0000
0100
0000
0010
0010
0000
0000
,
1000
0001
0100
0010
,
1000
0000
0001
0000
0100
0100
0100
0000
,
0010
0000
1000
0000
0001
0000
0100
0010
,
0000
0000
1000
0001
1000
0000
0010
0000
,
0100
0001
0001
1000
,
1000
0000
0010
0000
0100
0001
0100
0000
,
0010
0010
1000
1000
,
0001
0000
0100
0010
0100
0000
0001
0000
,
0001
1000
0010
0100
,
0001
1000
0010
0110
,
0100
0100
0001
0001
,
1000
0000
0010
0100
0010
0000
1000
0000
,
0001
1000
0001
0100
,
0010
0000
1000
0000
0001
0010
0100
0000
,
1000
0010
0100
0001
,
1000
0000
0010
0100
1000
0000
0001
0100
,
0000
0010
0010
1000
,
1000
0000
0001
0000
0100
0100
0100
0000
,
0010
0010
1000
1000
,
0001
0000
0001
0000
0100
0010
0100
0000
,
0001
0010
0100
1000
,
0010
0000
0100
0000
0001
1000
0001
0000
,
1000
1000
0010
0100
,
0001
0000
1000
0000
0010
0010
0000
0000
,
1000
0001
0100
0010
,
1000
0001
0100
0010
,
1000
0001
0000
0000
1000
0000
0010
0100
,
0000
0000
0001
0000
1000
0010
1000
0000
,
0001
0100
0010
1000
,
1000
1000
0010
0010
,
0100
0100
0001
1000
,
0010
1000
0001
0100
,
0010
1000
0001
1000
,
0010
0000
0100
0000
0001
0001
0001
0000
,
1000
0010
0100
0001
,
1000
0000
0001
0000
0100
0010
0100
0000
;

//---------------dance-single - ----------------
#NOTES:
     dance-single:
     :
     Easy:
     3:
     0.187,0.201,0.000,0.011,0.000:
0000
0000
0000
0000
,
0000
0000
0000
0000
,
0000
0000
0000
0000
,
0000
0000
0000
0000
,
1000
0010
1000
0000
,
0001
0001
0100
0100
,
0020
0030
1000
1000
,
1000
1000
1000
1000
,
0000
0001
0100
0000
,
0010
0010
0010
0000
,
1000
0001
1000
0000
,
0010
0100
0001
0000
,
0000
1000
0010
0000
,
1000
1000
1000
0001
,
0000
0100
0010
0000
,
0100
0001
0001
0001
,
1000
0000
0000
0000
0010
0000
0000
0100
,
0000
0001
0001
0000
,
1000
0000
0010
0000
0100
0000
0000
0001
,
0000
1000
1000
0000
,
0000
0010
0100
0000
,
0001
0010
0100
1000
,
0000
0001
0100
0000
,
0010
1000
0010
0010
,
0100
0001
1000
0000
,
0010
0010
0100
0100
,
0001
1000
0010
0000
,
1000
0010
0100
0100
,
0001
1000
0001
0000
,
1000
1000
0010
0010
,
0100
0001
1000
0010
,
0100
0001
1000
0001
,
1000
1000
1000
0000
,
0010
0100
0001
0001
,
1000
0010
0100
0000
,
0001
0010
0100
0000
,
1000
0010
0100
0000
,
0001
0000
1000
0000
,
0010
0100
0001
1000
,
0010
0100
0001
1000
,
0001
0000
0000
0000
;

//---------------dance-single - Copied from----------------
#NOTES:
     dance-single:
     Copied from:
     Beginner:
     1:
     0.040,0.067,0.000,0.000,0.000:
0000
0000
0000
0000
,
0000
0000
0000
0000
,
0000
0000
0000
0000
,
0000
0000
0000
0000
,
0010
0000
0000
0000
,
0000
0000
0000
0000
,
0100
0000
0000
0000
,
0000
0000
0000
0000
,
0010
0000
0000
0000
,
0000
0000
0100
0000
,
0000
0000
0001
0000
,
0000
0000
0000
1000
,
0000
0000
0000
0000
,
0000
0000
0010
0000
,
0000
0000
0000
0000
,
0000
0000
0100
0000
,
0001
0000
0000
0000
,
0000
0000
0001
0000
,
0000
1000
0000
0000
,
0000
0000
1000
0000
,
0010
0000
0000
0000
,
0000
0000
0100
0000
,
0000
0000
0010
0000
,
0000
0000
0100
0000
,
0001
0000
0000
0000
,
0000
0000
0000
0000
,
0001
0000
0000
0000
,
0000
0000
0000
0000
,
1000
0000
0000
0000
,
0000
0000
0000
0000
,
1000
0000
0000
0000
,
0000
0000
0000
0000
,
0010
0000
0000
0000
,
0000
0000
0000
0000
,
0100
0000
0000
0000
,
0000
0000
0000
0000
,
0010
0000
0000
0000
,
0000
0000
0000
0000
,
0100
0000
0000
0000
,
0000
0000
0000
0000
,
0001
0000
0000
0000
;
