#TITLE:Mr.Vain;
#SUBTITLE:;
#ARTIST:Bald Bull;
#TITLETRANSLIT:;
#SUBTITLETRANSLIT:;
#ARTISTTRANSLIT:;
#CREDIT:SupremeX;
#BANNER:Mr.Vain-bn.png;
#BACKGROUND:Mr.Vain-bg.png;
#LYRICSPATH:;
#CDTITLE:cdtitle.png;
#MUSIC:Mr.Vain.ogg;
#OFFSET:-0.153;
#SAMPLESTART:32.000;
#SAMPLELENGTH:12.000;
#SELECTABLE:YES;
#BPMS:0.000=142.000;
#STOPS:;
#BGCHANGES:;

//---------------dance-single - ----------------
#NOTES:
     dance-single:
     :
     Hard:
     9:
     0.628,0.605,0.231,0.422,0.176: // measure 1
0000
0000
0000
0000
,  // measure 2
0000
0000
0000
0000
,  // measure 3
0000
0000
0000
0000
0000
0000
0000
0100
,  // measure 4
0010
1000
0001
1000
0010
0000
0210
0000
,  // measure 5
0310
1000
0001
2000
0000
3000
0000
0001
,  // measure 6
0010
0100
1000
0200
0000
0310
0001
0002
,  // measure 7
0000
1003
1000
2000
0000
3100
0000
1000
,  // measure 8
0100
1000
0001
1000
0100
0000
0020
0000
,  // measure 9
0031
0001
1000
0220
0000
0330
0000
0010
,  // measure 10
0001
0010
0100
2000
0000
3100
0100
2000
,  // measure 11
0000
3001
0001
0020
0100
0130
0000
1100
,  // measure 12
0000
0000
0110
0000
0000
0000
0001
0100
0000
0100
0000
0000
0010
0000
2000
0000
,  // measure 13
0000
3100
0100
0020
0000
0030
0000
0011
,  // measure 14
0000
0110
0000
1100
0000
0000
0100
1000
,  // measure 15
0100
0010
0001
2200
0000
3300
0000
0002
,  // measure 16
0000
0000
0013
0000
0000
0000
0010
0001
0000
0001
0000
0000
0010
0000
0020
0000
,  // measure 17
0000
0130
0100
2000
0000
3000
0000
0101
,  // measure 18
0000
1010
0000
0101
0000
0000
1000
0010
,  // measure 19
0100
0001
1000
0220
0000
0330
0000
0010
,  // measure 20
0001
0000
0010
0000
0100
0000
0010
0000
0001
0000
0000
0000
2000
0000
0000
3000
,  // measure 21
0010
0100
0001
0020
0000
0130
0000
1000
,  // measure 22
0100
1000
0100
0200
0000
0310
0010
0002
,  // measure 23
0000
0013
0100
2000
0000
3100
0000
0010
,  // measure 24
0001
0010
0100
0010
0001
0000
2000
0000
,  // measure 25
3100
0010
0100
2000
0000
3100
0000
0010
,  // measure 26
0001
0010
0100
0020
0000
0031
0001
0200
,  // measure 27
0000
0310
0010
0100
0001
0001
0000
0110
,  // measure 28
0000
0000
1100
0000
0000
0000
0010
0001
0000
0001
0000
0000
1000
0000
0200
0000
,  // measure 29
0000
1300
1000
2002
0000
3003
0000
1100
,  // measure 30
0000
1001
0000
0110
0000
0000
0001
0010
,  // measure 31
0100
1000
0100
2000
0000
3000
0000
0020
,  // measure 32
0000
0000
0130
0000
0000
0000
0100
0001
0000
0001
0000
0000
1000
0000
2000
0000
,  // measure 33
0000
3001
0001
0220
0000
0330
0000
0101
,  // measure 34
0000
1010
0000
1001
0000
0000
0010
0100
,  // measure 35
0010
0001
0010
0200
0000
1300
0000
0010
,  // measure 36
1000
0000
0100
0000
0010
0000
0001
0010
0001
0000
0010
0000
0100
0000
1000
0000
,  // measure 37
0100
0000
0010
0000
0001
0000
1000
0100
1000
0000
0100
0000
0010
0000
0001
0000
,  // measure 38
1000
0000
0100
0000
0010
0000
0100
1000
0100
0000
0010
0000
0001
0000
0010
0000
,  // measure 39
0100
0000
0010
0000
0001
0000
0010
0100
0010
0000
1000
0000
0100
0000
0010
0000
,  // measure 40
0100
0000
1000
0000
0100
0000
0010
0001
0010
0000
0100
0000
1000
0000
0100
0000
,  // measure 41
0010
0000
0001
0000
1000
0000
0010
0100
0001
0000
1000
0000
0010
0000
0100
0000
,  // measure 42
0010
0000
1000
0000
0001
0000
0100
0010
1000
0000
0001
0000
0010
0000
0100
0000
,  // measure 43
1000
0000
0100
0000
0010
0000
0100
1000
0100
0000
0010
0000
0001
0000
0010
0000
,  // measure 44
0100
0000
0010
0000
0001
0000
1000
0010
0100
0000
0001
0000
1000
0000
0010
0000
,  // measure 45
0100
0000
0010
0000
1000
0000
0010
0100
0010
0000
1000
0000
0001
0000
1000
0000
,  // measure 46
0010
0000
0100
0000
0001
0000
1000
0001
0100
0000
0010
0000
1000
0000
0020
0000
,  // measure 47
0000
0000
0000
0000
0130
0000
0100
0000
0000
0010
1000
0000
0100
0000
0010
0000
,  // measure 48
0100
0000
1000
0000
0100
0000
0010
0001
0010
0000
0100
0000
1000
0000
0010
0000
,  // measure 49
1000
0001
0100
0000
0001
0000
1000
0010
0100
0000
0001
0000
1000
0000
0100
0000
,  // measure 50
0010
0001
0010
0000
0100
0000
1000
0100
1000
0000
0100
0000
0010
0000
0001
0000
,  // measure 51
0010
0001
0010
0000
0100
0000
1000
0010
0100
0000
0001
0000
1000
0000
0010
0000
,  // measure 52
0100
0000
0001
0000
1000
0000
0001
0100
0010
0000
1000
0000
0001
0000
1000
0000
,  // measure 53
0100
0000
0010
0000
0001
0000
1000
0010
0100
0000
0001
0000
1000
0000
0010
0000
,  // measure 54
1000
0000
0001
0000
0100
0000
0001
0100
0010
0000
1000
0000
1000
0000
0200
0000
,  // measure 55
0000
0320
0000
0032
0000
0000
0003
1000
,  // measure 56
0010
0100
0001
0000
1000
0000
0010
0100
0001
0000
1000
0000
0100
0000
0010
0000
,  // measure 57
0001
0100
0010
0000
1000
0000
0010
0100
0001
0000
1000
0000
0001
0000
0100
0000
,  // measure 58
0010
0100
0010
0000
1000
0000
1001
0000
0000
0000
0000
0000
0000
0000
0000
0000
;

//---------------dance-single - ----------------
#NOTES:
     dance-single:
     :
     Medium:
     8:
     0.481,0.457,0.432,0.030,0.000:
0000
0000
0000
0000
,
0000
0000
0000
0000
,
0000
0000
0000
0000
0000
0000
0000
1000
,
0100
0010
0001
1000
0010
0000
0010
0000
,
1000
0100
1000
0001
0000
0001
0000
0100
,
0010
1000
0010
0100
0000
0001
0010
0100
,
0000
1000
0100
0010
0000
0000
0000
0001
,
0100
0010
1000
0001
0100
0000
0010
0000
,
1000
0100
0010
0001
0000
0000
0000
1000
,
0000
0010
0100
0010
0000
1000
0001
1000
,
0000
0001
0100
0010
0000
0000
0000
1000
,
0000
1000
0000
0100
0000
0100
0000
0010
,
0001
0010
0100
1000
0000
0000
0000
0110
,
0000
1001
0000
0110
0000
0000
0001
0100
,
0010
1000
0010
0100
0000
0000
0000
0101
,
0000
1001
0000
1000
0100
0010
0000
0001
,
1000
0100
1000
0001
0000
0001
0000
1100
,
0000
0110
0000
0011
0000
0000
1000
0100
,
1000
0001
0100
0100
0000
0000
0000
0010
,
1000
0001
0100
0010
0010
0000
1000
0000
,
0100
0010
0001
1000
0001
0001
0000
0010
,
0100
1000
0100
1000
0000
0001
0100
0010
,
0000
1000
0010
0100
0000
0000
0000
0001
,
1000
0010
0100
0001
1000
1000
0001
0000
,
1000
0010
0100
0001
0100
0010
0000
1000
,
0001
0100
0010
1000
0000
0001
0010
0100
,
0000
1000
0100
0010
0001
0001
0000
1100
,
0000
0011
0000
1000
0100
1000
0000
0001
,
1000
0001
0100
0010
0000
0000
0000
1001
,
0000
1100
0000
0011
0000
0000
1000
0100
,
0010
0100
1000
0100
0000
0000
0000
0011
,
0000
0110
0000
1100
0000
1001
0000
0100
,
0001
1000
0010
0100
0000
0000
0000
1001
,
0000
0110
0000
1001
0000
0000
0010
0100
,
1000
0001
0100
0010
0000
0000
0000
1000
,
0000
0001
0000
1000
0010
0100
0000
0001
,
0000
1000
0000
0100
0010
0001
0000
1100
,
0000
0011
0000
1000
0100
1000
0000
0101
,
0000
1010
0000
0100
0001
0100
0000
0010
,
0000
0010
0000
1000
0100
1000
0001
1000
,
0000
0010
0000
0100
0001
0100
0010
1000
,
0000
1000
0000
0001
0100
0010
0100
0001
,
1000
0010
0100
0010
1000
0001
0000
1000
,
0000
0010
0000
0100
0001
0100
0000
0010
,
0000
0010
0000
1000
0001
0100
0000
0100
,
0001
1000
0000
0010
0100
0001
0000
2000
,
0000
0000
0100
3100
0000
0000
0000
0010
,
0001
0010
0100
1000
0000
1100
0000
0001
,
0100
0010
1000
1100
0000
0110
0000
0010
,
0001
0010
0000
1100
0000
0011
0000
1000
,
0100
0010
0000
1001
0000
0110
0000
0001
,
1000
0010
0100
0001
1000
0010
0000
0010
,
0100
0001
1000
0001
0100
0010
0000
1000
,
0100
0010
0001
1000
0010
0100
0000
1001
,
0000
0110
0000
2002
0000
0000
3003
0110
,
0000
0011
0000
1100
0000
1001
0000
0110
,
0000
0011
0000
1100
0000
1001
0000
0110
;

//---------------dance-single - ----------------
#NOTES:
     dance-single:
     :
     Easy:
     3:
     0.301,0.256,0.331,0.040,0.000:
0000
0000
0000
0000
,
0000
0000
0000
0000
,
0000
0000
0000
0000
0000
0000
0000
0001
,
0000
1000
0000
0010
0000
0000
0000
0100
,
0000
0001
0000
1000
0000
0000
0000
0010
,
0000
0100
0000
0101
0000
0000
0000
1010
,
0000
0000
0000
1001
0000
0000
0000
0010
,
0000
0100
0000
0010
0000
0000
0000
1000
,
0000
0001
0000
1000
0000
0000
0000
0001
,
0000
0100
0000
0110
0000
0000
0000
1100
,
0000
0000
0000
0011
0000
0000
0000
1000
,
0000
1000
0000
0010
0000
0010
0000
0110
,
0000
1001
0000
0110
0000
0000
0000
0001
,
0000
0001
0000
0001
0000
0000
0000
1000
,
0000
0010
0000
1000
0000
0000
0000
0001
,
0000
0001
0000
0100
0000
0100
0000
0110
,
0000
1001
0000
0110
0000
0000
0000
1000
,
0000
1000
0000
1000
0000
0000
0000
0001
,
0000
0100
0000
0001
0000
0000
0000
1000
,
0000
0010
0000
0100
0000
0000
0000
0001
,
0000
0100
0000
0010
0000
0000
0000
1000
,
0000
0001
0000
1001
0000
0000
0000
1100
,
0000
0000
0000
0011
0000
0000
0000
1000
,
0000
0001
0000
0100
0000
0000
0000
0010
,
0000
1000
0000
0001
0000
0000
0000
1000
,
0000
0001
0000
0101
0000
0000
0000
1010
,
0000
0000
0000
0101
0000
0000
0000
1000
,
0000
0010
0000
1000
0000
1000
0000
0110
,
0000
1001
0000
0110
0000
0000
0000
0001
,
0000
0001
0000
0101
0000
0000
0000
1000
,
0000
1000
0000
1010
0000
0000
0000
0001
,
0000
0100
0000
0010
0000
1000
0000
0110
,
0000
1001
0000
0110
0000
0000
0000
0001
,
0000
0001
0000
0011
0000
0000
0000
1000
,
0000
1000
0000
1100
0000
0000
0000
0010
,
0000
0010
0000
0001
0000
0001
0000
0010
,
0000
0010
0000
0100
0000
0100
0000
1000
,
0000
1000
0000
0100
0000
0100
0000
0010
,
0000
0010
0000
0001
0000
0001
0000
1000
,
0000
0010
0000
1000
0000
0010
0000
0100
,
0000
0010
0000
0100
0000
0010
0000
0001
,
0000
0010
0000
0001
0000
0010
0000
0100
,
0000
1000
0000
1000
0000
1000
0000
0010
,
0000
0010
0000
0010
0000
0010
0000
0100
,
0000
0100
0000
0100
0000
0100
0000
0001
,
0000
0001
0000
0001
0000
0001
0000
1010
,
0000
0000
0000
0101
0000
0000
0000
1000
,
0000
1000
0000
0010
0000
0010
0000
0100
,
0000
0100
0000
0001
0000
0001
0000
1000
,
0000
0010
0000
1000
0000
0010
0000
0100
,
0000
0001
0000
0100
0000
0001
0000
1000
,
0000
0010
0000
0100
0000
0001
0000
1000
,
0000
0010
0000
0100
0000
0001
0000
1000
,
0000
0010
0000
0100
0000
0001
0000
1010
,
0000
0000
0000
0202
0000
0000
0303
2020
,
0000
0000
0000
0000
,
0000
0000
0000
3030
;

//---------------dance-single - Copied from----------------
#NOTES:
     dance-single:
     Copied from:
     Beginner:
     2:
     0.136,0.110,0.000,0.000,0.000:
0000
0000
0000
0000
,
0000
0000
0000
0000
,
0000
0000
0000
0000
0000
0000
0000
0010
,
0000
0000
0000
0000
0000
0000
0000
0010
,
0000
0000
0000
0000
0000
0000
0000
0010
,
0000
0000
0000
0000
,
0000
0000
0000
0000
0000
0000
0000
1000
,
0000
0000
0000
0000
0000
0000
0000
1000
,
0000
0000
0000
0000
0000
0000
0000
1000
,
0000
0000
0000
0000
,
0000
0000
0000
0000
0000
0000
0000
0001
,
0000
0000
0000
0100
0000
0000
0000
0001
,
0000
0000
0000
0100
0000
0000
0000
0010
,
0000
0000
0000
1000
0000
0000
0000
0010
,
0000
0000
0000
1000
0000
0000
0000
0001
,
0000
0000
0000
0100
0000
0000
0000
0001
,
0000
0000
0000
0100
0000
0000
0000
0010
,
0000
0000
0000
1000
0000
0000
0000
0010
,
0000
0000
0000
1000
0000
0000
0000
0001
,
0000
0000
0000
0001
0000
0000
0000
0001
,
0000
0000
0000
0001
0000
0000
0000
0100
,
0000
0000
0000
0100
0000
0000
0000
0100
,
0000
0000
0000
0100
0000
0000
0000
0010
,
0000
0000
0000
0010
0000
0000
0000
0010
,
0000
0000
0000
0010
0000
0000
0000
1000
,
0000
0000
0000
1000
0000
0000
0000
1000
,
0000
0000
0000
1000
0000
0000
0000
0001
,
0000
0000
0000
0100
0000
0000
0000
0001
,
0000
0000
0000
0100
0000
0000
0000
0010
,
0000
0000
0000
1000
0000
0000
0000
0010
,
0000
0000
0000
1000
0000
0000
0000
0001
,
0000
0000
0000
0100
0000
0000
0000
0001
,
0000
0000
0000
0100
0000
0000
0000
0010
,
0000
0000
0000
1000
0000
0000
0000
0010
,
0000
0000
0000
1000
0000
0000
0000
0001
,
0000
0000
0000
0010
0000
0000
0000
0100
,
0000
0000
0000
1000
0000
0000
0000
0001
,
0000
0000
0000
0010
0000
0000
0000
0100
,
0000
0000
0000
1000
0000
0000
0000
0001
,
0000
0000
0000
0010
0000
0000
0000
0100
,
0000
0000
0000
1000
0000
0000
0000
0001
,
0000
0000
0000
0010
0000
0000
0000
0100
,
0000
0000
0000
1000
0000
0000
0000
0010
,
0000
0000
0000
0100
0000
0000
0000
0010
,
0000
0000
0000
0100
0000
0000
0000
0001
,
0000
0000
0000
1000
0000
0000
0000
0001
,
0000
0000
0000
1000
0000
0000
0000
0010
,
0000
0000
0000
0100
0000
0000
0000
0001
,
0000
0000
0000
1000
0000
0000
0000
0010
,
0000
0000
0000
0100
0000
0000
0000
0001
,
0000
0000
0000
1000
0000
0000
0000
0010
,
0000
0000
0000
0100
0000
0000
0000
0001
,
0000
0000
0000
1000
0000
0000
0000
0010
,
0000
0000
0000
0100
0000
0000
0000
0001
,
0000
0000
0000
1000
0000
0000
0000
0010
;
