#TITLE:Midnight City Warfare;
#SUBTITLE:;
#ARTIST:sky_delta;
#TITLETRANSLIT:;
#SUBTITLETRANSLIT:;
#ARTISTTRANSLIT:;
#CREDIT:SupremeX;
#BANNER:Midnight City Warfare-bn.png;
#BACKGROUND:Midnight City Warfare-bg.png;
#LYRICSPATH:;
#CDTITLE:;
#MUSIC:Midnight City Warfare.ogg;
#OFFSET:-0.287;
#SAMPLESTART:85.920;
#SAMPLELENGTH:12.000;
#SELECTABLE:YES;
#BPMS:0.000=180.000;
#STOPS:124.000=0.675
,213.500=0.340
;
#BGCHANGES:;

//---------------dance-single - ----------------
#NOTES:
     dance-single:
     :
     Hard:
     10:
     0.820,0.914,0.479,0.277,0.252:
0000
0000
0000
0000
,
0000
0000
0000
0000
,
0000
0000
0000
0000
,
0000
0000
0000
0000
,
1000
0100
1000
0001
1000
0100
1000
0001
,
0010
0100
1000
0010
0100
0001
0100
0010
,
1000
0010
1000
0001
0100
0001
1000
0001
,
0100
0110
0101
1010
,
0100
0010
1000
0001
1000
0010
0100
0001
,
1000
0010
0100
0010
1000
1000
0100
0100
,
0010
0001
0010
0100
0010
0001
0010
0100
,
1000
0100
1000
0001
0100
0100
0010
0010
,
1000
0100
1000
0001
0100
0001
0100
0001
,
1000
0010
0100
0010
1000
1000
0001
0001
,
0100
0010
1000
0001
0100
0010
2000
0000
,
3000
0200
0000
0000
0320
0000
0000
0031
,
0001
0010
0001
0010
0100
1000
0100
0010
,
0100
1000
0001
0100
0001
1000
0100
1000
,
0001
0200
0010
0300
0010
1000
0001
0100
,
0001
1000
0001
0100
0001
1000
0100
0010
,
0001
1000
0100
1000
0001
0100
0001
1000
,
0100
0010
0001
1000
0100
1000
0001
0100
,
0010
1000
0001
0100
0002
0000
0000
0000
,
0013
0001
0010
0100
1000
0100
0010
0001
,
0100
0001
1000
0100
1000
0200
0000
1300
,
2000
0000
3100
0010
0010
0010
0001
0002
,
0000
0013
0001
0100
0001
0100
0001
0010
,
0100
1000
0001
1000
0100
1000
1100
0000
,
0110
0011
1001
0101
,
1010
0101
0110
1010
,
0100
0010
0100
0010
1000
0001
1000
0001
,
0100
0010
0010
0000
0101
0000
1000
0100
,
1000
0100
1000
0000
0110
0000
0001
0010
,
0001
0010
0001
0000
1000
0100
1000
0100
,
0110
0000
0000
0011
0000
0000
0110
0000
1000
0000
0100
0000
1010
0000
0000
0000
,
0101
0000
1010
0001
0100
0000
0001
1000
,
0001
0000
0010
0000
0001
0000
1000
0000
0100
1000
0100
0000
1000
0100
1000
0000
,
0100
0000
0010
0000
0001
0000
0001
0000
0000
0000
0000
0000
1000
0100
1000
0100
,
1000
0010
0100
0010
0100
0010
0100
0001
0100
0000
0000
1010
0000
0000
0101
0000
,
0000
0000
0000
0000
1001
0000
0000
0000
0000
0110
0000
0000
0000
1000
0000
0000
,
0001
0100
0010
1000
0010
0000
0100
0000
0001
0000
1000
0000
0010
0000
0100
0000
,
0001
0100
0001
0100
0001
0000
0010
0000
0100
0000
1000
0000
0100
1000
0100
1000
,
0100
0000
0010
0000
0001
0000
0010
0000
0100
1000
0100
1000
0100
0000
0010
0000
,
0001
0010
0001
1000
0200
0000
0000
2300
,
0000
0000
3020
0000
0000
0230
0000
0000
,
0302
0000
0000
0013
0001
0010
0100
1000
,
0100
0000
1000
0001
0100
0010
0001
1000
0001
0000
0000
0000
1000
0000
0100
0000
,
1000
0000
0100
0000
0110
0000
0000
0000
0011
0000
0000
0000
0110
0000
0000
1100
,
0000
0000
1001
0000
0000
0101
0000
0000
1000
0000
1000
0000
0110
0000
0000
0101
,
0000
0000
1010
0000
0000
1001
0000
0000
0100
0000
0010
0000
0110
0000
0000
0101
,
0000
0000
1001
0000
0000
1010
0000
0000
0100
0000
0001
0000
0100
0000
0010
0000
,
0100
0001
0100
0000
1010
0000
1001
0000
,
0010
0100
0010
0100
0001
1000
0001
1000
,
0010
0000
1000
0000
0010
0000
0100
0000
0001
0010
0100
1000
0100
0010
0001
0010
,
0100
1000
0100
1000
0100
0010
0001
0010
0001
0010
0100
1000
0100
1000
0001
0100
,
0001
0100
0010
1000
0020
0000
0000
0000
0000
0000
0230
0000
0000
0000
0000
0000
,
0302
0000
1003
1100
,
0101
0000
2010
0000
0000
3002
0000
0000
,
0203
0000
0310
0110
,
1001
0000
0200
0000
0000
0302
0000
0000
,
2003
0100
3001
1100
,
0110
0000
0000
0000
0001
1000
0100
1000
0001
0100
0010
1000
0001
0100
0010
1000
,
0010
0100
0001
0000
0200
0000
0000
0000
0320
0000
0000
0000
2030
0000
0000
0000
,
3020
0000
0130
0000
0001
0100
0010
1000
,
0001
0000
1000
0000
0100
0000
1000
0000
0100
0000
0000
0220
0000
0000
0330
0000
,
0001
0010
0100
0010
0001
0010
0100
1000
,
0100
0000
0010
0000
0100
0000
1000
0100
0000
0000
0220
0000
0000
0000
0330
0000
,
0001
0010
0100
1000
0100
0000
0010
0000
0100
0000
1000
0000
0100
0000
0010
0000
,
0100
0010
1000
0001
0100
0010
0100
0010
,
1000
0001
0010
0100
0010
0001
0010
0100
,
1000
0001
0100
0001
1000
0001
0100
0001
,
2002
0000
3003
0000
0100
0010
0100
0010
,
1000
0010
1000
0001
0100
0001
0100
0010
,
1000
0010
0100
0010
1000
0010
0100
0001
,
1000
0001
0100
0001
1000
0001
0100
0001
,
1000
0100
1000
0000
1000
0000
0100
0000
0010
0000
0001
0000
0001
0000
0000
0000
,
0101
0000
0010
0010
0010
1000
0100
0000
,
1000
1000
0011
1000
0100
1000
0100
0010
,
0001
0010
0001
1000
0100
0010
0200
0000
,
1300
0000
1100
0000
0010
0001
0010
0100
,
1000
0000
0100
0000
1000
0000
0100
0010
0100
0010
0100
0000
0010
0001
0010
0001
,
0010
0100
1000
0000
0001
0010
0100
0010
,
0001
0010
0100
1000
0100
0010
0100
1000
,
0100
0000
1100
0000
0001
0100
0001
0000
,
1000
0100
1000
0100
0010
0001
0010
0001
,
1000
0010
1000
0001
0100
0010
0100
0001
,
1000
0000
0010
0000
0100
0000
0000
0101
0000
0000
1010
0000
0000
0000
0000
0000
,
1001
0000
0000
0000
;

//---------------dance-single - ----------------
#NOTES:
     dance-single:
     :
     Medium:
     8:
     0.603,0.585,0.176,0.034,0.034:
0000
0000
0000
0000
,
0000
0000
0000
0000
,
0000
0000
0000
0000
,
0000
0000
0000
0000
,
1000
0001
0100
0001
,
1000
0000
0001
0100
0010
1000
0001
0100
,
0010
1000
0100
1000
,
0001
0000
0100
0010
0100
0010
0100
0000
,
0001
1000
0100
1000
0001
0100
0001
0000
,
1000
0100
0010
0001
1000
0001
0100
0000
,
0100
0001
1000
0001
0100
0010
0100
0000
,
0001
0010
0100
0010
0001
0010
0100
0000
,
1000
0100
0010
0100
1000
0100
0010
0001
,
0010
0100
1000
0100
1000
0001
0100
0000
,
0010
1000
0010
0000
1000
0100
1000
0100
,
1000
0001
0010
0001
0010
0000
0011
0000
,
0100
0000
1000
0000
0100
0010
0100
0000
,
0001
1000
0001
0000
0010
0000
0100
1000
,
1100
0200
0000
0000
0000
0000
0000
0000
,
0300
0000
0010
0000
0001
0000
0010
0100
,
1000
0000
0001
0100
0001
0100
0010
1000
,
0010
0100
0001
1000
0100
0010
0001
0000
,
1000
0000
0100
1000
0100
1000
0100
0010
,
0100
0010
0001
0010
0001
0010
0000
0000
,
0100
1000
0100
0010
,
0001
0100
0001
0100
0010
1000
0010
0000
,
1000
0100
0010
0001
,
0100
0010
0100
0010
0100
0010
0100
0000
,
0001
1000
0001
0100
,
1001
0110
1001
0010
,
0100
0010
0100
0010
1000
0010
1000
0000
,
0101
1000
0010
0100
,
0001
1000
0010
0000
0100
0000
0001
0000
,
1000
0100
1000
0000
0001
0100
0001
0000
,
0100
0010
0100
0000
0001
0010
0100
1000
,
0100
1000
0010
0000
0001
0000
0011
0000
,
0100
1000
0100
0000
0010
0001
0010
0100
,
0010
0001
0010
0000
1000
0100
0010
0100
,
1000
0000
0100
0000
0010
0000
0100
0000
0010
0000
0000
0110
0000
0000
0101
0000
,
0000
1001
0000
0010
,
1000
0100
0010
0100
1000
0000
0010
1000
,
0010
0100
0001
0100
0000
0000
0010
0100
,
0001
1000
0010
0100
0010
0000
1000
0001
,
0100
0001
0100
0001
1000
0000
0000
0001
,
0000
1000
0010
0100
,
0001
0000
1000
0000
0001
0000
0000
0100
,
0000
0000
0010
0000
0000
1000
0001
0000
,
0100
0000
0000
0000
0010
0000
0000
0000
1000
0000
0000
0000
0000
0100
0000
0000
,
1100
0000
0000
0100
0000
0000
0110
0000
0000
0000
0000
0000
0001
0000
0000
0011
,
0000
0000
0010
0000
0000
0110
0000
0000
0000
0000
0000
0000
1000
0000
0000
1010
,
0000
0000
0100
0000
0000
0101
0000
0000
0100
0000
0001
0000
0100
0000
0001
0000
,
1000
0010
1000
0000
0010
0100
0001
0100
,
0010
1000
0010
1000
0001
0000
0100
0010
,
0100
0010
1000
0001
1000
0100
0010
0001
,
0010
0100
0001
0100
0010
0100
0001
0100
,
0010
1000
0010
0000
0000
1000
0000
0000
,
0001
0100
0010
1000
,
0001
0000
0100
0000
0000
0001
0000
0000
,
1000
0000
0000
0010
0000
0100
0000
0000
,
0001
1000
0010
0000
0000
1000
0000
0000
,
0001
0100
0001
0100
,
0010
0000
1000
0010
1000
0010
0100
0010
,
0100
0010
0200
0000
0000
0000
0000
0000
,
0300
0000
0001
1000
0001
1000
0010
0100
,
0010
0000
1000
0001
0100
0001
0100
0001
,
1000
0000
0010
0100
0010
0100
0001
1000
,
0010
0100
0001
1000
0010
0100
0010
0000
,
0000
0000
1000
0100
1000
0100
0010
0100
,
0010
0001
0010
0001
1000
0010
1000
0000
,
0001
0000
1000
0010
1000
0010
0100
0010
,
0100
0001
0100
0001
1000
0100
1000
0000
,
0010
0000
0110
0000
0100
0000
0001
1000
,
0001
1000
0010
0100
0010
0100
0001
1000
,
0001
0100
0010
0000
0010
0000
1000
0001
,
0100
0001
1000
0001
0100
0001
1000
0001
,
0100
0001
1000
0000
0010
0000
0100
0000
,
0000
0001
1000
0110
,
0001
0001
0001
0000
1000
0000
0001
0010
,
0100
1000
0100
0000
0100
1000
0001
1000
,
0010
0100
0010
0000
1000
0100
0010
0100
,
1000
0100
0010
0001
0010
0100
0010
0000
,
0010
0000
1000
0100
0010
0001
1000
0000
,
0100
0010
1000
0010
0100
0010
0100
0000
,
0001
0000
1000
0010
0100
0001
1000
0000
,
0010
0000
0100
0001
0100
0001
0100
0000
,
0010
0000
1000
0100
0010
0001
1000
0000
,
0100
0000
0000
0000
0010
0000
0000
0011
0000
0000
0220
0000
0000
0000
0330
0000
,
1001
0000
0000
0000
;

//---------------dance-single - ----------------
#NOTES:
     dance-single:
     :
     Easy:
     4:
     0.412,0.439,0.286,0.059,0.034:
0000
0000
0000
0000
,
0000
0000
0000
0000
,
0000
0000
0000
0000
,
0000
0000
0000
0000
,
1000
0010
0100
0010
,
1000
0001
0100
0010
,
1000
0001
0100
0010
,
1000
0001
0001
0001
,
1000
0010
0100
0010
,
1000
0010
0100
0100
,
0001
0010
0100
1000
,
0010
0100
0010
0100
,
0001
0001
1000
1000
,
0010
0010
0100
0100
,
0001
1000
0010
0100
,
0001
1000
0010
0100
,
1001
0000
0010
0000
,
0100
0000
0010
0000
,
1000
0001
1000
0001
,
0100
0010
0100
0010
,
1000
1000
1000
0001
,
0001
0100
0010
1000
,
0001
0100
0010
1000
,
0001
0100
0110
0110
,
0002
0000
0000
0000
,
2003
0000
0000
0000
,
3020
0000
0000
0000
,
0230
0000
0000
0000
,
0301
0001
0001
0001
,
1000
1000
1000
1000
,
0010
0100
0010
1000
,
0001
0000
1000
1000
,
0010
0010
0100
0001
,
1000
1001
0010
0100
,
0010
1000
0010
0110
,
0110
1001
0010
0100
,
0010
1000
0001
0100
,
0010
1000
0001
0101
,
0010
0000
0000
0000
1010
0000
0000
0000
0001
0000
0000
0001
0000
0000
0001
0000
,
0000
1000
0010
0100
,
0001
1001
0010
1000
,
0010
0110
0001
0001
,
1000
1000
0010
0100
,
0001
0000
1000
0000
0001
0000
0000
1000
,
0000
0000
0010
0000
0000
0100
0000
0000
,
0010
0000
1000
0000
0010
0000
0000
0110
,
0000
1001
0000
0001
,
0100
0000
0000
0000
0110
0000
0000
0000
0001
0000
0000
0000
0000
1000
0000
0000
,
1000
0000
0000
1000
0000
0000
1000
0000
0000
0000
0000
0000
0001
0000
0000
0001
,
0000
0000
0001
0000
0000
0001
0000
0000
0000
0000
0000
0000
0100
0000
0000
0100
,
0000
0000
0100
0000
0000
0100
0000
0000
0000
0000
0000
0000
0010
0000
0000
0000
,
1000
0001
0100
1001
,
0010
0100
0100
0010
,
0010
1000
0001
0001
,
1000
1000
0010
0110
,
0001
0000
1001
0000
0000
0110
0000
0000
,
1001
0000
1000
1000
,
1000
0000
0010
0000
0000
0110
0000
0000
,
1001
0000
0000
0110
0000
0000
0001
0000
,
1000
0010
0100
0010
,
1000
0001
0100
0010
,
1000
0001
0100
0010
,
1000
2002
0000
0000
,
3003
0110
0000
1001
,
0010
0100
1000
0001
,
1000
0010
0100
0010
,
0010
1000
1000
0001
,
0001
0100
0010
1000
,
0001
1000
0010
0010
,
0100
0001
1000
0010
,
0100
1001
0010
0110
,
0001
1001
0010
0100
,
0010
1000
0010
0100
,
0100
0100
0100
0001
,
1000
0010
0100
0001
,
0001
0001
0001
1000
,
0010
1000
0001
0101
,
0010
1000
0001
1000
,
0001
1000
0010
0100
,
0001
1001
0000
0110
,
0000
0001
0010
0100
,
1000
0001
0010
0110
,
1000
1000
1000
1000
,
0010
1001
0100
0010
,
0100
0001
0001
0001
,
1000
0010
1000
1000
,
1000
0000
0000
0000
0001
0000
0000
0001
0000
0000
2000
0000
0000
0000
3000
0000
,
0110
0000
0000
0000
;

//---------------dance-single - Copied from----------------
#NOTES:
     dance-single:
     Copied from:
     Beginner:
     2:
     0.118,0.183,0.050,0.000,0.000:
0000
0000
0000
0000
,
0000
0000
0000
0000
,
0000
0000
0000
0000
,
0000
0000
0000
0000
,
0010
0000
0000
0000
,
0000
0000
0000
0000
,
1000
0000
0000
0000
,
0000
0000
0000
0000
,
0010
0000
0000
0000
,
0000
0000
0000
0000
,
0100
0000
0000
0000
,
0000
0000
0000
0000
,
0010
0000
0000
0000
,
0000
0000
0000
0000
,
1000
0000
0000
0000
,
0000
0000
0000
0000
,
0001
0000
0000
0000
,
0001
0000
0000
0000
,
0001
0000
0000
0000
,
0001
0000
0000
0000
,
1000
0000
0000
0000
,
1000
0000
0000
0000
,
1000
0000
0000
0000
,
1000
0000
0000
0000
,
0010
0000
0000
0000
,
0100
0000
0000
0000
,
0100
0000
0000
0000
,
0010
0000
0000
0000
,
1000
0000
0000
0000
,
0001
0000
0000
0000
,
0001
0000
0000
0000
,
1000
0000
0010
0000
,
0000
0000
0000
0100
,
0000
0000
0000
0000
,
0001
0000
0000
0000
,
1000
0000
0010
0000
,
0000
0000
0100
0000
,
0000
0000
0001
0000
,
1000
0000
0010
0000
,
0000
0000
0100
0000
,
0000
0000
0010
0000
,
0000
0000
1000
0000
,
0001
0000
1000
0000
,
0010
0000
0100
0000
,
0000
0000
0000
0000
,
0000
0000
0001
0000
,
0000
0000
0000
0000
,
1000
0000
0010
0000
,
0000
0000
0000
0100
,
0000
0000
0000
0001
,
0000
0000
0000
1000
,
0000
0000
0000
0010
,
0000
0000
0000
0100
,
0000
0000
0001
0000
,
1000
0000
0010
0000
,
0100
0001
0000
0000
,
1000
0000
0000
0000
,
0000
0010
0000
0000
,
0100
0000
0000
0000
,
0000
0001
0000
0000
,
1000
0000
0000
0000
,
0000
0001
0000
0000
,
0000
0100
0000
0000
,
0000
0000
0010
0000
,
1000
0000
0010
0000
,
0000
0100
0000
0001
,
0000
0100
0000
0000
,
0000
0010
0000
1000
,
0000
1000
0000
1000
,
0000
0001
0000
0001
,
0000
0001
0000
0000
,
0000
0100
0000
0100
,
0000
0000
0000
0000
0000
0100
0000
0000
,
0000
0000
0010
0000
,
0010
0000
0000
0000
0000
0010
0000
0000
,
0000
1000
0000
1000
,
0000
0000
0000
1000
0000
0000
0000
0000
,
0000
0001
0000
0001
,
0000
0001
0000
0000
,
0000
0110
0000
0000
,
0000
1001
0000
0000
,
0000
0110
0000
0000
,
0000
1001
0000
0000
,
0000
0100
0000
0000
,
0000
0010
0000
0000
,
0000
0100
0000
0000
,
0000
1001
0000
0000
,
1001
0000
0000
0000
;
