#TITLE:Mi Mi Mi;
#SUBTITLE:;
#ARTIST:Hit The Electro Beat;
#TITLETRANSLIT:;
#SUBTITLETRANSLIT:;
#ARTISTTRANSLIT:;
#CREDIT:SupremeX;
#BANNER:MiMiMi2-bn.png;
#BACKGROUND:MiMiMi2-bg.png;
#LYRICSPATH:;
#CDTITLE:;
#MUSIC:Mi Mi Mi.ogg;
#OFFSET:-0.870;
#SAMPLESTART:63.700;
#SAMPLELENGTH:12.000;
#SELECTABLE:YES;
#BPMS:0.000=126.030;
#STOPS:;
#BGCHANGES:-2.000=Mi Mi Mi.avi=1.000=1=1=0,
262.500=MiMiMi2-bg.png=1.000=0=0=1,
99999=-nosongbg-=1.000=0=0=0 // don't automatically add -songbackground-
;

//---------------dance-single - ----------------
#NOTES:
     dance-single:
     :
     Challenge:
     9:
     0.548,0.458,0.198,0.266,0.148: // measure 1
0000
0000
0000
0000
,  // measure 2
0000
0000
0000
0000
,  // measure 3
0000
0000
0000
0000
,  // measure 4
0000
0000
0000
0000
,  // measure 5
1000
0000
0100
0000
1000
0000
0100
0000
1000
0000
1000
0000
0000
1100
0000
0000
,  // measure 6
0001
0000
0010
0000
0001
0000
0010
0000
0001
0000
0010
0000
0000
0011
0000
0000
,  // measure 7
1000
0000
0100
0000
1000
0000
0100
0000
1000
0000
0100
0000
0000
1100
0000
0000
,  // measure 8
0001
0010
0001
0010
0001
0020
0030
0000
,  // measure 9
0001
0010
0100
1000
0100
0000
0000
0000
,  // measure 10
1000
0000
0100
0000
1000
0000
0001
0000
0100
0000
0002
0000
0000
0103
0000
0000
,  // measure 11
0010
1000
0010
0000
0100
0000
0010
0000
1000
0000
0020
0000
0000
0000
1030
0000
,  // measure 12
1000
0000
0100
0000
0010
0000
0100
0000
1000
0000
0100
0000
0000
1100
0000
0000
,  // measure 13
0010
0001
0010
0000
0001
0000
0010
0000
0100
0000
0020
0000
0000
0000
0031
0000
,  // measure 14
0010
0000
0001
0000
0010
0000
0100
0000
1000
0000
0200
0000
0000
1300
0000
0000
,  // measure 15
1000
0100
1000
0000
0100
0000
0010
0000
0001
0000
0020
0000
0000
0000
0130
0000
,  // measure 16
0100
0000
0010
0000
1000
0000
0001
0000
0010
0000
0200
0000
0000
1300
0000
0000
,  // measure 17
0100
1000
0100
0000
0010
0000
0001
0000
1000
0000
0200
0000
0300
0000
0000
0000
,  // measure 18
0010
0001
0010
0100
1000
1200
0000
0320
,  // measure 19
0000
0000
0031
0000
0010
0100
0010
0000
0100
0000
0010
0000
1000
0000
0001
0000
,  // measure 20
0100
0010
1000
0100
0000
1200
0000
0310
,  // measure 21
0000
0000
0001
0000
0100
0001
0100
0000
0010
0000
1000
0000
0001
0000
1000
0000
,  // measure 22
0200
0000
1300
1000
0100
0010
0010
0001
,  // measure 23
0001
0100
0100
0010
0010
1000
0001
0100
,  // measure 24
0010
0000
0000
0000
0100
0000
1000
0000
0100
0000
0010
0000
0001
0010
0001
0000
,  // measure 25
1000
0010
0100
0002
0000
0103
0000
0010
,  // measure 26
1010
0000
0000
0000
0010
0100
0010
0000
0010
0000
1001
0000
0000
0000
0110
0000
,  // measure 27
0000
0000
1000
0000
0100
1000
0100
0000
0100
0000
0011
0000
0000
0000
1100
0000
,  // measure 28
0000
0000
0010
0000
0001
0010
0001
0000
0001
0000
1000
0000
0100
0000
1000
0000
,  // measure 29
0100
0010
0001
0010
0010
0100
1000
0100
,  // measure 30
1000
0010
0100
0010
0010
1000
1000
0100
,  // measure 31
0100
0010
0010
0001
0001
1000
0100
1000
,  // measure 32
1100
0000
0000
0000
0010
0000
0001
0000
0010
0000
0100
0000
1000
0100
1000
0000
,  // measure 33
0100
1000
0001
1000
0020
0000
0230
0000
,  // measure 34
0301
0000
0001
0000
0001
0000
1000
0000
1000
0000
1000
0000
0000
0110
0000
0000
,  // measure 35
0001
0000
0010
0000
0100
0000
1000
0000
0010
0000
0100
0000
0000
0101
0000
0000
,  // measure 36
0010
0000
0010
0000
0010
0000
1000
0000
1000
0000
1000
0000
0000
0110
0000
0000
,  // measure 37
0001
0010
0100
1000
1000
0200
0000
1300
,  // measure 38
0100
0000
0100
0000
0100
0000
0010
0000
0010
0000
0010
0000
0000
0011
0000
0000
,  // measure 39
0100
0000
1000
0000
0100
0000
0010
0000
0001
0000
0010
0000
0000
0011
0000
0000
,  // measure 40
0100
0000
0100
0000
0100
0000
1000
0000
1000
0000
1000
0000
0000
0110
0000
0000
,  // measure 41
0001
0010
0100
1000
0100
2000
0000
3100
,  // measure 42
0100
0010
0001
1000
0100
0020
0000
0031
,  // measure 43
0010
0001
0010
0200
0000
2300
3010
0100
,  // measure 44
0010
0002
0000
0023
0000
0130
1000
0100
,  // measure 45
0010
0100
1000
0100
0010
0001
0001
0100
,  // measure 46
0100
0020
0000
0230
0000
0301
0100
0010
,  // measure 47
1000
0001
1000
0020
0000
0130
0001
1000
,  // measure 48
0001
0100
0010
0200
0000
0310
1000
0010
,  // measure 49
0100
0001
0100
0100
0010
0010
1000
1000
,  // measure 50
0001
0000
0001
0000
0001
0000
0100
0000
0100
0000
0100
0000
0000
1010
0000
0000
,  // measure 51
0010
0000
0100
0000
0010
0000
1000
0000
0001
0000
1000
0000
0000
1100
0000
0000
,  // measure 52
0010
0000
0010
0000
0010
0000
0001
0000
0001
0000
0001
0000
0000
0110
0000
0000
,  // measure 53
1000
0000
0010
0000
0100
0000
0001
0000
1000
0000
0200
0000
0000
0300
0000
0000
,  // measure 54
1000
0000
1000
0000
1000
0000
0100
0000
0100
0000
0100
0000
0000
0110
0000
0000
,  // measure 55
0001
0000
0100
0000
0001
0000
1000
0000
0100
0000
1000
0000
0000
0101
0000
0000
,  // measure 56
0010
0000
0010
0000
0010
0000
1000
0000
1000
0000
1000
0000
0000
1100
0000
0000
,  // measure 57
0010
0001
1000
0001
0100
0020
0000
0130
,  // measure 58
0001
0000
0100
0000
0010
0000
1000
0000
0010
0000
0200
0000
0000
1300
0000
0000
,  // measure 59
1000
0100
1000
0000
0100
0000
0010
0000
0100
0000
1000
0000
0100
0000
0010
0000
,  // measure 60
0001
0000
0001
0000
0001
0000
1000
0000
0001
0000
0020
0000
0000
0130
0000
0000
,  // measure 61
1000
0100
1000
0000
1000
0000
0100
0000
0100
0000
2000
0000
0000
0000
3000
0000
,  // measure 62
1000
0000
0100
0000
0010
0000
0001
0000
1000
0000
0010
0000
0000
0110
0000
0000
,  // measure 63
0001
0100
0001
0000
0100
0000
0100
0000
0010
0000
0002
0000
0000
0000
0103
0000
,  // measure 64
0100
0000
0010
0000
0010
0000
1000
0000
0010
0000
2000
0000
0000
3010
0000
0000
,  // measure 65
1000
0100
1000
0000
0100
0000
1000
0000
0100
0000
0010
0000
0001
0000
0010
0000
,  // measure 66
0100
0000
1000
0000
0100
0000
0010
0000
0001
0000
1000
0000
0000
2002
0000
0000
,  // measure 67
0000
0000
0000
0000
,  // measure 68
3003
0000
0000
0000
;

//---------------dance-single - ----------------
#NOTES:
     dance-single:
     :
     Hard:
     8:
     0.508,0.433,0.251,0.114,0.076:
0000
0000
0000
0000
,
0000
0000
0000
0000
,
0000
0000
0000
0000
,
0000
0000
0000
0000
,
1000
0000
0100
0000
0010
0000
0001
0000
0000
0000
1000
0000
0000
1000
0000
0000
,
0001
0000
0010
0000
0100
0000
1000
0000
0000
0000
0010
0000
0000
0010
0000
0000
,
1000
0000
0001
0000
0100
0000
0010
0000
1000
0000
0001
0000
0000
1001
0000
0000
,
0010
0100
0001
1000
0001
0200
0300
0000
,
0001
1000
0100
1000
0001
0000
0000
0000
,
1000
0000
0010
0000
0100
0000
0001
0000
1000
0000
0100
0000
0000
1100
0000
0000
,
0001
0010
0100
0010
0001
0010
0000
0011
,
0100
0000
1000
0000
0100
0000
0010
0000
0100
0000
1000
0000
0000
1100
0000
0000
,
0010
0001
0010
0100
0010
0002
0003
0000
,
1000
0000
0010
0000
1000
0000
0010
0000
0100
0000
0100
0000
0000
0110
0000
0000
,
0001
0100
0001
0100
0010
0010
0000
0110
,
1000
0000
0001
0000
0100
0000
0001
0000
1000
0000
1000
0000
0000
1100
0000
0000
,
0010
0001
1000
0001
0100
0020
0030
0000
,
1000
0100
0010
0001
1000
1100
0000
0110
,
0000
0001
0010
0100
0010
0001
0010
0100
,
0010
0001
0010
0100
0000
1100
0000
0101
,
0000
0010
0100
1000
0100
0010
0100
1000
,
0100
0000
1000
0001
1000
0010
0100
0001
,
0100
0010
0100
0001
1000
0100
0010
0001
,
0010
0000
0100
1000
0100
0010
0001
0010
,
0100
1000
0001
1000
0100
1000
0001
1000
,
0100
0000
0010
0001
0010
0011
0000
0110
,
0000
1000
0100
1000
0000
0110
0000
0101
,
0000
0010
1000
0010
0000
1000
0100
0010
,
0001
0010
0100
1000
0000
0110
0000
0011
,
0000
0000
0001
0100
0001
1000
0100
0010
,
0100
1000
0100
0010
0100
1000
0100
0010
,
0010
0000
0010
0100
0010
1000
0001
1000
,
0100
1000
0001
1000
0020
0030
0200
0300
,
0001
0000
1000
0000
0100
0000
1000
0000
0001
0000
0100
0000
0000
0110
0000
0000
,
0001
0000
0010
0000
0001
0000
0010
0000
0100
0000
1000
0000
0000
1100
0000
0000
,
1000
0000
0100
0000
1000
0000
0100
0000
0010
0000
0001
0000
0000
0011
0000
0000
,
0100
1000
0100
0010
0010
0002
0003
0000
,
0010
0000
0100
0000
0010
0000
0100
0000
1000
0000
0100
0000
0000
0110
0000
0000
,
0010
0000
0001
0000
0010
0000
0100
0000
1000
0000
0100
0000
0000
1100
0000
0000
,
0010
0000
0001
0000
0010
0000
0100
0000
1000
0000
0100
0000
0000
0011
0000
0000
,
0100
1000
0100
0010
0001
0020
0030
0000
,
0100
1000
0100
0010
0001
1000
0010
0100
,
0010
1000
0001
2000
3000
0001
0010
0100
,
0010
0001
0000
0011
0000
0100
1000
0100
,
0010
0100
1000
0100
0000
0010
0001
0010
,
0000
0110
0000
1100
0000
0001
0010
0100
,
1000
0200
0000
1300
0000
0001
0100
0010
,
1000
0002
0000
1003
0000
0010
0100
0010
,
1000
0001
0100
0001
0000
1000
0100
1000
,
0001
0000
1000
0000
0100
0000
1000
0000
0001
0000
0100
0000
0000
0101
0000
0000
,
0010
0000
1000
0000
0010
0000
0100
0000
0001
0000
1000
0000
0000
1010
0000
0000
,
0001
0000
0100
0000
0010
0000
1000
0000
0010
0000
0100
0000
0000
0110
0000
0000
,
0001
0000
0010
0000
0100
0000
1000
0000
0010
0000
0200
0000
0000
0300
0000
0000
,
0001
0000
0010
0000
0100
0000
1000
0000
0100
0000
1000
0000
0000
1100
0000
0000
,
0001
0000
0100
0000
0010
0000
1000
0000
0100
0000
0010
0000
0000
0011
0000
0000
,
0100
0000
1000
0000
0100
0000
0010
0000
0001
0000
1000
0000
0000
1100
0000
0000
,
0010
0001
1000
0001
0100
0002
0003
0000
,
1000
0100
1000
0100
0010
0001
0010
0001
,
1000
0010
1000
0010
0100
0001
0100
0001
,
1000
1000
1000
0001
0100
0010
0100
0001
,
1000
0010
0100
0001
1000
0200
0000
0300
,
1000
0100
0010
0001
1000
0010
0100
0010
,
1000
0001
0100
0010
0100
0001
1000
0010
,
0100
0001
1000
0010
1000
0001
0100
0001
,
1000
0100
1000
0100
0010
0001
0010
0100
,
1000
0000
0001
0000
0100
0000
0010
0000
1000
0000
0001
0000
0000
2002
0000
0000
,
0000
0000
0000
0000
,
3003
0000
0000
0000
;

//---------------dance-single - ----------------
#NOTES:
     dance-single:
     :
     Medium:
     6:
     0.379,0.357,0.281,0.061,0.000:
0000
0000
0000
0000
,
0000
0000
0000
0000
,
0000
0000
0000
0000
,
0000
0000
0000
0000
,
0000
1000
0010
1000
0010
0100
0000
0100
,
0000
0001
1000
0001
1000
0010
0000
0010
,
0000
1000
0100
0010
0001
0100
0000
0001
,
0000
1000
0100
0010
0001
1000
0000
0000
,
0001
1000
0001
1000
0010
0000
0000
0000
,
0000
0100
0000
0100
0000
0001
0000
0001
,
0000
1000
0100
0010
0000
0001
0000
1000
,
0000
0001
0100
0010
0100
0001
0000
1000
,
0000
0010
0100
0010
0000
1000
0000
0001
,
0000
0010
0100
1000
0000
0100
0000
1000
,
0000
0001
0100
0001
0000
0010
0000
0100
,
0000
1000
0001
1000
0000
0010
0000
0100
,
0000
0001
1000
0001
0000
0020
0000
0030
,
1000
0100
0010
0001
0000
1100
0000
1100
,
0000
0001
0100
0010
0000
0010
1000
0001
,
0100
0010
0100
0010
0000
1000
0000
1001
,
0000
0010
0100
0010
0000
1000
0001
1000
,
0010
0000
0010
0100
0000
0100
0000
1010
,
0000
0100
0000
0101
0000
1000
0100
0010
,
0001
0000
1000
0100
1000
0001
0000
0001
,
0000
0100
0010
0100
0001
1000
0010
0100
,
0100
0000
0001
1000
0000
0110
0000
0110
,
0000
0001
0010
0100
0000
1010
0000
0101
,
0000
1000
0010
0100
0000
0100
0001
1000
,
0000
0010
1000
0100
0000
1000
0000
1100
,
0000
0000
0001
0100
0000
0010
0000
0110
,
0000
0001
0000
1001
0000
0010
0000
0100
,
0100
0000
1000
0010
0000
0010
0000
1000
,
0000
1000
0000
0001
0100
0000
0101
0000
,
1000
1000
0010
0110
,
0000
0001
0010
0100
0000
1000
0000
1000
,
0000
0001
0100
0001
0000
1010
0000
0101
,
0000
1000
0010
1000
0000
0001
0000
0100
,
0000
0010
1000
0010
0000
0110
0000
0101
,
0000
1000
0010
1000
0000
0101
0000
1010
,
0000
0001
0010
0100
0000
1100
0000
0011
,
0000
0001
0010
0100
0000
1000
0000
0010
,
0000
0100
0000
0001
0000
1000
0010
1000
,
0000
0001
0100
0001
0000
1000
0010
0100
,
0000
0001
0100
0010
0000
1000
0000
0001
,
0000
1000
0000
0010
0000
0100
0000
0001
,
0000
1001
0000
1001
0000
1000
0000
0010
,
0000
0100
0010
0100
0000
0001
0000
1000
,
0000
0001
1000
0001
0000
0100
0000
0010
,
0000
1000
0000
0001
0000
2000
0000
3000
,
0000
0110
0000
0110
0000
1001
0000
0000
,
0000
0100
0000
0010
0100
0010
0000
0010
,
0000
1000
0001
1000
0000
0110
0000
0110
,
0000
0001
1000
0001
0000
2000
0000
3000
,
0000
0001
0000
0010
0000
1100
0000
1100
,
0000
0001
0100
0001
0000
1010
0000
0101
,
0000
1000
0010
1000
0000
0110
0000
0101
,
0000
1000
0010
1000
0000
0202
0000
0303
,
0000
0000
0000
0000
0000
1000
0000
0010
,
0000
0100
0001
0100
0000
0010
0000
1000
,
0000
0001
0010
0100
0000
1000
0000
0010
,
0000
0100
0000
0001
0000
2000
3000
0000
,
0000
0010
0000
0100
0000
0001
1000
0001
,
0000
1000
0010
1000
0000
0001
0100
0010
,
0000
1000
0000
0010
0000
0100
0001
0100
,
0000
0010
0100
1000
0000
0001
0010
0100
,
0000
1000
0001
1000
0000
2002
0000
0000
,
0000
0000
0000
0000
,
3003
0000
0000
0000
;

//---------------dance-single - ----------------
#NOTES:
     dance-single:
     :
     Easy:
     3:
     0.258,0.255,0.129,0.046,0.000:
0000
0000
0000
0000
,
0000
0000
0000
0000
,
0000
0000
0000
0000
,
0000
0000
0000
0000
,
0000
1000
0000
1000
0000
0010
0000
0000
,
0000
0100
0000
0100
0000
0001
0000
0000
,
0000
0010
0000
0010
0000
0100
0000
0000
,
0000
1000
0000
1000
0000
0010
0000
0000
,
0000
0100
0000
0100
0000
0000
0000
0000
,
0000
0000
0000
0000
0000
0010
0000
0001
,
0000
0010
0000
0100
0000
1000
0000
0000
,
0000
0001
0000
0010
0000
0001
0000
0000
,
0000
1000
0000
0010
0000
0100
0000
0000
,
0000
0001
0000
0010
0000
0100
0000
0100
,
0000
1000
0000
0010
0000
0100
0000
0000
,
0000
0001
0000
1000
0000
0010
0000
0010
,
0000
0100
0000
0001
0000
1000
0000
1000
,
0000
0010
0000
0010
0000
0100
0000
0100
,
0000
0100
0000
0100
0000
0100
0000
0100
,
0000
0100
0000
0100
0000
1001
0000
1001
,
0000
0010
0000
0010
0000
0010
0000
0010
,
0000
0010
0000
0010
0000
1000
0000
0001
,
0000
1000
0000
0001
0000
1000
0000
0001
,
0000
0100
0000
0010
0000
1000
0000
1000
,
0000
0001
0000
0100
0000
0010
0000
0010
,
0000
0000
0000
1000
0000
1001
0000
1001
,
0000
0010
0000
0100
0000
0110
0000
0110
,
0000
0001
0000
1000
0000
0001
0000
1000
,
0000
0010
0000
0100
0000
0101
0000
0101
,
0000
0000
0000
0010
0000
1000
0000
0010
,
0000
1000
0000
0010
0000
0100
0000
0100
,
0000
0100
0000
0100
0000
0001
0000
1000
,
0000
0010
0000
0000
0100
0000
0100
0000
,
0000
1000
0000
1000
0000
0101
0000
0000
,
0000
0010
0000
0010
0000
1001
0000
0000
,
0000
1000
0000
1000
0000
1010
0000
0000
,
0000
0001
0000
0100
0000
0002
0000
0003
,
0000
1000
0000
0010
0000
0110
0000
0000
,
0000
0001
0000
1000
0000
1001
0000
0000
,
0000
0010
0000
0100
0000
0110
0000
0000
,
0000
1000
0000
0001
0000
2000
0000
3000
,
0000
0000
0000
0000
0000
0010
0000
0010
,
0000
0010
0000
0010
0000
0100
0000
0100
,
0000
0100
0000
0100
0000
0001
0000
0001
,
0000
0001
0000
0001
0000
1000
0000
0010
,
0000
1000
0000
1000
0000
0100
0000
0100
,
0000
0100
0000
0100
0000
0010
0000
0010
,
0000
0010
0000
0010
0000
0001
0000
1000
,
0000
0001
0000
1000
0000
2000
0000
0000
,
0000
0000
0000
0000
3000
0110
0000
0001
,
0000
0010
0000
0100
0000
1000
0000
0001
,
0000
1000
0000
0010
0000
1000
0000
0001
,
0000
0100
0000
0010
0000
1010
0000
0000
,
0000
1000
0000
1000
0000
0001
0000
0100
,
0000
0010
0000
1000
0000
1000
0000
0001
,
0000
0010
0000
0100
0000
1000
0000
0001
,
0000
0100
0000
0010
0000
2000
3000
0000
,
0000
0000
0000
0000
0000
0001
0000
0100
,
0000
0001
0000
0100
0000
0001
0000
0100
,
0000
0001
0000
0100
0000
0010
0000
1000
,
0000
0010
0000
1000
0000
0010
0000
1000
,
0000
0010
0000
1000
0000
0001
0000
0100
,
0000
0001
0000
0100
0000
0001
0000
0100
,
0000
0010
0000
1000
0000
0010
0000
0010
,
0000
0100
0000
0100
0000
0001
0000
0001
,
0000
1000
0000
1000
0000
2002
0000
0000
,
0000
0000
0000
0000
,
3003
0000
0000
0000
;

//---------------dance-single - Copied from----------------
#NOTES:
     dance-single:
     Copied from:
     Beginner:
     1:
     0.124,0.125,0.008,0.000,0.000:
0000
0000
0000
0000
,
0000
0000
0000
0000
,
0000
0000
0000
0000
,
0000
0000
0000
0000
,
0000
0000
0000
0000
0000
1000
0000
0000
,
0000
0000
0000
0000
0000
0001
0000
0000
,
0000
0000
0000
0000
0000
1000
0000
0000
,
0000
0000
0000
0000
0000
0001
0000
0000
,
0000
0000
0000
0100
0000
0000
0000
0000
,
0000
0000
0000
0000
0000
1000
0000
0000
,
0000
0001
0000
0000
0000
1000
0000
0000
,
0000
0001
0000
0000
0000
1000
0000
0000
,
0000
0001
0000
0000
0000
1000
0000
0000
,
0000
0001
0000
0000
0000
0100
0000
0000
,
0000
0010
0000
0000
0000
0100
0000
0000
,
0000
0010
0000
0000
0000
0100
0000
0000
,
0000
0010
0000
0000
0000
0100
0000
0000
,
0000
0010
0000
0000
0000
1000
0000
0000
,
0000
1000
0000
0000
0000
1000
0000
0000
,
0000
1000
0000
0000
0000
0001
0000
0000
,
0000
0001
0000
0000
0000
0001
0000
0000
,
0000
0001
0000
0000
0000
0100
0000
0000
,
0000
0100
0000
0000
0000
0100
0000
0000
,
0000
0100
0000
0000
0000
0010
0000
0000
,
0000
0010
0000
0000
0000
0000
0000
0010
,
0000
0000
0000
0000
0000
1000
0000
0000
,
0000
1000
0000
0000
0000
1000
0000
0000
,
0000
1000
0000
0000
0000
0001
0000
0000
,
0000
0001
0000
0000
0000
0001
0000
0000
,
0000
0001
0000
0000
0000
0100
0000
0000
,
0000
0100
0000
0000
0000
0100
0000
0000
,
0000
0100
0000
0000
0000
0010
0000
0000
,
0000
0010
0000
0000
0000
0010
0000
0000
,
0000
1000
0000
0000
0000
1000
0000
0000
,
0000
0010
0000
0000
0000
0010
0000
0000
,
0000
0100
0000
0000
0000
0100
0000
0000
,
0000
0001
0000
0000
0000
0001
0000
0000
,
0000
1000
0000
0000
0000
1000
0000
0000
,
0000
0010
0000
0000
0000
0010
0000
0000
,
0000
0100
0000
0000
0000
0100
0000
0000
,
0000
0001
0000
0000
0000
0001
0000
0000
,
0000
0000
0000
0000
0000
1000
0000
0000
,
0000
0010
0000
0000
0000
0100
0000
0000
,
0000
0001
0000
0000
0000
0000
0000
0000
,
0000
0000
0000
0000
0000
1000
0000
0000
,
0000
0001
0000
0001
0000
1000
0000
0000
,
0000
0010
0000
0000
0000
0100
0000
0000
,
0000
0001
0000
0000
0000
0000
0000
0000
,
0000
0000
0000
0000
0000
0100
0000
0100
,
0000
0010
0000
0010
0000
1000
0000
0000
,
0000
0001
0000
0000
0000
0100
0000
0000
,
0000
0001
0000
0000
0000
1000
0000
0000
,
0000
0010
0000
0000
0000
0010
0000
0000
,
0000
1000
0000
0000
0000
0001
0000
0000
,
0000
0100
0000
0000
0000
0100
0000
0000
,
0000
0001
0000
0000
0000
1000
0000
0000
,
0000
0010
0000
0000
0000
0010
0000
0000
,
0000
0000
0000
0000
0000
1000
0000
0000
,
0000
0001
0000
0000
0000
1000
0000
0000
,
0000
0001
0000
0000
0000
1000
0000
0000
,
0000
0001
0000
0000
0000
1000
0000
0000
,
0000
0001
0000
0000
0000
0100
0000
0000
,
0000
0010
0000
0000
0000
0100
0000
0000
,
0000
0010
0000
0000
0000
0100
0000
0000
,
0000
0010
0000
0000
0000
0100
0000
0000
,
0000
0000
0000
0000
0000
1001
0000
0000
;
