#TITLE:Melody Life (eco);
#SUBTITLE:;
#ARTIST:Noria;
#TITLETRANSLIT:;
#SUBTITLETRANSLIT:;
#ARTISTTRANSLIT:;
#CREDIT:SupremeX;
#BANNER:Melody Life (eco)-bn.png;
#BACKGROUND:Melody Life (eco)-bg.png;
#LYRICSPATH:;
#CDTITLE:;
#MUSIC:Melody Life (eco).ogg;
#OFFSET:-0.933;
#SAMPLESTART:69.300;
#SAMPLELENGTH:12.000;
#SELECTABLE:YES;
#BPMS:0.000=172.020;
#STOPS:;
#BGCHANGES:;

//---------------dance-single - ----------------
#NOTES:
     dance-single:
     :
     Hard:
     8:
     0.638,0.600,0.319,0.125,0.000:
0000
0000
0000
0000
,
0000
0000
0000
0000
,
0000
0000
0000
0000
,
0000
0000
0000
0000
,
1000
0100
0010
0001
0000
0100
0010
0100
,
0010
1000
0001
1000
0000
0001
0100
0001
,
0100
0010
1000
0010
0000
1000
0010
0100
,
0001
1000
0001
0100
0000
0010
1000
0000
,
1000
0001
0010
0100
0000
1000
0100
1000
,
0001
1000
0100
1000
0000
0001
0001
0000
,
1000
0100
1000
0100
0000
0010
0001
0010
,
0100
1000
0100
0010
0000
0001
0100
0100
,
0001
1000
0001
1000
0000
0010
0100
0010
,
0100
0001
1000
1000
0000
0100
0010
0001
,
0010
0100
0001
0001
0000
1000
0001
1000
,
0010
0100
0100
0100
0000
0001
1000
0000
,
0101
0000
1000
0001
0100
0000
0100
0001
,
1000
0000
0001
0010
0100
1000
0000
0110
,
0000
0001
0002
0000
1003
0010
0100
0010
,
1000
0001
0100
0001
1000
0010
0100
0010
,
0100
0000
0001
0010
0100
0000
1000
0200
,
0000
0320
0000
0031
0000
0001
1000
0100
,
0000
0000
0000
1000
1000
0000
0000
0110
,
0000
0101
0000
1010
0000
0000
0001
2000
,
0000
3100
1000
0100
0010
0001
1000
0001
,
0000
0110
0000
1001
0000
0000
0100
0020
,
0000
1030
0100
0010
0001
1000
0100
1000
,
0000
0101
0000
1010
0000
0000
0000
0001
,
0000
0001
0100
0010
0100
0010
0000
1000
,
0000
0100
1000
0100
1000
0100
0000
0022
,
0000
0033
0000
0000
0100
0100
0001
1000
,
0000
1010
0000
0101
0000
1001
0000
0000
,
0110
0000
0100
0010
0100
0000
0001
1000
,
0001
0000
1000
0100
1000
0100
0000
0020
,
0000
0001
0031
0000
1000
0001
1000
0100
,
1000
0001
1000
0100
0000
0010
0100
0010
,
0001
0000
0001
1000
0001
0000
1000
0100
,
0000
1100
0000
1001
0000
0101
0000
0020
,
0000
0000
1000
1030
0000
0000
1000
0001
,
0000
0101
0000
1010
0000
0000
0100
0001
,
0000
0001
0100
0010
1000
0010
0100
0010
,
0000
1001
0000
0110
0000
0000
0001
1000
,
0000
1000
0010
0100
0010
1000
0001
1000
,
0000
0101
0000
1010
0000
0000
0000
0002
,
0000
1003
0100
0010
0001
1000
0000
0200
,
0000
1300
0001
0010
0100
1000
0000
2002
,
0000
3003
0000
0000
0010
0100
0010
1000
,
0000
1001
0000
0110
0000
1001
0000
0000
,
0100
0100
0100
0001
1000
0100
1000
0001
,
0000
0001
1000
0100
1000
0001
1000
0100
,
1000
0100
0010
0001
1000
0100
1000
0100
,
0010
0001
0010
0100
1000
0001
1000
0001
,
0100
0110
0000
1001
0000
0000
0000
1100
,
0000
0010
0001
0010
0001
1000
0000
1100
,
0000
0010
0001
0010
0001
1000
0001
1000
,
0000
0000
0010
0100
0000
0100
0010
1000
,
0000
0101
0000
1010
0000
1001
0000
0000
,
0100
0010
1000
0001
1000
0010
0100
0010
,
0100
0001
1000
0001
1000
0010
0100
0010
,
1000
0001
0010
0100
1000
0001
0100
0001
,
0100
0010
0000
1001
0000
0000
0000
0100
,
0000
1000
0100
1000
0100
0100
0000
0010
,
0000
0001
1000
0100
0010
0000
0001
0200
,
0000
0000
0010
0000
0310
0000
1000
0101
,
0000
1001
0000
1100
0010
0001
0010
0100
,
1000
0001
1000
0100
0000
0010
0001
0100
,
0010
1000
0100
0100
0000
1000
0001
0100
,
0010
1000
0100
0100
0000
1000
0010
0100
,
0001
0100
0010
1000
0001
1000
0100
0000
,
0100
1000
0001
1000
0000
1000
0100
0010
,
0001
1000
0100
0100
0000
1000
1000
1000
,
0001
0100
0001
1000
0000
1000
0001
0010
,
0100
1000
0010
0100
0001
0100
0010
0000
,
0000
1000
0100
1000
0000
0001
0100
0001
,
0000
1000
0100
1000
0001
0101
0000
0101
,
0000
1000
0010
1000
0000
0001
0100
0001
,
0000
1000
0100
0010
0001
0010
0100
0000
,
1000
0100
0010
0100
0000
1000
0001
1000
,
0000
0010
0100
0001
0100
0010
1000
0001
,
0000
1000
0100
0010
0100
0010
0001
0010
,
0100
1000
0001
0100
0001
1000
0010
0000
,
1000
0000
0001
0100
0000
0100
0001
1000
,
0010
0100
0001
1000
0000
0001
0100
0001
,
1000
0100
0010
0001
0000
1000
0001
1000
,
0100
1000
0001
0100
0000
0010
1000
0000
,
0001
0010
0100
1000
0000
0100
0010
0100
,
0010
0001
1000
0010
0000
0010
1000
0001
,
0100
0010
1000
0010
0000
1000
0001
0100
,
0001
1000
0100
1000
0000
0001
1000
0001
,
2002
0000
0000
0000
,
0000
0000
0000
3003
;

//---------------dance-single - ----------------
#NOTES:
     dance-single:
     :
     Medium:
     6:
     0.480,0.459,0.218,0.070,0.000:
0000
0000
0000
0000
,
0000
0000
0000
0000
,
0000
0000
0000
0000
,
0000
0000
0000
0000
,
0010
0000
0010
1000
0000
1000
0100
0010
,
0100
1000
0100
0010
0000
0001
0001
0000
,
1000
0000
0010
0100
0000
0100
0010
0000
,
1000
0000
0010
1000
0000
1000
0010
0000
,
0100
0000
0100
0001
0000
0001
1000
0000
,
1000
0000
0010
0100
0000
0001
0001
0000
,
1000
0000
0100
1000
0000
1000
0010
0000
,
0010
0000
0100
0001
0000
1000
1000
0000
,
0010
0000
0100
0010
0000
0010
0100
0000
,
0001
0000
1000
1000
0000
0010
0010
0000
,
0100
0000
0001
1000
0000
1000
0001
0000
,
0100
0000
0010
0100
0000
0001
0001
0000
,
1000
0100
1000
0001
,
0100
0000
0001
1000
0001
1000
0000
0010
,
0000
0100
0020
0000
0000
0000
0100
0000
,
0000
0100
0000
0130
,
0000
0001
1000
0100
,
1000
0100
0010
0001
,
1000
0000
0000
0001
0001
0000
0000
0100
,
0000
0010
0000
0110
0000
0000
0001
1000
,
0000
1000
0001
0000
0001
0000
0000
1000
,
0000
1010
0000
0101
0000
0000
0010
0000
,
0000
1000
0100
0000
0100
0000
0000
1000
,
0000
0101
0000
1001
0000
0000
0000
0010
,
0000
1000
0001
0100
0001
1000
0000
0010
,
0000
0010
0100
0001
0100
0001
0000
2000
,
0000
3000
0000
0000
0100
0010
0100
0010
,
0000
0011
0000
1100
0000
1001
0000
0000
,
0100
0000
0010
0010
1000
0000
0100
0100
,
0010
0000
0001
0001
1000
0000
0000
0010
,
0000
0010
1000
0000
0001
0010
0100
1000
,
0000
0001
0100
0001
0000
1000
0010
0100
,
0001
0000
1000
0000
0001
0000
1000
0010
,
0000
0010
0000
0100
0000
0001
1000
0001
,
0000
0000
0000
1000
0100
0000
0000
1000
,
0000
0110
0000
0101
0000
0000
0010
1000
,
0000
1000
0010
0100
0001
0000
0000
0101
,
0000
1001
0000
1010
0000
0000
0100
0001
,
0000
0001
0100
0000
0010
1000
0010
0100
,
0000
1001
0000
0110
0000
0000
0001
0000
,
0000
1000
0100
1000
0100
1000
0000
0010
,
0000
0000
0010
0000
0001
1000
0000
2002
,
0000
3003
0000
0000
0100
0010
0001
1000
,
0000
1100
0000
0011
0000
1100
0000
0000
,
0010
0010
0010
0000
0001
0000
0001
0000
,
0000
1000
0100
1000
0000
0001
1000
0001
,
0000
0100
0010
0100
0000
0001
1000
0001
,
0000
1000
0100
0100
,
1000
1000
0010
0010
,
0001
0000
0001
0000
1000
0010
0000
0010
,
0000
1000
0100
0000
0100
0000
0001
1000
,
0000
0000
0001
1000
0000
0010
0100
0001
,
0000
1001
0000
1100
0000
1001
0000
0000
,
0000
0100
0010
0100
0000
0001
0010
0100
,
0000
1000
0100
0010
0000
0001
1000
0001
,
0000
1000
0010
0000
0010
0000
0100
0000
,
0001
1000
0000
0220
0000
0330
0000
0001
,
0000
1000
0001
0000
1000
1000
0000
0010
,
0000
0100
0010
0000
1000
0000
0001
2000
,
0000
0000
0000
3000
,
0001
0010
0100
1000
,
0001
0000
0001
0100
0000
0100
0010
0000
,
0010
0000
1000
1000
0000
0001
0100
0010
,
0100
0001
1000
0010
0000
0010
1000
0000
,
0001
0110
1001
0110
,
1000
0000
0001
0100
0000
0100
0001
0000
,
1000
0000
0100
0100
0000
1000
0010
0000
,
0010
0000
1000
1000
0000
0001
1000
0000
,
0001
0100
0010
1000
0001
1000
0010
0000
,
0000
0100
0100
0100
0000
0001
0001
0001
,
0000
0000
1000
0000
1000
0100
0000
0100
,
0000
1000
0001
0010
,
0100
0000
0010
1000
0001
1000
0010
0000
,
1000
0001
1000
0010
,
0100
0000
0001
0000
1000
0010
0000
0110
,
0000
0001
1000
0100
,
1000
0000
0001
0000
1000
0100
1000
0000
,
0001
0000
0100
0100
0000
0000
0010
0000
,
0010
0000
1000
0001
0000
0001
1000
0000
,
0010
0000
0010
0100
0000
0100
0001
0000
,
1000
0000
0010
0100
0000
0100
0001
0000
,
1000
0000
0100
0100
0000
1000
0001
0000
,
1000
0000
0100
0100
0000
1000
0001
0000
,
0010
0000
0100
0100
0000
1000
0001
0000
,
0100
0000
0100
0001
0000
0001
1000
0000
,
2002
0000
0000
0000
,
0000
0000
0000
3003
;

//---------------dance-single - ----------------
#NOTES:
     dance-single:
     :
     Easy:
     3:
     0.331,0.389,0.171,0.039,0.000:
0000
0000
0000
0000
,
0000
0000
0000
0000
,
0000
0000
0000
0000
,
0000
0000
0000
0000
,
1000
0010
1000
0001
,
0100
0010
1000
0001
,
1000
0010
0100
0001
,
1000
1000
0010
0100
,
0001
0000
0000
1000
0000
0000
0001
0000
,
1000
0010
0000
1000
,
0001
0100
0000
0010
,
1000
0001
0000
1000
,
0010
0100
0000
0001
,
1000
0010
0000
0000
,
1000
0001
0100
0010
,
1000
0001
0100
0010
,
1000
0001
0001
1000
,
1000
0000
0010
0000
0010
0000
0000
0100
,
0000
0001
0001
0000
0000
0000
1000
0000
,
0000
0110
0000
0001
,
0000
1000
0010
0100
,
0001
1000
0010
0100
,
0000
0000
0000
0001
0001
0000
0000
1000
,
0000
1000
0000
1000
0000
0000
0000
0010
,
0000
0000
0100
0000
0010
0000
0000
0100
,
0000
0100
0000
0100
0000
0000
0000
0000
,
0001
0000
0000
0000
1000
0000
0000
0001
,
0000
0001
0000
0001
0000
0000
0000
1000
,
0000
0100
1000
0000
,
0010
0000
0100
0000
0010
0000
0000
0200
,
0000
0000
0300
0000
0001
0000
0000
1000
,
0000
0001
0000
1001
0000
0110
0000
0000
,
0000
1000
0010
1000
,
0001
0000
0100
0000
0010
0000
0000
1000
,
0000
1000
1000
0000
0000
0000
0001
0000
,
0000
0100
0000
0010
,
1000
0001
0100
0010
,
1000
0001
0100
0010
,
0000
0000
0000
0001
0001
0000
0000
1000
,
0000
1000
0000
1000
0000
0000
0000
0000
,
0010
0000
0000
0000
0100
0000
0000
0001
,
0000
1000
0000
0001
0000
0000
0000
1000
,
0000
0000
0000
0000
0010
0000
0000
0100
,
0000
0100
0000
0100
0000
0000
0000
0000
,
0001
1000
1000
0000
,
0001
0000
0100
0000
0010
0000
0000
2000
,
0000
3000
0000
0000
0001
0000
0000
0100
,
0000
0010
0000
0110
0000
0110
0000
0000
,
1000
1000
0001
0000
,
1000
0010
1000
0001
,
0100
0010
1000
0001
,
1000
0010
0100
0001
,
1001
0000
0000
1001
0000
0000
0000
0000
,
1000
0010
1000
0000
,
0001
0000
0100
0000
0001
0000
0000
1000
,
0000
0000
0000
0010
0000
0000
0000
0110
,
0000
0110
0000
1001
0000
1001
0000
0000
,
0100
0010
1000
0010
,
0100
0001
0100
0010
,
1000
0010
1000
0001
,
0110
0000
0000
0110
0000
0000
0000
0000
,
1000
1000
1000
0000
,
0001
0000
0001
0000
0001
0000
0000
2000
,
0000
0000
0000
0000
0000
3000
0000
0110
,
0000
0110
0000
0110
0000
0000
0000
0000
,
0001
1000
0001
1000
,
0001
1000
0010
1000
,
0010
1000
0010
1000
,
0010
0010
0010
0010
,
0100
0001
0100
0001
,
0100
0001
0100
0001
,
0100
0001
0100
0001
,
1000
1000
1000
1000
,
0010
0100
0010
0100
,
0010
0100
0001
1000
,
0001
1000
0001
1000
,
0010
0010
0010
0010
,
0100
1000
0100
1000
,
0100
1000
0100
1000
,
0100
1000
0100
0100
,
0010
0010
0100
0100
,
0001
0000
0000
1000
0000
0000
0000
0000
,
0010
0000
0000
1010
0000
0000
0000
0000
,
0001
0000
0000
0001
0000
0000
0000
0000
,
1000
0000
0000
1001
0000
0000
0000
0000
,
0010
0000
0000
0100
0000
0000
0000
0000
,
0010
0000
0000
0110
0000
0000
0000
0000
,
1000
0000
0000
1001
0000
0000
0000
0000
,
0001
0000
0000
0101
0000
0000
1000
0000
,
2020
0000
0000
0000
,
0000
0000
0000
3030
;

//---------------dance-single - Copied from ----------------
#NOTES:
     dance-single:
     Copied from:
     Beginner:
     1:
     0.091,0.106,0.000,0.008,0.000: // measure 1
0000
0000
0000
0000
,  // measure 2
0000
0000
0000
0000
,  // measure 3
0000
0000
0000
0000
,  // measure 4
0000
0000
0000
0000
,  // measure 5
0001
0000
0000
0000
,  // measure 6
0001
0000
0000
0000
,  // measure 7
1000
0000
0000
0000
,  // measure 8
1000
0000
0000
0000
,  // measure 9
0001
0000
0000
0000
,  // measure 10
0001
0000
0000
0000
,  // measure 11
1000
0000
0000
0000
,  // measure 12
1000
0000
0000
0000
,  // measure 13
0001
0000
0000
0000
,  // measure 14
0001
0000
0000
0000
,  // measure 15
1000
0000
0000
0000
,  // measure 16
1000
0000
0000
0000
,  // measure 17
0010
0000
0000
0000
,  // measure 18
0000
0000
0000
0000
0000
0000
0000
0010
,  // measure 19
0000
0000
0000
0000
,  // measure 20
0000
0000
0000
0000
,  // measure 21
0100
0000
0000
0000
,  // measure 22
0000
0000
0000
0000
0000
0000
0000
0100
,  // measure 23
0000
0000
0000
0000
,  // measure 24
0000
0000
0000
0000
,  // measure 25
0001
0000
0000
0000
0000
0000
0000
0001
,  // measure 26
0000
0000
0000
0000
0000
0000
0000
1000
,  // measure 27
0000
0000
0000
0000
0000
0000
0000
1000
,  // measure 28
0000
0000
0000
0000
0000
0000
0000
0010
,  // measure 29
0000
0000
0000
0000
0000
0000
0000
0010
,  // measure 30
0000
0000
0000
0000
0000
0000
0000
0100
,  // measure 31
0000
0000
0000
0000
0000
0000
0000
0001
,  // measure 32
0000
0000
0000
0000
,  // measure 33
1000
0000
0000
0000
0000
0000
0000
1000
,  // measure 34
0000
0000
0000
0000
0000
0000
0000
0010
,  // measure 35
0000
0000
0000
0000
,  // measure 36
0100
0000
0000
0000
,  // measure 37
0001
0000
0000
0000
,  // measure 38
1000
0000
0000
0000
0000
0000
0000
0010
,  // measure 39
0000
0000
0000
0000
0000
0000
0000
0010
,  // measure 40
0000
0000
0000
0000
0000
0000
0000
0100
,  // measure 41
0000
0000
0000
0000
0000
0000
0000
0100
,  // measure 42
0000
0000
0000
0000
0000
0000
0000
0001
,  // measure 43
0000
0000
0000
0000
0000
0000
0000
0001
,  // measure 44
0000
0000
0000
0000
0000
0000
0000
1000
,  // measure 45
0000
0000
0000
0000
0000
0000
0000
1000
,  // measure 46
0000
0000
0000
0000
0000
0000
0000
1000
,  // measure 47
0000
0000
0000
0000
0000
0000
0000
0010
,  // measure 48
0000
0000
0000
0000
,  // measure 49
0100
0000
0000
0000
,  // measure 50
0001
0000
0000
0000
,  // measure 51
0001
0000
0000
0000
,  // measure 52
0001
0000
0000
0000
,  // measure 53
0001
0000
0000
0000
,  // measure 54
1000
0000
0000
0000
0000
0000
0000
1000
,  // measure 55
0000
0000
0000
0000
0000
0000
0000
1000
,  // measure 56
0000
0000
0000
0000
0000
0000
0000
0010
,  // measure 57
0000
0000
0000
0000
,  // measure 58
0100
0000
0000
0000
,  // measure 59
0100
0000
0000
0000
,  // measure 60
0100
0000
0000
0000
,  // measure 61
0100
0000
0000
0000
,  // measure 62
0010
0000
0000
0000
0000
0000
0000
0010
,  // measure 63
0000
0000
0000
0000
0000
0000
0000
0010
,  // measure 64
0000
0000
0000
0000
,  // measure 65
0000
0000
0000
0000
,  // measure 66
1000
0000
0000
0000
,  // measure 67
1000
0000
0000
0000
,  // measure 68
0001
0000
0000
0000
,  // measure 69
0001
0000
0000
0000
,  // measure 70
1000
0000
0000
0000
,  // measure 71
1000
0000
0000
0000
,  // measure 72
0001
0000
0000
0000
,  // measure 73
0001
0000
0000
0000
,  // measure 74
1000
0000
0000
0000
,  // measure 75
0010
0000
0000
0000
,  // measure 76
1000
0000
0000
0000
,  // measure 77
0001
0000
0000
0000
,  // measure 78
0100
0000
0000
0000
,  // measure 79
0001
0000
0000
0000
,  // measure 80
1000
0000
0000
0000
,  // measure 81
0010
0000
0000
0000
,  // measure 82
1000
0000
0000
0000
,  // measure 83
0100
0000
0000
0000
,  // measure 84
0010
0000
0000
0000
,  // measure 85
0001
0000
0000
0000
,  // measure 86
1000
0000
0000
0000
,  // measure 87
0100
0000
0000
0000
,  // measure 88
0010
0000
0000
0000
,  // measure 89
0001
0000
0000
0000
,  // measure 90
2000
0000
0000
0000
,  // measure 91
0000
0000
0000
3000
;
