#TITLE:MaxX AttaxX;
#SUBTITLE:;
#ARTIST:DM Ashura;
#TITLETRANSLIT:;
#SUBTITLETRANSLIT:;
#ARTISTTRANSLIT:;
#CREDIT:SupremeX;
#BANNER:MaxX AttaxX-bn.png;
#BACKGROUND:MaxX AttaxX-bg.png;
#LYRICSPATH:;
#CDTITLE:;
#MUSIC:MaxX AttaxX.ogg;
#OFFSET:-5.978;
#SAMPLESTART:31.002;
#SAMPLELENGTH:13.640;
#SELECTABLE:YES;
#BPMS:0.000=325.500,128.000=162.750,133.000=325.500;
#STOPS:128.000=1.106
;
#BGCHANGES:;

//---------------dance-single - ----------------
#NOTES:
     dance-single:
     :
     Hard:
     10:
     0.950,1.000,0.584,0.021,0.000:
1000
0100
0010
0001
,
1000
0000
0100
1000
0100
1000
0100
1000
,
0100
0010
0001
1000
,
0001
0000
0100
0001
0100
0001
0100
0001
,
0100
0010
1000
0001
,
1000
0000
0010
0100
0010
0100
0010
0100
,
0010
1000
0100
0010
,
0001
0000
1000
0100
1000
0100
1000
0100
,
1000
0010
0010
1000
,
1000
0000
0001
0010
0001
0010
0001
0010
,
0001
0000
1000
0100
1000
0000
0001
1000
,
0001
0000
0100
0010
0100
0010
0100
0010
,
0100
0000
0001
1000
0010
0000
1000
0001
,
0100
0000
0001
0100
0001
0100
0001
0100
,
0001
0000
1000
0010
1000
0010
1000
0010
,
1000
0001
0100
0010
1000
0001
0100
0001
,
1000
0100
1000
0100
1000
0100
0010
0001
,
0010
0000
0100
1000
0100
1000
0001
0100
,
0001
0000
1000
0010
1000
0010
0100
0001
,
0100
0000
0010
0100
0010
0100
0010
1000
,
0010
0000
0100
0001
0100
0001
0010
0100
,
1000
0000
0100
1000
0100
0010
0001
1000
,
0001
0000
1000
0100
1000
0100
0010
0001
,
0010
0000
0100
1000
0100
0010
0001
0010
,
0100
0000
1000
0010
1000
0010
1000
0010
,
1000
0000
0001
0100
0001
0100
0001
0100
,
0001
0000
1000
0100
1000
0100
1000
0100
,
1000
0000
0001
0100
0001
0100
0001
0100
,
0001
0000
0100
0010
0100
0010
1000
0000
,
0100
0010
1000
0010
1000
0010
0100
0001
,
0100
0010
1000
0001
0100
0010
1000
0001
,
0100
0010
1000
0001
0100
0010
1000
0010
,
0200
0010
0010
0010
,
0310
0000
0100
0000
0001
0100
0001
0000
,
1000
0000
0100
0000
1000
0100
1000
0000
,
0100
0000
0010
0000
0001
0100
0001
0000
,
1000
0000
1100
0000
0000
0110
0000
0000
,
0001
0000
1000
0000
0010
1000
0010
0000
,
0100
0000
0001
0000
1000
0100
1000
0000
,
0100
0000
0010
0000
0001
0100
0001
0000
,
1000
0000
0110
0000
0000
0101
0000
0000
,
0010
0000
1000
0000
0010
1000
0010
0000
,
1000
0000
0100
0000
0010
0001
0010
0000
,
0100
0000
1000
0000
0010
0100
0010
0000
,
0100
0000
0110
0000
0000
0101
0000
0000
,
0001
0000
0010
0000
0100
1000
0100
0000
,
0010
0000
0001
0000
0010
0001
0010
0000
,
0100
0000
1000
0000
0100
1000
0100
0000
,
1000
0000
1100
0000
0000
0110
0000
0000
,
0001
0000
0101
0000
1000
0010
1000
0000
,
0001
0000
0010
0000
0100
1000
0100
0000
,
1000
0000
0001
0000
0100
0001
0100
0000
,
0001
0000
0101
0000
0000
1001
0000
0000
,
0100
0000
1000
0000
0100
1000
0100
0000
,
0010
0000
0001
0000
0100
0001
0100
0000
,
0010
0000
1000
0000
0001
0010
0100
0000
,
1000
0000
1010
0000
0000
0101
0000
0000
,
0010
0000
0010
0000
1000
0100
0010
0000
,
0001
0000
0100
0000
0001
0010
0100
0000
,
1000
0000
0100
0000
1000
0010
0100
0000
,
0010
0000
0110
0000
0000
0101
0000
0000
,
1000
0000
0100
0000
1000
0000
0100
0010
,
0100
0010
0100
0000
0010
0000
0001
1000
,
0001
1000
0001
0000
0100
0000
0010
0100
,
0010
0000
1000
0001
0000
1000
0001
0000
,
0100
0010
0100
0110
,
0001
0010
0100
1100
,
0100
0010
0001
1001
,
0100
0010
0100
0110
,
0001
0010
0100
1100
,
0010
0001
0010
0110
,
0100
1000
0100
0110
,
0010
0001
1000
1001
,
0100
0010
0100
0101
,
0010
0100
0010
1010
,
0100
0001
1000
1001
,
0001
1000
0010
0110
,
0100
0001
1000
1100
,
0010
0001
0010
0011
,
0100
1000
0100
1001
,
0010
0100
0010
1010
,
0100
0101
0001
0010
,
0100
1000
0100
1100
,
0010
0001
0010
0011
,
0100
1000
0100
0110
,
0001
0010
0100
1001
,
0100
0010
0100
0110
,
0001
0010
0100
1100
,
1000
0100
0010
0011
,
0001
0010
0100
1100
,
0100
0010
0001
1001
,
0100
0010
0100
0110
,
0001
1000
0001
1001
,
1000
0010
0100
0101
,
0100
0010
1000
1010
,
0100
0000
0100
0000
0001
1000
0010
0100
,
0001
1000
0001
0100
0010
1000
0001
0100
,
0010
1000
0001
0000
0100
0000
0001
1000
,
0000
0010
0100
0000
0100
0000
0010
1000
,
0000
0001
1000
0000
1000
0000
0100
0010
,
0000
0100
0001
0000
0101
0000
0101
0000
,
1010
0000
0100
0000
1100
0000
1000
0100
,
0000
0100
0010
0000
0010
0000
0010
0001
,
0000
1000
0100
0000
0100
0000
0010
0001
,
0000
1000
0010
0000
0110
0000
0101
0000
,
1001
0000
0100
0000
0010
0000
0100
0010
,
0000
1000
0001
0000
1000
0000
0010
1000
,
0000
0001
0100
0000
0010
0000
1000
0001
,
0000
0100
0010
0000
1010
0000
0101
0000
,
1001
0000
0100
0000
0101
0000
0001
0010
,
0000
0100
1000
0000
0001
0000
1000
0100
,
0000
0100
0010
0000
0001
0000
0010
0100
,
0000
0100
1000
0001
0100
0010
1000
0001
,
1000
0010
0200
0000
0000
0000
0000
0000
,
0000
0000
0000
0000
,
0000
0300
0000
0000
;

//---------------dance-single - ----------------
#NOTES:
     dance-single:
     :
     Challenge:
     12:
     1.000,1.000,0.917,0.344,0.000: // measure 1
1100
1100
0011
0011
,  // measure 2
1100
0000
0100
0001
1000
0010
0100
0001
,  // measure 3
1000
0110
0110
1001
,  // measure 4
1001
0000
0100
0010
1000
0001
0100
0010
,  // measure 5
1000
1010
1010
0101
,  // measure 6
0101
0000
0010
1000
0001
0100
0010
1000
,  // measure 7
0010
1010
1010
0101
,  // measure 8
0101
0000
1000
0100
0010
0001
1000
0100
,  // measure 9
0010
0011
0011
1100
,  // measure 10
1100
0000
0001
0100
0010
1000
0001
0100
,  // measure 11
0001
0000
1000
0010
1000
0000
0001
1000
,  // measure 12
0001
0000
0100
0010
1000
0001
0100
0010
,  // measure 13
1000
0000
0001
1000
0010
0000
1000
0001
,  // measure 14
0100
0000
0001
0010
0100
1000
0010
0100
,  // measure 15
0001
0000
1000
0100
0010
0001
0100
0010
,  // measure 16
0100
0001
1000
0010
1000
0001
0100
0001
,  // measure 17
1000
0100
1000
0001
1000
0100
0010
0001
,  // measure 18
0010
0100
1000
0100
1000
0100
0010
0100
,  // measure 19
0010
0001
0010
0001
1000
0100
1000
0001
,  // measure 20
1000
0100
0010
0001
0100
0010
1000
0010
,  // measure 21
0100
0010
0100
0001
1000
0001
0010
0100
,  // measure 22
1000
0100
0010
0100
1000
0100
0010
0001
,  // measure 23
0100
0010
1000
0010
1000
0100
0010
0001
,  // measure 24
1000
0010
0100
1000
0100
0010
0001
0010
,  // measure 25
0100
0000
1000
0100
0010
0001
0010
0100
,  // measure 26
0010
0001
1000
0100
0010
0100
1000
0100
,  // measure 27
0010
0001
1000
0001
0100
0010
1000
0001
,  // measure 28
1000
0100
0010
0100
1000
0001
0010
0100
,  // measure 29
0010
0001
1000
0100
1000
0100
0010
0000
,  // measure 30
0001
0010
0100
1000
0100
0010
1000
0001
,  // measure 31
1000
0100
1000
0100
0010
0001
0010
0001
,  // measure 32
1000
0010
1000
0010
0100
0001
0100
0001
,  // measure 33
2100
0001
0100
0001
,  // measure 34
3100
0000
0100
0000
0010
0100
0010
0000
,  // measure 35
0100
0000
0110
0000
1000
0001
1000
0000
,  // measure 36
0001
0000
1001
0000
0010
0100
0001
0000
,  // measure 37
1001
0000
1200
0000
0000
0320
0000
0000
,  // measure 38
0031
0000
1000
0000
0010
1000
0010
0000
,  // measure 39
0100
0000
0001
0000
1000
0100
1000
0000
,  // measure 40
0100
0000
0010
0000
0001
0100
0001
0000
,  // measure 41
1000
0000
0210
0000
0000
0302
0000
0000
,  // measure 42
0013
0000
1000
0000
0010
1000
0010
0000
,  // measure 43
1000
0000
0100
0000
0010
0001
0010
0000
,  // measure 44
0100
0000
1000
0000
0010
0100
0010
0000
,  // measure 45
0100
0000
0120
0000
0000
2030
0000
0000
,  // measure 46
3001
0000
0010
0000
0100
1000
0100
0000
,  // measure 47
0010
0000
0001
0000
0010
0001
0010
0000
,  // measure 48
0100
0000
1000
0000
0100
1000
0100
0000
,  // measure 49
1000
0000
1200
0000
0000
0320
0000
0000
,  // measure 50
0031
0000
1001
0000
0100
1000
0100
0010
,  // measure 51
0001
0000
0001
0100
0001
1000
0010
1000
,  // measure 52
0010
0100
0001
0100
0001
0010
0100
0001
,  // measure 53
1000
0000
1001
0000
0000
1001
0000
0000
,  // measure 54
0110
0000
0010
0100
0010
1000
0001
1000
,  // measure 55
0100
0010
0001
1000
0100
1000
0100
0010
,  // measure 56
0001
0010
0001
1000
0001
0010
0100
1000
,  // measure 57
0100
0000
1100
0000
0000
0110
0000
0000
,  // measure 58
0001
0000
1001
0000
1000
0100
0010
0001
,  // measure 59
1000
0010
0100
0001
1000
0100
0010
0001
,  // measure 60
1000
0010
0100
0001
1000
0010
0100
0010
,  // measure 61
0100
0000
0110
0000
0000
0101
0000
0000
,  // measure 62
1000
0000
1100
0000
1000
0100
0010
0001
,  // measure 63
1000
0010
1000
0001
0100
0001
0010
0100
,  // measure 64
1000
0100
1000
0001
1000
0100
1000
0100
,  // measure 65
0010
0000
0101
0000
0000
1001
0000
0000
,  // measure 66
0100
0110
0001
0101
,  // measure 67
0001
1010
1010
1010
,  // measure 68
0100
0010
0001
1001
,  // measure 69
0100
0010
0100
0110
,  // measure 70
0001
0100
0001
1001
,  // measure 71
0100
1010
1010
1010
,  // measure 72
0100
1000
0100
0110
,  // measure 73
0010
0001
1000
1001
,  // measure 74
0100
0010
0100
0101
,  // measure 75
0010
0100
0010
1010
,  // measure 76
0100
1001
1001
1001
,  // measure 77
0001
1000
0010
0110
,  // measure 78
0100
0001
1000
1100
,  // measure 79
0010
0001
0010
0011
,  // measure 80
0100
1000
0100
1001
,  // measure 81
0010
0110
0110
0110
,  // measure 82
1000
0000
0101
0000
0001
0010
0100
1000
,  // measure 83
0100
0010
0001
0010
0100
0000
1100
0000
,  // measure 84
0002
0203
0320
0130
,  // measure 85
0001
0010
0100
1000
0100
0000
0110
0000
,  // measure 86
0002
0023
0230
1300
,  // measure 87
1000
0100
1000
0100
1000
0000
1100
0000
,  // measure 88
0020
0032
2003
3100
,  // measure 89
0010
0001
0010
0001
0010
0000
0011
0000
,  // measure 90
0200
2300
3200
1300
,  // measure 91
1000
0100
0010
0001
0100
0000
1001
0000
,  // measure 92
0200
0320
0230
0310
,  // measure 93
0001
0010
0100
1000
0100
0000
1001
0000
,  // measure 94
0020
2030
3200
0310
,  // measure 95
0001
0100
0010
1000
0001
0000
1001
0000
,  // measure 96
0110
0000
0110
0000
0001
1000
0010
0100
,  // measure 97
0001
1000
0001
0100
0010
1000
0001
0100
,  // measure 98
0010
1000
0002
0000
0103
0000
0001
0010
,  // measure 99
0100
0010
0100
1000
0100
1000
0010
0100
,  // measure 100
0010
0100
1000
0000
1001
0000
0100
0010
,  // measure 101
0100
0010
0200
0000
0320
0000
0230
0000
,  // measure 102
0310
0000
0101
0000
1010
0000
1000
0100
,  // measure 103
1000
0100
0010
0001
0010
0001
1000
0010
,  // measure 104
1000
0010
0100
0001
0100
0001
1000
0100
,  // measure 105
0010
0001
1000
0000
1100
0000
0110
0000
,  // measure 106
0011
0000
1000
0100
0010
0001
1000
0100
,  // measure 107
1000
0100
0010
0001
0010
0001
0010
0100
,  // measure 108
1000
0001
0100
0010
1000
0001
1000
0001
,  // measure 109
0100
0010
0100
0000
1010
0000
0101
0000
,  // measure 110
1001
0000
0110
0000
0110
0000
0001
0010
,  // measure 111
0100
1000
0100
0010
0001
0010
0100
1000
,  // measure 112
0100
1000
0100
0010
0100
0010
0001
1000
,  // measure 113
0100
0010
0001
0100
0010
1000
0001
1000
,  // measure 114
0001
1000
0220
0000
0000
0000
0000
0000
,  // measure 115
0000
0000
0000
0000
,  // measure 116
0000
0330
0000
0000
;

//---------------dance-single - ----------------
#NOTES:
     dance-single:
     :
     Medium:
     7:
     0.730,0.730,0.438,0.031,0.000:
1000
0100
0010
0001
,
1000
0010
1000
0010
,
0100
0001
0010
0100
,
1000
0010
1000
0010
,
1000
0001
0100
0001
,
1000
0001
0010
0100
,
1000
0100
1000
0010
,
0100
0010
1000
0001
,
0101
0010
1000
0010
,
0100
0001
0001
0001
,
1000
0010
0100
0010
,
0100
0001
1000
0001
,
1100
0010
0001
0010
,
0100
1000
0100
1000
,
0110
0001
0010
0100
,
1000
0000
0100
0000
1000
0000
0001
0100
,
0001
1000
0010
1000
,
0010
0100
0001
0100
,
0001
1000
0100
0010
,
0001
1000
0100
0010
,
0011
0100
1000
0100
,
0010
0001
0010
0100
,
1000
0010
0100
0010
,
0100
0000
0001
1000
0001
1000
0001
0000
,
1001
0010
0100
0001
,
0100
0010
1000
0010
,
0110
0001
1000
0100
,
1000
0100
0010
0001
,
0101
0010
1000
0010
,
1010
0100
0001
0100
,
0110
0010
1000
0010
,
0110
0001
1000
0001
,
2000
0100
0100
0100
,
0100
3100
1000
0100
,
0010
0001
0010
0100
,
1000
0001
0100
0001
,
0100
0000
0010
0000
0000
1001
0000
0000
,
1000
0100
1000
0100
,
0000
0010
0001
0010
,
0000
0100
1000
0100
,
0010
0001
0001
0000
,
1000
0100
1000
0100
,
0010
0001
0010
0001
,
0010
0100
0010
0100
,
0010
0000
1000
0000
0000
1010
0000
0000
,
0100
0100
0001
0001
,
1000
1000
0010
0100
,
0001
0100
0010
1000
,
0010
0000
0100
0000
0000
0101
0000
0000
,
0010
1000
0100
0010
,
0001
1000
0010
0100
,
0001
0100
0010
1000
,
0010
0000
1000
0000
0000
1010
0000
0000
,
0100
0001
0100
0001
,
1000
0010
1000
0010
,
0100
0001
0010
0100
,
1000
0000
0100
0000
0000
1100
0000
0000
,
0010
0001
0010
0001
,
0010
0100
0010
0100
,
0010
1000
0100
0010
,
0001
0000
1000
0000
0000
1001
0000
0000
,
0010
0100
0010
0100
,
0001
1000
0001
0100
,
0001
1000
0001
0100
,
0010
0000
0100
0000
0000
0101
0000
0000
,
0000
0010
0100
0110
,
0000
0001
1000
1100
,
0010
0001
0010
0011
,
0100
1000
0100
1100
,
0010
0001
1000
1001
,
0010
0100
0010
0110
,
0001
0010
0100
1100
,
0010
0001
0010
1001
,
0100
0010
0100
0110
,
0001
0010
0100
1100
,
0100
0010
0001
0011
,
0100
1000
0100
1010
,
0100
0001
0100
0101
,
1000
0001
1000
0110
,
0001
0010
0100
1100
,
0010
0001
0010
0100
,
1000
1001
0010
0100
,
0001
0100
0010
1000
,
0010
0100
0001
0100
,
0010
1000
0001
0010
,
0100
1000
0100
0010
,
0001
0010
0100
1000
,
0100
0010
0001
1000
,
0001
0100
0001
1000
,
0010
1010
0100
0001
,
0100
0001
1000
0010
,
1000
0010
0100
0001
,
0010
0100
1000
0001
,
0100
0010
0100
0010
,
1000
0001
1000
1001
,
0000
0010
0100
0010
,
0100
0000
0001
1000
0001
1000
0001
0000
,
0000
1000
0100
0010
,
0001
0010
0100
1000
,
0100
0010
0001
0010
,
0100
1000
0100
1100
,
1100
0010
0001
0010
,
0100
0010
0100
0010
,
1000
0010
0100
0010
,
1000
0010
0100
0001
,
0100
0101
0010
1000
,
0010
1000
0001
0100
,
0001
1000
0001
1000
,
0100
0010
0011
0110
,
1100
0010
0100
0010
,
0100
0001
0100
0001
,
1000
0010
1000
0001
,
1000
0001
1000
0010
,
0100
2002
0000
0000
,
0000
0000
0000
0000
,
0000
0000
0000
0000
,
0000
0000
0000
3003
;

//---------------dance-single - ----------------
#NOTES:
     dance-single:
     :
     Easy:
     4:
     0.454,0.549,0.063,0.021,0.000:
1000
0010
1000
0010
,
1000
0000
0001
0100
,
0001
0100
0001
0100
,
0001
0000
0000
0000
,
1000
0010
1000
0010
,
1000
0000
0000
0000
,
0001
0100
0001
0100
,
0001
0000
0000
0000
,
1000
1000
1000
1000
,
1000
0000
0000
0000
,
0010
0010
0010
0010
,
0010
0000
0000
0000
,
0100
0100
0100
0100
,
0100
0000
0000
0000
,
0001
0001
0001
0001
,
0001
0000
0000
0000
,
1000
0000
0010
0000
,
0100
0000
0001
0000
,
1000
0000
0010
0000
,
0100
0000
0001
1000
,
0001
0000
1000
0000
,
0010
0000
0100
0000
,
0001
0000
1000
0000
,
0010
0000
0100
0001
,
0100
0000
0010
0000
,
1000
0000
0001
0100
,
0001
0000
1000
0000
,
0010
0000
0100
0010
,
0100
0000
0001
1000
,
0001
0000
0100
0010
,
0100
0000
0001
1000
,
0001
1000
0001
1000
,
1001
0001
0001
0001
,
0001
1000
0000
0010
,
0000
0100
0010
0100
,
0000
0001
1000
0001
,
0000
1000
0000
1000
,
0000
0010
0100
0010
,
0000
0100
0001
0100
,
0000
0010
1000
0010
,
0000
0100
0000
0100
,
0000
0001
1000
0001
,
0000
0100
0010
0100
,
0000
0001
1000
0001
,
0000
1000
0000
1000
,
0000
0010
0100
0010
,
0000
1000
0001
1000
,
0000
0010
0100
0010
,
0000
1000
0000
0001
,
0000
1000
0001
0100
,
0000
0010
1000
0010
,
0000
0100
0001
0100
,
0000
0010
0000
0010
,
0000
1000
0001
1000
,
0000
0010
0100
0010
,
0000
1000
0001
0100
,
0000
0010
0000
0010
,
0000
1000
0001
0100
,
0000
0010
1000
0010
,
0000
0100
0001
0100
,
0000
0001
0000
0001
,
0000
1000
0010
0100
,
0000
0001
1000
0001
,
0000
1000
0100
1000
,
0000
0010
0100
0010
,
0000
0100
0001
0100
,
0010
1000
0010
0100
,
0000
0001
0000
1000
,
0000
0100
0000
1000
,
0000
0010
0000
0100
,
0000
0001
0000
1000
,
0000
0010
0100
0010
,
1000
0001
0100
0010
,
0000
1000
0000
0010
,
0000
0100
0000
0001
,
0000
1000
0000
0010
,
0000
0100
0000
0001
,
0000
1000
0010
0100
,
0010
0100
0001
1000
,
0000
0010
0100
0010
,
1000
0001
0100
0010
,
0000
1000
0000
1000
,
0000
1000
0000
1000
,
0000
0001
0000
0001
,
0000
0001
0000
0001
,
0000
0100
0000
0100
,
0000
0100
0000
0100
,
0000
0010
0000
0010
,
0000
0010
0000
0010
,
0000
1000
0001
1000
,
0001
1000
0001
1000
,
0000
0010
0100
0010
,
0100
0010
0100
0010
,
0000
1000
0001
1000
,
0001
1000
0001
1000
,
0000
0010
0100
0010
,
0100
0010
0100
0010
,
0000
1000
0000
0100
,
0000
1100
0000
0010
,
0000
0001
0000
0010
,
0000
0100
0000
1000
,
0000
0100
0000
0010
,
0000
0110
0000
0001
,
0000
0010
0000
0100
,
0000
1000
0000
0001
,
0000
0100
0000
0010
,
0000
1001
0000
0010
,
0000
1000
0000
0001
,
0000
0100
0000
0010
,
0000
1001
0000
0100
,
0000
0010
0000
0100
,
0000
0001
0000
1000
,
0000
0001
0000
0100
,
0000
2002
0000
0000
,
0000
0000
0000
0000
,
0000
0000
0000
0000
,
0000
0000
0000
0000
,
3003
0000
0000
0000
;

//---------------dance-single - Copied from----------------
#NOTES:
     dance-single:
     Copied from:
     Beginner:
     2:
     0.107,0.177,0.000,0.000,0.000:
1000
0000
0000
0000
,
0000
0000
0000
0000
,
1000
0000
0000
0000
,
0000
0000
0000
0000
,
0001
0000
0000
0000
,
0000
0000
0000
0000
,
0001
0000
0000
0000
,
0000
0000
0000
0000
,
0010
0000
0000
0000
,
0000
0000
0000
0000
,
0010
0000
0000
0000
,
0000
0000
0000
0000
,
0100
0000
0000
0000
,
0000
0000
0000
0000
,
0100
0000
0000
0000
,
0000
0000
0000
0000
,
1000
0000
0000
0000
,
0000
0000
0000
0000
,
1000
0000
0000
0000
,
0000
0000
0000
0000
,
0001
0000
0000
0000
,
0000
0000
0000
0000
,
0001
0000
0000
0000
,
0000
0000
0000
0000
,
0010
0000
0000
0000
,
0000
0000
0000
0000
,
0010
0000
0000
0000
,
0000
0000
0000
0000
,
0100
0000
0000
0000
,
0000
0000
0000
0000
,
0100
0000
0000
0000
,
0000
0000
0000
0000
,
1000
0001
0000
0000
,
0000
1000
0000
0000
,
0000
0000
0000
0000
,
0000
0000
0000
0000
,
0000
0001
0000
0000
,
0000
0000
0000
0000
,
0000
0000
0000
0000
,
0000
0000
0000
0000
,
1000
0000
0000
0000
,
0000
0000
0000
0000
,
0000
0000
0000
0000
,
0000
0000
0000
0000
,
0000
0001
0000
0000
,
0000
0000
0000
0000
,
0000
0000
0000
0000
,
0000
0000
0000
0000
,
0000
1000
0000
0000
,
0000
0010
0000
0000
,
0000
0000
0000
0000
,
0000
0000
0000
0000
,
0000
0100
0000
0000
,
0000
0010
0000
0000
,
0000
0000
0000
0000
,
0000
0000
0000
0000
,
0000
0100
0000
0000
,
0000
0010
0000
0000
,
0000
0000
0000
0000
,
0000
0000
0000
0000
,
0000
0100
0000
0000
,
0000
0010
0000
0000
,
0000
0000
0000
0000
,
0000
0000
0000
0000
,
0000
0100
0000
0000
,
0000
0010
0000
0000
,
0000
0000
0000
0000
,
0000
1000
0000
0000
,
0000
1000
0000
0000
,
0000
1000
0000
0000
,
0000
0000
0000
0000
,
0000
0001
0000
0000
,
0000
0001
0000
0000
,
0000
0001
0000
0000
,
0000
0000
0000
0000
,
0000
1000
0000
0000
,
0000
1000
0000
0000
,
0000
1000
0000
0000
,
0000
0000
0000
0000
,
0000
0001
0000
0000
,
0000
0001
0000
0000
,
0000
0001
0000
0000
,
0000
0000
0000
0000
,
0000
0100
0000
0000
,
0000
0100
0000
0000
,
0000
0100
0000
0000
,
0000
0000
0000
0000
,
0000
0010
0000
0000
,
0000
0010
0000
0000
,
0000
0010
0000
0000
,
0000
0000
0000
0000
,
0000
1000
0000
0000
,
0000
1000
0000
0000
,
0000
1000
0000
0000
,
0000
0000
0000
0000
,
0000
0001
0000
0000
,
0000
0001
0000
0000
,
0000
0001
0000
0000
,
0000
1000
0000
0000
,
0000
0001
0000
0000
,
0000
1000
0000
0000
,
0000
0001
0000
0000
,
0000
1000
0000
0000
,
0000
0001
0000
0000
,
0000
1000
0000
0000
,
0000
0010
0000
0000
,
0000
0100
0000
0000
,
0000
0010
0000
0000
,
0000
0100
0000
0000
,
0000
0001
0000
0000
,
0000
1000
0000
0000
,
0000
0001
0000
0000
,
0000
1000
0000
0000
,
0000
0001
0000
0000
;
