#TITLE:MONKEY DANCE;
#SUBTITLE:;
#ARTIST:Y&Co.;
#TITLETRANSLIT:;
#SUBTITLETRANSLIT:;
#ARTISTTRANSLIT:;
#CREDIT:SupremeX;
#BANNER:MONKEY DANCE-bn.png;
#BACKGROUND:MONKEY DANCE-bg.png;
#LYRICSPATH:;
#CDTITLE:;
#MUSIC:MONKEY DANCE.ogg;
#OFFSET:-0.178;
#SAMPLESTART:56.460;
#SAMPLELENGTH:12.000;
#SELECTABLE:YES;
#BPMS:0.000=155.000;
#STOPS:;
#BGCHANGES:;

//---------------dance-single - ----------------
#NOTES:
     dance-single:
     :
     Hard:
     8:
     0.524,0.668,0.208,0.113,0.080:
0000
0000
0000
0000
,
0000
0000
0000
0000
,
0000
0000
0000
0000
,
0000
0000
0000
0000
,
1000
0100
0010
0100
1000
0100
0010
0000
,
0001
1000
0001
0010
0001
1000
0001
0000
,
0100
0010
1000
0001
0100
0010
1000
0000
,
0001
1000
0100
1000
0100
0000
0000
0000
,
0010
0001
0010
0100
1000
0010
0100
0010
,
1000
0101
1010
1001
,
0100
0010
0100
0000
0001
0001
0001
0000
,
1000
0010
0100
0010
1000
1000
1000
0000
,
0010
1000
0001
0001
1000
0100
1000
0000
,
0100
0000
0010
0000
0001
0000
0010
0000
0100
1000
0100
1000
0000
0000
0001
0000
,
0100
0010
1000
0100
0010
0010
0010
0000
,
0001
0100
0010
1000
0010
0100
0010
0000
,
1000
0010
0100
0001
0100
0100
0100
0000
,
0010
1000
0010
0000
1000
0010
1000
0000
0100
0010
0001
0010
0100
0000
1000
0100
,
1000
0100
0010
0001
0010
0100
1000
0001
,
1000
0100
1000
0001
1000
0100
1000
0001
,
0001
0000
1000
0000
0010
0100
0010
0100
,
0000
0010
1000
2000
0000
0000
3100
0100
,
0000
0000
0010
0001
0010
0100
0010
0001
,
0000
1000
0000
0200
0000
0300
1000
1000
,
0000
0000
0001
0010
0100
1000
0100
0020
,
0000
0000
0032
0000
0013
0010
0000
0000
,
0100
0000
1000
0010
0100
0001
1000
0010
,
0000
0000
0100
0000
0001
2000
0000
0000
,
3100
0000
1000
0010
0100
0001
1000
0001
,
0000
0110
0000
1100
0000
0011
0000
1001
,
0000
0000
0100
0000
1000
1000
0000
0010
,
0000
0100
0001
0100
0000
0000
0010
0000
,
0010
0000
1000
0100
1000
0001
1000
0100
,
0000
0011
0000
1100
0000
0100
1000
0020
,
0000
0130
0100
0000
0001
0010
0100
2000
,
0000
0000
0000
0000
0100
0000
0000
0000
0001
0000
0000
0001
0000
0000
3002
0000
,
0000
0003
0000
0100
0000
0000
0010
0000
,
0110
0000
0001
1000
0000
1000
0000
0110
,
0000
0001
1000
0010
0000
0110
0000
0000
,
0000
0001
0100
0010
0100
0010
0000
1000
,
0000
0010
0100
0001
0100
0010
0000
1001
,
0000
0000
0100
0000
0001
1000
0100
1000
,
0000
0000
0010
0100
0001
1000
0000
0010
,
0000
1000
0020
0000
0100
0000
0100
0000
,
0130
0000
0001
1000
0000
0000
1100
0000
,
1100
0000
0001
0100
0000
0100
0000
1001
,
0000
0000
0010
0100
0000
1010
0000
0000
,
0000
0100
0001
1000
0010
1000
0000
0100
,
0000
0010
0001
1000
0001
1000
0000
1100
,
0000
0000
0010
0000
1000
1000
0000
0010
,
0000
0100
0001
0000
0001
1000
0000
1000
,
0000
0001
2000
0000
0100
0000
0100
0000
,
0100
0001
0001
3001
,
1000
0100
0010
0100
1000
0001
0100
0000
,
0100
1010
0101
1010
,
0100
0010
0100
0000
0001
0001
0001
0000
,
0010
0000
0100
0000
1000
0000
0100
0000
1000
0010
1000
0010
0100
0000
0100
0000
,
0001
1000
0010
0010
1000
0010
1000
0000
,
0001
0000
0100
0000
0010
0000
1000
0010
1000
0010
0000
0000
1000
0000
0000
0000
,
0100
0010
0001
0100
0001
0001
0001
0000
,
1000
0100
1000
0000
0100
1000
0100
0000
0010
0001
0010
0100
1000
0000
0001
0100
,
0010
1000
0100
0010
0100
1000
0010
0100
,
0001
1000
0001
0100
0010
1000
0100
0010
,
2002
0000
0000
0000
,
0000
0000
0000
3003
0000
0000
0000
0000
;

//---------------dance-single - ----------------
#NOTES:
     dance-single:
     :
     Medium:
     5:
     0.388,0.516,0.255,0.075,0.000:
0000
0000
0000
0000
,
0000
0000
0000
0000
,
0000
0000
0000
0000
,
0000
0000
0000
0000
,
1000
0010
1000
0001
,
0010
0100
1000
1000
,
0010
0010
0100
0100
,
0220
0000
0000
0000
0000
0330
0000
0000
,
0001
0010
0100
0000
1000
0100
0010
0000
,
0001
0011
1100
1001
,
0100
0010
0100
0000
0001
0001
0001
0000
,
1000
0000
0100
0000
1000
1000
1000
0000
,
0001
0000
0100
0000
0010
0010
0010
0000
,
1000
0010
0100
0000
0001
0100
0010
0000
,
0010
0000
1000
0000
0100
0100
0100
0000
,
1000
0000
0001
0000
0010
0010
0010
0000
,
0100
0000
0100
0000
1000
1000
1000
0000
,
0100
0010
0001
0000
1000
0100
1000
0000
,
0001
0100
0001
1000
,
0010
0000
1000
0000
0001
0100
0010
0100
,
0001
0000
1000
0000
1000
0000
0010
0010
,
0000
0000
0000
0100
0000
0000
0001
0001
,
0000
0000
1000
0000
0010
0100
0010
1000
,
0000
1000
0000
0002
0000
0003
0100
0100
,
0000
0000
0010
0000
1000
0100
0010
0001
,
0000
0000
1000
0000
0010
0010
0000
0000
,
0000
0000
0100
0000
0001
0000
1000
1000
,
0000
0010
0000
0000
0100
0100
0000
0000
,
0001
0000
0001
0000
1000
0010
0000
0010
,
0000
1000
0000
1000
0000
0100
0000
0010
,
0000
0000
0001
0000
0100
0100
0000
0010
,
0000
0010
1000
0001
0000
0000
1000
0000
,
0000
0000
0010
0000
1000
0100
0010
0001
,
0000
1000
0000
1000
0000
0000
0000
0010
,
0000
0000
0010
0000
0100
0100
0000
0020
,
0000
0000
0000
0000
1030
0000
0000
0101
,
0000
0000
0000
1000
0000
0000
0001
0000
,
0110
0000
0000
1000
0000
0001
0000
1001
,
0000
0000
0100
0100
0000
0010
0000
0000
,
0000
1000
0001
0000
0100
0100
0000
0010
,
0000
1000
0100
0010
0001
1000
0000
1000
,
0000
0000
0010
0000
0100
0010
1000
0001
,
0000
0000
0100
0000
0001
0001
0000
1000
,
0000
0100
0200
0000
0000
0000
0000
0000
,
0300
0000
0000
0010
0000
0000
0011
0000
,
1100
0000
0000
0001
0000
0110
0000
1001
,
0000
0000
1000
0010
0000
0010
0000
0000
,
0000
0100
0001
0000
0001
1000
0000
1000
,
0000
0010
0100
0000
0100
0001
0000
1001
,
0000
0000
1000
0000
1000
0010
0000
0010
,
0000
0100
0001
0000
0001
1000
0000
1000
,
0000
0010
0020
0000
0000
0000
0000
0000
,
0000
0030
0100
0000
0100
0000
0001
0000
,
1000
0100
1000
0000
0101
0000
1010
0000
,
0001
0100
0010
0000
0110
0000
1001
0000
,
0100
0010
0100
0000
0001
0000
0001
0000
,
1000
0100
1000
0100
0010
0001
0010
0000
,
1100
1100
0011
0011
,
1001
0110
1001
0110
,
1000
0001
0100
0000
0110
0000
0101
0000
,
0010
1000
0010
0000
1000
0001
0100
0000
,
0100
0010
0010
1000
,
0001
1000
0010
0100
,
2002
0000
0000
0000
,
0000
0000
0000
3003
0000
0000
0000
0000
;

//---------------dance-single - ----------------
#NOTES:
     dance-single:
     :
     Easy:
     3:
     0.268,0.267,0.057,0.057,0.000:
0000
0000
0000
0000
,
0000
0000
0000
0000
,
0000
0000
0000
0000
,
0000
0000
0000
0000
,
1000
0010
0100
0001
,
1000
0010
0100
0001
,
1000
0010
0100
0001
,
2000
0000
0000
3000
,
0010
0010
0100
0100
,
0001
1000
0001
1000
,
0010
0010
0100
0100
,
0001
0001
1000
1000
,
0010
0010
0100
0100
,
0001
1000
0001
0001
,
0100
0100
0010
0010
,
1000
1000
0001
0001
,
1000
1000
0010
0010
,
0100
0100
0001
0001
,
1000
0010
1000
0001
,
0100
0001
1000
0010
,
1000
0001
0100
0010
,
0000
0000
0000
1000
0000
0000
0000
1001
,
0000
0010
0100
0010
,
1000
0000
0001
0000
0100
0000
0000
0101
,
0000
1000
0010
0100
,
0000
0001
0001
0000
,
0000
1000
0010
0100
,
0100
0001
0010
0100
,
1000
0001
0100
0010
,
0010
1000
1000
0001
,
0100
0000
0010
0000
1000
0000
0000
0001
,
0000
0000
0000
1001
0000
0000
0000
0000
,
0100
0010
1000
0001
,
0100
0010
1000
0001
,
0100
0000
0010
0000
1000
0000
0000
2002
,
0000
0000
0000
3003
,
0000
0000
0000
0010
0000
0000
0100
0000
,
0010
0000
0000
1000
0000
0001
0000
1000
,
0000
0000
0000
0010
0000
0010
0000
0000
,
0000
0100
0001
0000
,
1000
0000
0010
0000
0100
0000
0000
0101
,
0000
1000
0010
0100
,
0000
0000
0001
0000
1000
0000
0000
0010
,
0000
0000
2000
0000
0000
0000
0000
3000
,
0000
0000
0000
0010
0000
0000
0010
0000
,
0100
0000
0000
0001
0000
1000
0000
0010
,
0000
0000
0000
1000
0000
1000
0000
0000
,
0000
0001
0100
0000
,
0010
0000
1000
0000
0010
0000
0000
0100
,
0000
0000
0001
0000
1000
0000
0000
0010
,
0000
0010
0000
0000
1000
0000
0000
0001
,
0000
2000
0000
0000
,
0000
0000
0000
0000
0000
3000
0000
0000
,
0001
0001
0100
0100
,
0010
0010
1000
1000
,
0001
0001
0010
0010
,
0100
0100
1000
1000
,
0001
0100
0010
1000
,
0001
1000
0010
0100
,
0001
0100
0010
1000
,
0001
0001
1000
1000
,
0002
0000
0000
0000
,
0000
0000
0000
0003
,
0110
0000
0000
0000
;

//---------------dance-single - Copied from ----------------
#NOTES:
     dance-single:
     Copied from:
     Beginner:
     1:
     0.080,0.089,0.000,0.009,0.000: // measure 1
0000
0000
0000
0000
,  // measure 2
0000
0000
0000
0000
,  // measure 3
0000
0000
0000
0000
,  // measure 4
0000
0000
0000
0000
,  // measure 5
0010
0000
0000
0000
,  // measure 6
0010
0000
0000
0000
,  // measure 7
0010
0000
0000
0000
,  // measure 8
0010
0000
0000
0000
,  // measure 9
1000
0000
0000
0000
,  // measure 10
1000
0000
0000
0000
,  // measure 11
0001
0000
0000
0000
,  // measure 12
0001
0000
0000
0000
,  // measure 13
1000
0000
0000
0000
,  // measure 14
1000
0000
0000
0000
,  // measure 15
0010
0000
0000
0000
,  // measure 16
0010
0000
0000
0000
,  // measure 17
0100
0000
0000
0000
,  // measure 18
0100
0000
0000
0000
,  // measure 19
0002
0000
0000
0000
,  // measure 20
0000
0000
0000
0000
0000
0000
0000
0003
,  // measure 21
0000
1000
0000
0000
,  // measure 22
0000
0000
0000
1000
0000
0000
0000
0000
,  // measure 23
0000
0010
0000
0000
,  // measure 24
0000
0000
0000
0010
0000
0000
0000
0000
,  // measure 25
0000
0000
0100
0000
,  // measure 26
0000
0000
0100
0000
,  // measure 27
0000
0000
0001
0000
0000
0000
0000
0001
,  // measure 28
0000
0000
0000
0000
,  // measure 29
1000
0000
0000
0000
0000
0000
0000
0010
,  // measure 30
0000
0000
0000
0000
0000
0000
0000
1000
,  // measure 31
0000
0000
0000
0000
0001
0000
0000
0100
,  // measure 32
0000
0000
0000
0001
0000
0000
0000
0000
,  // measure 33
0000
1000
0000
0000
,  // measure 34
0010
0000
0000
0000
0000
0000
0000
1000
,  // measure 35
0000
0000
0000
0000
0000
0000
0000
0010
,  // measure 36
0000
0000
0000
0000
,  // measure 37
0000
0000
0000
0000
,  // measure 38
0100
0000
0000
0100
,  // measure 39
0000
0000
0000
0000
,  // measure 40
0000
0000
0001
0000
,  // measure 41
0000
0000
0001
0000
,  // measure 42
0000
0000
1000
0000
,  // measure 43
0000
0000
0000
0000
0000
0000
0000
1000
,  // measure 44
0000
0000
0000
0000
,  // measure 45
0000
0000
0000
0000
,  // measure 46
0010
0000
0000
0000
0000
0000
0000
0010
,  // measure 47
0000
0000
0000
0001
0000
0000
0000
0000
,  // measure 48
0000
0000
0100
0000
,  // measure 49
0000
0000
0100
0000
,  // measure 50
0000
0000
0010
0000
,  // measure 51
0000
0000
1000
0000
,  // measure 52
0000
0001
0000
0000
,  // measure 53
0000
0000
0000
0000
,  // measure 54
0100
0000
0000
0000
,  // measure 55
0100
0000
0000
0000
,  // measure 56
0010
0000
0000
0000
,  // measure 57
0010
0000
0000
0000
,  // measure 58
0100
0000
0000
0000
,  // measure 59
0100
0000
0000
0000
,  // measure 60
0010
0000
0000
0000
,  // measure 61
0010
0000
0000
0000
,  // measure 62
1000
0000
0000
0000
,  // measure 63
1000
0000
0000
0000
,  // measure 64
0001
0000
0000
0000
;
