#TITLE:MEGALOMAN[i]A -2nd IMPACT-;
#SUBTITLE:;
#ARTIST:NEO-G;
#TITLETRANSLIT:;
#SUBTITLETRANSLIT:;
#ARTISTTRANSLIT:;
#CREDIT:SupremeX;
#BANNER:MEGALOMAN[i]A -2nd IMPACT-bn.png;
#BACKGROUND:MEGALOMAN[i]A -2nd IMPACT-bg.png;
#LYRICSPATH:;
#CDTITLE:;
#MUSIC:MEGALOMAN[i]A -2nd IMPACT-.ogg;
#OFFSET:-1.601;
#SAMPLESTART:33.560;
#SAMPLELENGTH:12.000;
#SELECTABLE:YES;
#BPMS:0.000=180.020;
#STOPS:;
#BGCHANGES:;

//---------------dance-single - ----------------
#NOTES:
     dance-single:
     :
     Hard:
     10:
     0.852,1.000,0.386,0.396,0.356: // measure 1
0000
0000
0000
0000
,  // measure 2
0000
0000
0000
0000
,  // measure 3
0000
0000
0000
0000
,  // measure 4
0000
0000
0000
0000
,  // measure 5
1000
0100
1000
0100
0010
0001
0010
0001
,  // measure 6
0100
0000
0000
0001
1000
0000
0001
0000
0100
0000
0010
0000
1000
0000
0001
0000
,  // measure 7
0100
0010
0100
0000
0010
1000
0001
1000
,  // measure 8
0010
0100
0001
0010
0100
1000
0001
0000
,  // measure 9
1001
0000
0000
0000
1100
0000
0000
0110
0000
0000
0001
0000
0220
0000
0000
0000
,  // measure 10
0330
0000
1100
0000
0000
1010
0000
0000
0001
0000
0202
0000
0000
0000
0303
0000
,  // measure 11
0000
0000
0000
0000
1001
0000
0000
1100
0000
0000
0100
0000
2100
0000
0000
0000
,  // measure 12
3000
0000
0110
0000
0000
0101
0000
0000
0010
0000
2010
0000
0000
0000
3000
0000
,  // measure 13
0001
0000
0000
0100
0001
1000
0000
0001
0100
0010
0000
1000
0001
0100
0000
0010
,  // measure 14
1000
0001
0000
0000
1000
0100
1000
0100
1000
0100
1000
0100
1000
0100
1000
0000
,  // measure 15
0100
0010
0001
1000
0001
0010
0100
1000
,  // measure 16
1100
0000
0000
0000
0001
0010
0001
0010
0001
0010
0001
0010
0001
0010
0001
0010
,  // measure 17
0001
1000
0100
1000
1100
0100
0010
0100
,  // measure 18
0010
0001
0010
0001
0011
0100
1000
0100
,  // measure 19
0010
0001
1000
0010
1010
0100
0001
0010
,  // measure 20
0100
1000
0001
0100
0101
0001
1000
0100
,  // measure 21
1000
0001
1000
0010
2002
0000
3003
0000
,  // measure 22
0100
0010
1000
0001
0100
0001
1000
0010
,  // measure 23
0100
0010
1000
0001
2000
0000
3001
0000
,  // measure 24
0100
0100
0100
0100
0200
0000
0310
0000
,  // measure 25
0020
0000
1030
0001
0100
0001
1000
0100
,  // measure 26
0010
0002
0000
0003
1000
1000
0100
1000
,  // measure 27
1200
0000
0300
0000
0000
0010
0001
0010
,  // measure 28
0100
2100
0000
3000
0010
0001
1000
0001
,  // measure 29
0012
0000
0003
0000
0000
0010
1000
0001
,  // measure 30
0100
0201
0000
0300
0001
1000
1000
0100
,  // measure 31
0021
0000
0030
0000
0000
0100
1000
0001
,  // measure 32
0100
0220
0000
0330
0001
1000
0001
1000
,  // measure 33
0100
1000
0001
1000
0001
2200
0000
3300
,  // measure 34
0001
0010
0001
0010
0100
1100
1000
0001
,  // measure 35
0100
0010
1000
0001
0022
0000
0033
0000
,  // measure 36
0100
1000
0100
0010
0110
0001
1000
1100
,  // measure 37
0100
0000
0010
0000
0001
0100
0000
0100
0001
0000
1000
0010
0001
0100
0010
0000
,  // measure 38
0000
0000
1000
0000
0001
0010
0000
0010
0001
1000
0000
1000
0010
0000
0000
0000
,  // measure 39
1000
0100
0010
0001
1000
0100
1000
0001
,  // measure 40
0100
0001
1000
0010
1000
0001
0100
0010
,  // measure 41
1000
1000
0001
0100
0100
0100
0010
0110
,  // measure 42
0000
0000
0001
0100
0000
0100
0010
1000
0000
1000
0100
0010
0000
0010
0001
0000
,  // measure 43
1000
0100
0010
0001
0010
0100
1000
0010
,  // measure 44
0100
0010
1000
0010
0100
0001
0010
0100
,  // measure 45
1000
0001
0100
0001
0101
0010
0100
1000
,  // measure 46
1010
0100
0001
1000
0110
1000
0010
0100
,  // measure 47
0101
0001
0010
0100
1001
0100
0010
0100
,  // measure 48
2002
0000
0000
0000
3003
0000
0000
0010
0000
1000
0001
0000
0100
0010
0000
1000
,  // measure 49
0001
0100
0001
1000
0100
0100
0020
0000
,  // measure 50
0031
0001
0010
0100
1000
1000
0200
0000
,  // measure 51
1300
1000
0100
0010
0001
0001
0020
0000
,  // measure 52
0130
0100
0010
1000
0001
0001
2000
0000
,  // measure 53
3010
0010
0100
0001
1000
0010
0200
0000
,  // measure 54
0310
1000
0001
1000
0100
0100
0020
0000
,  // measure 55
0031
0001
1000
0100
0010
0010
0002
0000
,  // measure 56
0103
0100
0010
1000
0010
0100
0002
0000
,  // measure 57
1003
0000
1000
0001
0200
0000
0010
0000
,  // measure 58
0310
1000
0001
0100
0020
0000
0100
0100
,  // measure 59
0130
0001
1000
0010
0100
2000
0001
0001
,  // measure 60
3001
0100
0010
0100
0002
1000
1000
1003
,  // measure 61
0010
0000
0100
0000
0010
0000
0100
0000
0001
1000
0010
0100
0001
1000
0000
0000
,  // measure 62
0010
0000
0100
0000
0001
0000
1000
0000
0010
0100
0010
0100
0010
0100
0000
0000
,  // measure 63
0001
0000
0010
0000
0100
0000
1000
0000
0010
1000
0001
0100
0010
1000
0000
0000
,  // measure 64
0001
0000
1000
0000
0100
0000
0010
0000
0001
0100
0001
0100
0001
0100
0000
0000
,  // measure 65
0010
0000
1000
0000
0001
0000
0100
0000
0010
1000
0010
1000
0010
1000
0000
0000
,  // measure 66
0001
0010
0100
1000
0100
0010
0100
0010
,  // measure 67
0001
0010
0001
1000
0100
1000
0100
0010
,  // measure 68
0001
0010
0001
1000
0100
0010
0001
1000
,  // measure 69
0100
0100
1000
0010
2000
0000
3100
0100
,  // measure 70
0011
0000
0001
1000
0010
0100
0001
1000
,  // measure 71
0001
0010
0100
1000
0010
0100
0001
0010
0100
1000
0001
1000
0010
0100
0001
1000
,  // measure 72
0010
0100
0001
1000
0001
0010
0100
1000
0100
0010
0001
0010
0100
1000
0001
0000
,  // measure 73
2002
0000
0000
0000
,  // measure 74
0000
0000
0000
0000
,  // measure 75
3003
0000
0000
0000
;

//---------------dance-single - ----------------
#NOTES:
     dance-single:
     :
     Medium:
     8:
     0.597,0.623,0.257,0.040,0.000:
0000
0000
0000
0000
,
0000
0000
0000
0000
,
0000
0000
0000
0000
,
0000
0000
0000
0000
,
1000
0001
0100
0001
1000
0100
0010
0001
,
1000
0000
1000
0010
0100
0010
1000
0001
,
1000
0000
1000
0000
0001
0000
0100
0001
,
1000
1000
0101
1010
,
0101
0000
1000
0100
0010
0001
0010
0000
,
0000
0000
0100
1000
0100
1000
0100
0000
,
0000
0000
0010
0001
0010
0001
0000
0000
,
0000
1000
0100
1000
0100
1000
0000
0000
,
0010
0001
0010
0100
,
1000
0001
0100
0001
,
1000
0100
0010
0001
1000
0100
1000
0000
,
0001
0100
0001
0010
0100
1000
0010
0000
,
0010
0100
0010
0000
0100
0001
0100
0000
,
0010
0100
0001
0000
0001
1000
0001
0000
,
1000
0010
0100
0000
0100
0010
1000
0000
,
0001
1000
0010
0000
0010
1000
0001
0000
,
0001
1000
0010
1000
0001
0100
0001
0000
,
1000
0001
0100
0010
1000
0001
1000
0000
,
0001
0010
0100
1000
0001
0100
0001
0000
,
1000
0100
1000
0001
1000
0100
1000
0000
,
0010
0100
0110
0001
,
1001
0100
1100
0010
,
0001
0000
1000
0000
0001
0100
0010
1000
,
0010
0100
0000
0000
0001
0000
1001
0000
,
0110
0000
1000
0001
1000
0000
1000
0100
,
0010
0100
0010
0001
1000
0000
0001
0000
,
1001
0000
0000
0000
0010
0100
0001
1000
,
0010
0100
0000
0000
0001
1000
0100
0000
,
0100
1000
0001
0000
0001
0100
0010
0000
,
0010
0100
0001
0000
1000
0100
1000
0000
,
0001
1000
0001
0000
1000
0010
0000
0000
,
1000
0010
0100
0010
0100
0010
0000
0000
,
1000
0001
0101
0010
,
0110
0001
1001
1000
,
1100
0010
0011
0100
,
1000
0100
1000
0010
0100
0010
0100
0000
,
0001
0000
0101
0000
0010
0010
1000
0100
,
1000
0000
0100
1000
0100
0010
0001
0100
,
0001
1000
0010
0000
0010
0000
1000
0100
,
0010
0001
0100
0010
0100
0000
0100
0000
,
0001
1100
0010
0011
,
1000
1001
0010
0110
,
1001
0110
1001
1001
,
0200
0000
0000
0300
0001
1000
0100
0010
,
0001
0000
1001
0000
0010
0010
0100
0000
,
0010
0000
1000
0000
0001
0001
0100
0000
,
0010
0000
1000
0000
0100
0100
1000
0000
,
1000
0000
0100
0000
0010
0010
0001
0000
,
1000
0000
0001
0000
0100
0010
1000
0010
,
0100
0010
1000
0000
0001
0100
0001
1000
,
0010
1000
0010
0000
0100
0001
0100
0001
,
1000
0100
1000
0000
0001
0010
0100
1000
,
0001
0100
0001
0000
1000
0000
0100
0000
,
1000
0010
0100
0010
0100
0000
0001
0000
,
1000
0010
0100
0001
1000
0000
0001
0000
,
1000
0010
0100
0010
2000
0000
0000
3000
,
0001
0010
0100
0000
1000
0001
0100
0000
,
1000
0001
0100
0000
0001
0010
0100
0000
,
1000
0100
0010
0000
0001
1000
0001
0000
,
1000
0100
1000
0000
1000
0001
1000
0000
,
0001
0010
0100
1000
0001
0100
0010
0000
,
0010
0100
0010
1000
0010
0100
0010
0000
,
1000
0001
1000
0001
0100
0010
0100
0000
,
0001
0010
0100
1000
0001
0100
0010
0000
,
0010
1000
0100
0010
0001
1000
0100
0010
,
0100
0010
0001
1000
0001
0000
1000
0000
,
0100
0010
1000
0001
0100
0001
1000
0010
,
0100
0001
0100
0010
1000
0000
0110
0000
,
2002
0000
0000
0000
,
0000
0000
0000
0000
,
3003
0000
0000
0000
;

//---------------dance-single - ----------------
#NOTES:
     dance-single:
     :
     Easy:
     4:
     0.460,0.476,0.485,0.020,0.000:
0000
0000
0000
0000
,
0000
0000
0000
0000
,
0000
0000
0000
0000
,
0000
0000
0000
0000
,
0001
0000
0100
0000
0010
1000
0010
1000
,
0001
0001
1000
1000
,
0010
0000
0010
0000
0100
0001
0100
0001
,
0100
0010
1000
0010
,
1000
1000
0100
0100
,
0010
0010
0001
0001
,
0100
0100
0010
0010
,
1000
1000
0001
0001
,
1000
0110
0010
1010
,
0100
0100
0001
0010
,
0100
1000
0100
1000
,
0100
0100
0010
0011
,
0001
1001
1000
1100
,
0010
0101
1010
0001
,
1000
0100
1100
0010
,
0101
1010
1001
0000
,
0100
0010
0100
0001
,
1000
0001
1000
0001
1000
0000
0010
0000
,
0100
0001
1000
0010
,
1000
0001
1000
0001
1000
0000
0001
0000
,
0100
0010
1001
0100
,
0010
0100
0001
0001
,
1000
1000
0010
0100
,
0001
0001
0001
1000
,
0100
1000
0001
1000
,
0010
0110
0001
1000
,
0100
0100
1000
0001
,
0100
0100
0010
1000
,
0001
0001
0001
0000
,
1001
0110
1001
0000
,
0100
0100
0100
0000
,
1010
0101
1010
0000
,
0001
0010
0100
1000
,
0001
0100
0001
1000
,
0010
0100
0001
1000
,
0100
1000
0001
0100
,
0001
1100
0010
0011
,
0100
1000
0110
0110
,
0001
1000
0001
1000
,
0100
0100
1000
1000
,
0001
1000
1001
0100
,
0100
1100
0110
0001
,
0101
1010
0100
0100
,
0001
0000
1001
0001
,
0100
0100
0100
0010
,
1000
1000
0001
0001
,
1000
0100
1000
1000
,
0001
0100
0010
0010
,
1000
0001
1000
0100
,
1000
0001
0100
0010
,
1001
0010
1000
0100
,
1100
0001
1000
0001
,
0110
0000
1100
0000
,
0010
0001
1100
0000
,
0001
0100
1010
0000
,
1000
0010
0101
0000
,
1000
0001
1001
0010
,
0100
0010
0110
1000
,
0100
0010
0011
0100
,
1100
0110
0101
0010
,
1000
0100
0011
0100
,
1000
0100
1001
0010
,
0100
1000
0110
0001
,
1100
1001
0110
0000
,
0001
0000
1000
0000
0100
1000
0100
0000
,
1000
0000
0100
0000
0010
0001
0010
0000
,
0100
0000
1000
0000
0001
0100
0010
0000
,
0010
1000
0001
0000
0001
1000
0100
0000
,
2002
0000
0000
0000
,
0000
0000
0000
0000
,
3003
0000
0000
0000
;

//---------------dance-single - Copied from----------------
#NOTES:
     dance-single:
     Copied from:
     Beginner:
     2:
     0.188,0.256,0.069,0.069,0.000:
0000
0000
0000
0000
,
0000
0000
0000
0000
,
0000
0000
0000
0000
,
0000
0000
0000
0000
,
0010
0000
0000
0000
,
0010
0000
0000
0000
,
0010
0000
0000
0000
,
0100
0000
0000
0000
,
0001
0000
0000
0000
,
1000
0000
0000
0000
,
0010
0000
0000
0000
,
0100
0000
0000
0000
,
0010
0000
0000
0000
,
0001
0000
0000
0000
,
1000
0000
0000
0000
,
0010
0000
0000
0000
,
1000
0000
0000
0000
,
0001
0000
0100
0000
,
0010
0000
1000
0000
,
0001
0000
0100
0000
,
0010
0000
1000
0000
,
1000
0000
1000
0000
,
0001
0000
0001
0000
,
0001
0000
0001
0000
,
0100
0000
0010
0000
,
1000
0000
1000
0000
,
0001
0000
0100
0000
,
0010
0000
1000
0000
,
1000
0000
0001
0000
,
0100
0000
0100
0000
,
0010
0000
1000
0000
,
0001
0000
1000
0000
,
0001
0000
0110
0000
,
1000
0000
1001
0000
,
0001
0000
0110
0000
,
1000
0000
1001
0000
,
0010
0000
0100
0000
,
0010
0000
0100
0000
,
0100
0000
0100
0000
,
0001
0000
0001
0000
,
1000
0000
1000
0000
,
1000
0000
0010
0000
,
0100
0000
0001
0000
,
0100
0000
0001
0000
,
1000
0000
0010
0000
,
0100
0000
0001
0000
,
1000
0000
0010
0000
,
0000
0200
0000
0300
0000
0000
0000
0000
,
0010
0000
1000
0000
,
0001
0000
0100
0000
,
0100
0000
0010
0000
,
0010
0000
1000
0000
,
0001
0000
0001
0000
,
0100
0000
0010
0000
,
0010
0000
1000
0000
,
1000
0000
0001
0000
,
0100
0000
0020
0030
,
0000
0000
0000
0000
2000
0000
0000
3000
,
0000
0000
0000
0000
0002
0000
0000
0003
,
0000
0000
0000
0000
0200
0000
0000
0300
,
0000
0000
0010
0000
,
1000
0000
0001
0000
,
1000
0000
0010
0000
,
0100
0000
0001
0000
,
1000
0000
1000
0000
,
1000
0000
1000
0000
,
0010
0000
0010
0000
,
0010
0000
0100
0000
,
0001
0000
1001
0000
,
1000
0000
1010
0000
,
0001
0000
0100
0000
,
0010
0000
1000
0000
,
2002
0000
0000
0000
,
0000
0000
0000
0000
,
3003
0000
0000
0000
;
