#TITLE:Limit Break;
#SUBTITLE:;
#ARTIST:DiGiTAL WiNG;
#TITLETRANSLIT:;
#SUBTITLETRANSLIT:;
#ARTISTTRANSLIT:;
#CREDIT:SupremeX;
#BANNER:Limit Break-bn.png;
#BACKGROUND:Limit Break-bg.png;
#LYRICSPATH:;
#CDTITLE:;
#MUSIC:Limit Break.ogg;
#OFFSET:-1.637;
#SAMPLESTART:52.960;
#SAMPLELENGTH:12.000;
#SELECTABLE:YES;
#BPMS:0.000=153.000;
#STOPS:;
#BGCHANGES:0.000=Limit Break.avi=1.000=1=1=0,
99999=-nosongbg-=1.000=0=0=0 // don't automatically add -songbackground-
;

//---------------dance-single - ----------------
#NOTES:
     dance-single:
     :
     Hard:
     9:
     0.636,0.620,0.569,0.122,0.337: // measure 1
0000
0000
0000
0000
,  // measure 2
0000
0000
0000
0000
,  // measure 3
0000
0000
0000
0000
,  // measure 4
0000
0000
0000
0000
,  // measure 5
0100
0000
1000
0000
0100
1000
0100
0000
,  // measure 6
0010
0000
0001
0000
0010
0001
0010
0000
,  // measure 7
1001
0100
0101
0010
,  // measure 8
1010
0101
1001
1100
,  // measure 9
0001
0100
0010
1000
0010
0100
0001
0000
,  // measure 10
1100
0000
0010
0000
0001
0000
0010
0000
0100
0000
1000
0100
0000
0100
1000
0000
,  // measure 11
0001
0000
0010
0000
0100
0000
1000
0000
0001
0000
0100
0001
0000
0001
0100
0000
,  // measure 12
0010
0000
1000
0000
0001
0000
1000
0000
0010
0000
0100
0001
0000
0001
0100
0000
,  // measure 13
0010
0000
0010
0000
0000
0110
0000
0000
1001
0000
0000
0001
0000
0000
0101
0000
,  // measure 14
1001
0000
0010
0000
0100
0000
1000
0000
0010
0000
1000
0100
0000
0100
1000
0000
,  // measure 15
0100
0000
0010
0000
0001
0000
0100
0000
0010
0000
1000
0010
0000
0010
1000
0000
,  // measure 16
0001
0000
0010
0000
0100
0000
1000
0000
0001
0000
0100
0001
0000
0001
0100
0000
,  // measure 17
0010
0000
0010
0000
0000
1001
0000
0000
0110
0000
0000
0001
0000
0000
0101
0000
,  // measure 18
1000
0100
0010
0001
1000
0100
1000
1000
,  // measure 19
0000
0010
0100
0001
1000
0100
0100
0010
,  // measure 20
0000
0010
0001
1000
0001
1000
0100
0010
,  // measure 21
0110
0100
0000
0001
1000
0000
0101
0000
,  // measure 22
0010
0100
0010
1000
0001
0100
0010
0010
,  // measure 23
0000
1000
0001
0100
0001
1000
1000
0010
,  // measure 24
0000
0001
0100
0010
0100
0001
0100
0010
,  // measure 25
2000
0000
3001
1000
0001
0000
0110
0000
,  // measure 26
1000
0000
0000
0100
0000
0000
1000
0000
1000
0000
0000
0100
0000
0000
0100
0000
,  // measure 27
0010
0000
0000
0001
0000
0000
0001
0000
1000
0000
0000
1000
0000
0000
0010
0000
,  // measure 28
0100
0000
0000
0100
0000
0000
0001
0000
1000
0000
0000
1000
0000
0000
0100
0000
,  // measure 29
0010
0000
0000
0010
0000
0000
0100
0000
0001
0000
0100
0000
1001
0000
0000
0000
,  // measure 30
1000
0000
0000
0010
0000
0000
0100
0000
0100
0000
0000
0001
0000
0000
0001
0000
,  // measure 31
0010
0000
0000
0100
0000
0000
0100
0000
1000
0000
0000
1000
0000
0000
0010
0000
,  // measure 32
0100
0000
0000
0100
0000
0000
0001
0000
0010
0000
0000
0010
0000
0000
0001
0000
,  // measure 33
1000
0000
0100
0000
1000
0100
0000
0000
1100
0000
0000
0000
0001
0000
1000
0000
,  // measure 34
0100
0000
0000
0110
0000
0000
0011
0000
0000
0000
0100
0000
1000
0000
0100
0000
,  // measure 35
0110
0000
0000
1001
0000
0000
0220
0000
0000
0000
0000
0000
0330
0000
0000
0000
,  // measure 36
0001
0000
0000
1100
0000
0000
0110
0000
0000
0000
0010
0000
0001
0000
0010
0002
,  // measure 37
0000
0100
1003
1001
,  // measure 38
0100
0000
0000
0010
0000
0000
0100
0000
0000
0000
0001
0000
1000
0000
0100
0000
,  // measure 39
0010
0000
0000
0001
0000
0000
0220
0000
0000
0000
0330
0000
1000
0000
0100
1000
,  // measure 40
0000
0000
0000
0000
0100
0000
1000
0100
0000
0000
0010
0000
0001
0000
1000
0000
,  // measure 41
0010
0000
0101
0000
1010
0000
0001
0100
,  // measure 42
0010
0000
0000
1000
0000
0000
1001
0000
0000
0000
0100
0000
0010
0000
0100
0000
,  // measure 43
0001
0000
0000
0101
0000
0000
2000
0000
0000
0000
0000
0000
0000
0000
3000
0000
,  // measure 44
0100
0000
0000
0010
0000
0000
0010
0000
0000
0000
0001
0000
1000
0000
0100
0020
,  // measure 45
0000
0000
0031
0011
,  // measure 46
0100
0000
0000
1010
0000
0000
0101
0000
0000
0000
1000
0000
0100
0000
0010
0000
,  // measure 47
0001
0000
0000
0010
0000
0000
0002
0000
0000
0000
0003
0000
1000
0000
0100
1000
,  // measure 48
0000
0000
0000
0000
0100
0000
0010
0001
0000
0000
0001
0000
0010
0000
0100
0000
,  // measure 49
1100
1001
0101
0020
,  // measure 50
1030
0100
0010
0001
0100
0001
1000
0000
,  // measure 51
1001
0000
0010
0000
0100
0000
1000
0000
0001
0000
0100
0010
0000
0010
0100
0000
,  // measure 52
0001
0000
1000
0000
0010
0000
0100
0000
0001
0000
1000
0100
0000
0100
1000
0000
,  // measure 53
0001
0000
0100
0000
0010
0000
1000
0000
0001
0000
0100
0001
0000
0001
0100
0000
,  // measure 54
0010
0000
0010
0000
0000
1001
0000
0000
0101
0000
0000
1000
0000
0000
0110
0000
,  // measure 55
1001
0000
0100
0000
0010
0000
0001
0000
0010
0000
0001
0010
0000
0010
0001
0000
,  // measure 56
1000
0000
0010
0000
0100
0000
0001
0000
1000
0000
0100
1000
0000
1000
0100
0000
,  // measure 57
1000
0000
0010
0000
0100
0000
0001
0000
1000
0000
0010
0100
0000
0100
0010
0000
,  // measure 58
1000
0000
1000
0000
0000
0101
0000
0000
1010
0000
0000
0001
0000
0000
1001
0000
,  // measure 59
0100
0000
0000
0010
0000
0000
0100
0000
0000
0000
0001
0000
1000
0000
0010
2000
,  // measure 60
0000
0000
0000
0000
0000
0000
0000
3000
0100
0000
0100
0000
0100
0000
0000
0000
,  // measure 61
1001
0110
0101
1010
,  // measure 62
0100
0000
0001
0000
0100
0000
0001
0100
0000
0000
0000
0000
0010
0000
1000
0000
,  // measure 63
0001
1001
0110
1100
,  // measure 64
0010
0220
0000
0000
0330
0001
0001
0010
,  // measure 65
0100
1100
0110
0011
,  // measure 66
0100
1000
0100
1000
0100
0010
0101
0000
,  // measure 67
1001
0000
0100
0000
0010
0000
0001
0000
1000
0000
0100
1000
0000
1000
0100
0000
,  // measure 68
1000
0000
0100
0000
0010
0000
0001
0000
0010
0000
0100
0010
0000
0010
0100
0000
,  // measure 69
0010
0000
1000
0000
0010
0000
0100
0000
0001
0000
1000
0010
0000
0010
1000
0000
,  // measure 70
0001
0000
0001
0000
0000
1001
0000
0000
0110
0000
0000
1000
0000
0000
0110
0000
,  // measure 71
0110
0000
0001
0000
0010
0000
0100
0000
1000
0000
0100
0010
0000
0010
0100
0000
,  // measure 72
0001
0000
0010
0000
0100
0000
1000
0000
0001
0000
0100
0001
0000
0001
0100
0000
,  // measure 73
0001
0000
0010
0000
0100
0000
1000
0000
0100
0000
0010
0001
0000
0001
0010
0000
,  // measure 74
0100
0000
0100
0000
0000
1100
0000
0000
0110
0000
0000
0010
0000
0000
0011
0000
,  // measure 75
0100
0000
0100
0000
0000
1100
0000
0000
1010
0000
0000
0001
0000
0000
1001
0000
,  // measure 76
0220
0000
0000
0000
,  // measure 77
0000
0330
0000
0000
;

//---------------dance-single - ----------------
#NOTES:
     dance-single:
     :
     Medium:
     8:
     0.501,0.496,0.366,0.089,0.000:
0000
0000
0000
0000
,
0000
0000
0000
0000
,
0000
0000
0000
0000
,
0000
0000
0000
0000
,
0010
0000
0010
0000
1000
0100
1000
0000
,
0100
0000
0100
0000
1000
0001
0100
0000
,
0100
0001
1001
1000
,
0100
0010
1001
0101
,
0020
0000
0000
0030
,
1000
0001
0100
0001
0100
0000
0010
0000
,
1010
0001
0100
0001
1000
0000
1100
0000
,
0010
0001
0010
0000
1100
0000
1001
0000
,
0010
0100
0010
0000
1001
0000
0110
0000
,
1000
0100
1000
0100
0010
0000
0011
0000
,
0001
0010
0001
0010
0100
0000
1100
0000
,
0010
0001
0010
0100
1000
0000
1001
0000
,
0010
0110
1001
0000
,
1000
0100
0010
0001
0100
0100
0010
0010
,
0000
1000
0100
1000
0100
0010
0010
0001
,
0000
0100
0001
0100
0001
1000
0010
0000
,
0101
0000
0010
1000
0010
0000
1001
0000
,
0000
0010
0100
0001
1000
0010
0010
1000
,
0000
0001
0010
0100
1000
0001
0001
0100
,
0000
0100
0001
0010
0100
0000
1000
0001
,
0100
0000
0100
0010
1000
0000
1010
0000
,
0001
0100
0101
0010
,
1001
0100
0110
1001
,
0020
0100
0100
0130
,
0001
1000
0001
0110
,
2000
0100
0100
3100
,
0020
0001
0001
0031
,
0200
0001
0001
0301
,
1000
0100
1000
0100
1000
0000
0010
0000
,
0101
0000
0010
1000
0001
1000
0010
0000
,
0100
0100
0001
0001
,
1000
0100
1000
0100
0010
0000
0001
0000
,
0200
0300
0010
1001
,
0100
0000
0001
1000
0100
1000
0001
0000
,
0100
0000
0101
0000
1010
0000
0001
0100
,
0010
0000
0010
0100
0001
0000
0001
0000
,
1000
0000
1100
0000
0110
0000
0001
0100
,
0010
0000
0010
0000
1000
0000
0001
0100
,
0001
0000
1000
0000
0010
0100
0010
0000
,
1000
0000
0001
0000
0100
0000
0010
0100
,
0002
1000
1000
1003
,
0010
0000
0100
0000
0001
1000
0100
1000
,
0001
0000
0100
0000
0010
0000
1000
0001
,
1000
0000
0001
0100
0001
0000
1000
0000
,
1100
0011
1001
0000
,
0220
0000
0000
0330
,
0001
1000
0010
0100
0010
0100
0100
0000
,
0001
1000
0001
1000
0010
0100
0100
0000
,
0001
1000
0100
1000
0100
0010
0010
0000
,
0001
1100
1001
0010
,
0100
0010
1000
0001
1000
0010
0010
0000
,
1000
0100
0010
0001
1000
0100
0100
0000
,
1000
0010
0100
0001
1000
0010
0100
0000
,
1000
0001
0100
0001
1000
0010
0100
0000
,
0001
0010
0100
1000
0000
0000
0010
0000
,
0101
0000
1000
0000
1010
0000
0001
0100
,
0010
0101
1010
1001
,
0100
0010
0001
1000
0000
0000
0010
0100
,
0010
1000
0001
0100
,
0001
1000
0001
0000
0100
0010
1000
0010
,
0100
1001
0110
0101
,
1000
0100
1000
0000
0001
0100
0001
0000
,
1000
0010
0100
0000
0100
0001
0100
0000
,
0010
1000
0010
0000
0100
0001
0100
0000
,
0010
1000
0100
0000
0100
1000
0001
0000
,
1001
0000
0110
0000
0001
1000
0001
0000
,
1000
0100
1000
0000
0001
0100
0010
0000
,
0010
0100
0001
0000
1000
0100
1000
0000
,
1000
0010
0100
0000
0100
0001
1000
0000
,
0001
0100
0001
1000
0100
0010
0001
0000
,
0010
0100
1000
0000
0100
1000
0100
0000
,
2002
0000
0000
0000
,
0000
3003
0000
0000
;

//---------------dance-single - ----------------
#NOTES:
     dance-single:
     :
     Easy:
     5:
     0.346,0.341,0.130,0.114,0.000:
0000
0000
0000
0000
,
0000
0000
0000
0000
,
0000
0000
0000
0000
,
0010
0010
1000
1000
,
0001
0000
0100
0000
0010
0100
0010
0000
,
1000
0000
0001
0000
1000
0010
1000
0000
,
0001
0000
0110
0000
,
1000
0001
1000
1001
,
0020
0000
0000
0030
,
1000
0000
1000
0000
0001
0100
0001
0000
,
1000
0000
1000
0000
0010
0100
0010
0000
,
1000
0000
1000
0000
0001
0100
0010
0000
,
0010
0100
0010
0100
,
0001
0000
0001
0000
1000
0010
1000
0000
,
0001
0000
0001
0000
0100
0010
0100
0000
,
0001
0000
1000
0000
0010
0100
0010
0000
,
1000
0001
1000
0001
,
0100
0000
0100
0000
0100
0000
0010
0010
,
0000
0000
1000
0000
1000
0000
0001
0001
,
0000
1000
0010
0100
,
0001
1000
0010
1010
,
0000
0000
0001
0000
0001
0000
0100
0100
,
0000
0000
0010
0000
0010
0000
0001
0001
,
0000
1000
1000
0010
,
0100
0001
1000
1001
,
0010
0010
0100
0100
,
0001
0001
1000
1000
,
2000
0000
0000
3000
,
0010
0010
0010
0010
,
0200
0000
0000
0000
,
0300
0000
0001
0001
,
0002
0000
0000
0003
,
0010
0010
0010
0000
,
1000
0010
0100
0001
,
1000
1000
1000
0000
,
0010
0100
0010
0100
,
0002
0000
0000
0003
1000
0000
1000
0000
,
0010
0100
0001
1000
,
0001
0010
0020
0030
,
0100
0000
1000
0000
,
1001
1001
1001
0000
,
0100
0010
1000
0001
,
0100
0010
0020
0030
,
1000
0001
0100
0001
,
2000
3000
0010
0010
,
0100
0001
1000
0010
,
0100
0001
0001
0000
,
1010
0000
0101
0000
,
0110
0110
0110
0000
,
2002
0000
0000
3003
,
0010
0010
0100
0100
,
0001
1000
0001
0001
,
1000
0010
1000
1000
,
0001
0100
0010
1000
,
0001
0000
1000
0000
0010
1000
0010
0000
,
0100
0000
0001
0000
1000
0000
0010
1000
,
0001
0010
0110
1000
,
0001
1000
1000
0001
,
1000
0000
0010
0000
0100
0000
0001
0001
,
0002
0000
0000
0003
0000
0000
1000
0000
,
0010
0100
0001
1000
,
1000
0010
0010
0000
,
0100
0001
1000
0010
,
0200
0000
0000
0300
0000
0000
0001
0000
,
0001
0010
0010
0100
,
0100
1000
1000
1000
,
0001
0000
0100
0000
0010
0100
0010
0000
,
1000
0000
0001
0000
1000
0001
1000
0000
,
0010
0000
0100
0000
0001
0100
0001
0000
,
1000
0010
1000
0001
,
1000
0000
0010
0000
0100
0001
0100
0000
,
0010
0000
1000
0000
0001
1000
0001
0000
,
0100
0000
0010
0000
1000
0001
1000
0000
,
0010
0100
0001
0101
,
1000
0010
0100
0001
,
2002
0000
0000
0000
,
0000
3003
0000
0000
;

//---------------dance-single - Copied from----------------
#NOTES:
     dance-single:
     Copied from:
     Beginner:
     3:
     0.190,0.248,0.211,0.073,0.000:
0000
0000
0000
0000
,
0000
0000
0000
0000
,
0000
0000
0000
0000
,
0000
0000
0000
0000
,
1000
0000
1000
0000
,
0010
0000
0010
0000
,
0100
0000
0100
0000
,
0001
0000
0001
0000
,
2002
0000
0000
3003
,
0010
0000
0010
0000
,
0100
0000
0100
0000
,
0010
0000
0010
0000
,
0100
0000
0100
0000
,
0001
0000
0001
0000
,
1000
0000
1000
0000
,
0001
0000
0001
0000
,
1000
0000
1000
0000
,
0010
0000
0100
0000
,
0001
0000
1000
0000
,
0001
0000
1000
0000
,
0010
0000
0110
0000
,
0001
0000
1000
0000
,
0001
0000
1000
0000
,
0010
0000
0100
0000
,
0001
0000
1000
0000
,
1001
0000
1001
0000
,
1001
0000
1001
0000
,
1001
0000
0000
0000
,
0110
0000
0000
0000
,
0110
0000
0110
0000
,
0110
0000
0110
0000
,
0110
0000
0000
0000
,
1001
0000
0000
0000
,
0010
0000
0100
0000
,
0001
0000
1000
0000
,
0010
0000
0100
0000
,
0002
0000
0000
0003
0000
0000
0000
0000
,
1000
0000
0010
0000
,
0100
0000
0001
0000
,
1000
0000
1000
0000
,
0010
0000
0010
0000
,
0100
0000
0001
0000
,
0100
0000
0010
0000
,
1000
0000
0001
0000
,
2000
3000
0010
0000
,
0100
0000
0001
0000
,
1000
0000
0010
0000
,
0101
0000
0101
0000
,
0101
0000
0000
0000
,
2020
0000
0000
3030
,
0001
0000
0001
0000
,
0001
0000
0001
0000
,
0100
0000
0100
0000
,
0100
0000
0100
0000
,
0010
0000
0010
0000
,
0010
0000
0010
0000
,
1000
0000
1000
0000
,
1000
0000
0000
0000
,
1001
0000
0000
0000
,
0110
0000
0000
0000
,
0001
0000
1000
0000
,
0001
0000
1000
0000
,
1001
0000
0110
0000
,
1001
0000
0000
0000
,
0010
0000
0110
0000
,
1001
0000
0110
0000
,
1000
0000
1000
0000
,
0001
0000
0001
0000
,
1000
0000
1000
0000
,
0001
0000
0001
0000
,
1000
0000
1000
0000
,
0001
0000
0001
0000
,
1000
0000
1000
0000
,
0002
0000
0000
0003
,
0200
0000
0000
0300
,
0020
0000
0000
0000
,
0000
0030
0000
0000
;
