#TITLE:Life In A Video Game;
#SUBTITLE:;
#ARTIST:Bentobox;
#TITLETRANSLIT:;
#SUBTITLETRANSLIT:;
#ARTISTTRANSLIT:;
#CREDIT:SupremeX;
#BANNER:Life In A Video Game-bn.png;
#BACKGROUND:Life In A Video Game-bg.png;
#LYRICSPATH:;
#CDTITLE:;
#MUSIC:Life In A Video Game.ogg;
#OFFSET:-0.313;
#SAMPLESTART:101.960;
#SAMPLELENGTH:12.000;
#SELECTABLE:YES;
#BPMS:0.000=170.000;
#STOPS:;
#BGCHANGES:;

//---------------dance-single - ----------------
#NOTES:
     dance-single:
     :
     Hard:
     9:
     0.603,0.581,0.326,0.248,0.019: // measure 1
0000
0000
0000
0000
,  // measure 2
0000
0000
0000
0000
,  // measure 3
0000
0000
0000
0000
,  // measure 4
0000
0000
0000
0000
,  // measure 5
1000
0000
0001
0100
0000
0100
0000
0010
,  // measure 6
1000
1000
0001
0010
,  // measure 7
0100
0000
1000
0010
0000
0010
0000
1000
,  // measure 8
0001
0001
1000
0010
,  // measure 9
0100
0000
0001
1000
0000
1000
0000
0100
,  // measure 10
0010
1000
0001
0000
1100
0000
0011
0000
,  // measure 11
0001
0010
0100
1000
0000
0000
1000
0000
,  // measure 12
0100
1000
2000
0000
3010
0000
0110
0000
,  // measure 13
0001
1000
0010
0200
0000
0310
0000
1000
,  // measure 14
0010
0100
0001
0000
1100
0000
0110
0000
,  // measure 15
0001
0100
0010
1000
0000
0000
0200
0000
,  // measure 16
1300
0100
1000
0001
0000
0000
0000
0000
,  // measure 17
1000
0001
0100
0020
0000
1030
0000
0100
,  // measure 18
0001
0010
0100
0000
2000
0000
3100
0000
,  // measure 19
0010
0001
0010
0001
0000
0000
0200
0000
,  // measure 20
1300
1000
0002
0000
0103
0000
0000
0000
,  // measure 21
0010
1000
0010
2000
0000
3010
0000
0000
,  // measure 22
0100
0001
0100
0000
1010
0000
0101
0000
,  // measure 23
0010
1000
0010
1000
0000
0000
0000
0000
,  // measure 24
0200
0320
0130
0000
,  // measure 25
0001
1000
0100
1000
0000
0110
0000
0001
,  // measure 26
1000
0100
0010
0000
1001
0000
0110
0000
,  // measure 27
0001
1000
0010
0100
0000
1001
0000
1000
,  // measure 28
0001
0010
0100
0000
1100
0000
0110
0000
,  // measure 29
0001
0100
0010
2000
0000
3100
0000
0010
,  // measure 30
0001
1000
0100
0000
0200
0000
1300
0000
,  // measure 31
1000
0001
0010
0100
0000
0000
1000
0000
,  // measure 32
0001
0100
0010
0000
1001
0000
0000
0000
,  // measure 33
0010
0100
0010
0100
0001
1000
0001
0100
,  // measure 34
0010
1000
0010
1000
0001
0000
0110
0000
,  // measure 35
1000
0010
0100
0001
1000
0100
1000
0001
,  // measure 36
1000
0100
1000
0000
0011
0000
1100
0000
,  // measure 37
0010
0001
0010
0100
1000
0100
1000
0001
,  // measure 38
0000
0000
0100
0000
0010
0000
1000
0000
0000
0110
0000
0000
0110
0000
0000
0000
,  // measure 39
0001
1000
0010
0100
0001
0100
0010
1000
,  // measure 40
0000
0001
0100
0010
1000
0000
0000
0000
,  // measure 41
0100
1000
0100
0010
0001
1000
0100
1000
,  // measure 42
0000
0000
0001
0000
1000
0000
0010
0000
0000
0110
0000
0000
1001
0000
0000
0000
,  // measure 43
0100
0010
0100
0001
1000
0001
1000
0000
,  // measure 44
0010
0100
0001
1000
0001
0100
0010
0000
,  // measure 45
1000
0001
1000
0100
1000
0100
0010
0001
,  // measure 46
1000
0001
0010
0100
1000
0100
0100
0000
,  // measure 47
0010
0001
0100
0010
1000
0001
0010
0001
,  // measure 48
1000
0001
0010
0000
0110
0000
0000
0000
,  // measure 49
1000
0100
0010
0002
0000
0013
0000
0100
,  // measure 50
1000
0100
0010
0000
0110
0000
0011
0000
,  // measure 51
0100
1000
0100
1000
0000
0000
0002
0000
,  // measure 52
0013
0010
0200
0000
1300
0000
0000
0000
,  // measure 53
0001
0100
0001
2000
0000
3100
0000
1000
,  // measure 54
0100
0010
0002
0000
0203
0000
0310
0000
,  // measure 55
1000
0001
0010
0100
0000
0000
2000
0000
,  // measure 56
3100
1000
0100
0010
0000
0000
0000
0000
,  // measure 57
0001
1000
0100
0020
0000
0031
0000
0001
,  // measure 58
0010
0100
2000
0000
3200
0000
0310
0000
,  // measure 59
0001
1000
0100
0010
0000
0000
0001
0000
,  // measure 60
1000
0001
0020
0000
0031
0000
0000
0000
,  // measure 61
1000
0100
0010
0002
0000
0013
0000
0000
,  // measure 62
0100
1000
0100
0000
0020
0000
0031
0000
,  // measure 63
1000
0010
0100
0001
0000
0000
0000
0000
,  // measure 64
1000
0001
0200
0000
0301
0000
0000
0000
,  // measure 65
1000
0001
0100
0001
1000
0010
1000
0000
,  // measure 66
0010
0100
0001
0100
0010
0000
1001
0000
,  // measure 67
0010
0100
1000
0100
0000
0011
0000
0000
,  // measure 68
1000
0100
1000
0000
1100
0000
0011
0000
,  // measure 69
0100
0100
1000
1000
0000
0110
0000
0000
,  // measure 70
0001
1000
0010
0000
0200
0000
0310
0000
,  // measure 71
1000
0100
0010
0001
0000
0000
1000
0000
,  // measure 72
0001
1000
0001
0000
0110
0000
0000
0000
,  // measure 73
1000
0010
0100
0001
1000
0100
1000
0100
,  // measure 74
0010
0001
0010
0100
0100
0000
1100
0000
,  // measure 75
0001
1000
0010
0100
0001
1000
0010
0100
,  // measure 76
0010
1000
0001
0000
1010
0000
0101
0000
,  // measure 77
1000
0010
1000
0010
0100
0001
0100
0010
,  // measure 78
1000
0001
0100
0010
1000
0000
1001
0000
,  // measure 79
0010
0100
0001
1000
0010
0100
0001
1000
,  // measure 80
0020
2030
3002
0103
,  // measure 81
0010
1000
0100
0010
0001
0100
0010
0100
,  // measure 82
0001
0000
1000
0000
0010
0000
0100
0000
0000
1010
0000
0000
0101
0000
0000
0000
,  // measure 83
1000
0100
0010
0001
1000
0100
1000
0001
,  // measure 84
1000
0000
0100
0000
1000
0000
0001
0000
0000
0110
0000
0000
1001
0000
0000
0000
,  // measure 85
1000
0001
0010
0001
1000
0001
0010
0001
,  // measure 86
1000
0000
0001
0000
0010
0000
0001
0000
0000
1100
0000
0000
0011
0000
0000
0000
,  // measure 87
1000
0100
1000
0001
0100
0010
1000
0000
,  // measure 88
0002
2003
3100
0110
,  // measure 89
1001
0000
0000
0000
;

//---------------dance-single - ----------------
#NOTES:
     dance-single:
     :
     Medium:
     5:
     0.421,0.448,0.163,0.016,0.000:
0000
0000
0000
0000
,
0000
0000
0000
0000
,
0000
0000
0000
0000
,
0000
0000
0000
0000
,
1000
0000
0010
0100
0000
0100
0000
0000
,
0001
1000
0010
0000
,
1000
0000
0001
0100
0000
0100
0000
0000
,
0010
1000
0001
0000
,
1000
0000
0100
0010
0000
0010
0000
0000
,
0001
1000
0001
0000
0100
0000
0100
0000
,
0010
1000
0010
1000
0000
0000
0001
0000
,
0100
0010
1000
0010
0100
0000
0000
0000
,
0001
0010
0100
1000
0000
0001
0000
0000
,
1000
0001
0100
0001
,
1000
0100
0010
0001
0000
0000
1000
0000
,
1000
0001
0100
0000
0100
0000
0000
0000
,
0010
0010
1000
0001
,
1000
0010
0110
0101
,
0010
1000
0100
0010
0000
0000
0001
0000
,
1000
0100
1000
0000
0001
0000
0000
0000
,
1000
0100
0010
0001
0000
1000
0000
0000
,
0010
0010
0100
0100
,
0001
1000
0010
0010
0000
0000
0000
0000
,
1000
0100
1000
0000
,
0001
0001
0100
0100
,
0010
1000
0010
1000
,
0100
0100
0100
0100
,
1000
0001
0100
0001
1000
0000
0000
0000
,
0010
1000
0100
0010
,
0001
0001
0100
0100
,
0010
0000
0010
1000
0000
0000
0000
0000
,
0001
0010
0100
0000
,
1000
0100
0010
0001
,
1000
0010
1000
0001
0100
0010
0100
0000
,
0001
1000
0010
1000
,
0001
0000
0100
0000
0010
1000
0010
0000
,
0100
0001
1000
0010
,
1000
0000
0001
1000
0100
0010
0001
0000
,
0100
0010
1000
0001
,
1000
0110
1001
0000
,
0010
0000
0010
0000
0100
0010
0100
0000
,
0001
1000
0001
0000
1000
0000
0100
0000
,
0010
0000
0001
0000
1000
0100
1000
0000
,
0001
0010
0100
0000
1000
0000
0100
0000
,
1000
0000
0100
0000
0010
0001
0010
0000
,
0100
1000
0100
0000
0010
0000
0011
0000
,
0100
1000
0100
0010
,
0001
0010
0100
0000
1000
0000
0000
0000
,
1000
0000
0010
1000
0000
1000
0000
0000
,
0010
0100
0001
0001
,
1000
0100
0010
0001
0000
0000
0000
0000
,
1000
0001
1000
0000
,
0010
0100
0010
1000
0000
0001
0000
0000
,
1000
0010
0010
1000
,
0001
0010
0100
1000
0000
0000
0000
0000
,
0010
1000
0010
0000
,
0100
0000
0001
1000
0000
1000
0000
0000
,
0010
0100
0001
0001
,
1000
0100
0010
0001
0000
0000
0000
0000
,
1000
0001
0110
0000
,
1000
0100
1000
0001
0000
0001
0000
0000
,
0100
0100
0010
0010
,
1000
0001
1000
0010
0000
0000
0000
0000
,
0100
0001
0100
0000
0010
0000
0000
0000
,
1000
0100
0010
0001
,
1010
1010
0101
0010
,
1000
0100
0010
0001
,
1100
0110
0011
1000
,
0100
1000
0100
0010
,
0001
1000
0010
0000
0010
0000
0100
0000
,
0001
1000
0001
1000
0000
0000
0000
0000
,
0010
0101
1010
0000
,
0100
0001
0100
0010
,
1000
0000
0010
0100
0001
0100
0010
0000
,
1000
0010
1000
0001
,
0100
0000
0010
0000
1000
0001
1000
0000
,
0001
0010
0100
1000
,
0001
0000
1000
0010
0100
0010
0100
0000
,
0001
1000
0010
0100
,
0101
1010
0101
0000
,
1000
0100
0010
0001
,
1000
0000
0100
0000
1000
0001
1000
0000
,
0001
0100
0010
1000
,
0001
0000
1000
0000
0010
0100
0010
0000
,
1000
0001
0010
0100
,
1000
0000
0100
0000
0010
0001
0010
0000
,
0100
1000
0001
1000
,
0110
1001
0110
0001
,
2002
0000
0000
0000
0000
0000
0000
3003
;

//---------------dance-single - ----------------
#NOTES:
     dance-single:
     :
     Easy:
     4:
     0.323,0.342,0.070,0.000,0.000:
0000
0000
0000
0000
,
0000
0000
0000
0000
,
0000
0000
0000
0000
,
0000
0000
0000
0000
,
0001
0010
0100
1000
,
0010
0100
0010
0000
,
1000
0100
0010
0001
,
1000
0010
1000
0000
,
0001
0001
0001
0001
,
0100
0010
0100
0100
,
0010
0010
0010
0010
,
0010
1000
0010
0000
,
1000
0001
0100
0010
,
1000
1000
1000
1000
,
0001
0100
0010
0000
,
1000
0010
0100
0000
,
0001
1000
0010
0100
,
0001
0001
1000
1000
,
0010
0100
0001
0000
,
1000
0010
0100
0000
,
0001
0010
0100
1000
,
0010
0010
0100
0100
,
0001
1000
0000
0010
,
0100
0010
0010
0000
,
1000
0001
1000
0001
,
1000
1000
1000
0000
,
0010
0100
0001
1000
,
0010
0010
0010
0000
,
1000
0001
1000
0001
,
1000
1000
0010
0010
,
0100
0000
1001
0000
,
0010
0000
0110
0000
,
1000
1000
1000
1000
,
1000
1000
1000
1000
,
0010
0010
0010
0010
,
0010
0010
0010
0010
,
0100
0100
0100
0100
,
0100
0100
0100
0100
,
0001
0001
0001
0001
,
1000
0000
0110
0000
,
0001
1000
0001
1000
,
0001
1000
0001
1000
,
0010
0100
0010
0100
,
0010
0100
0010
0100
,
0001
1000
0001
1000
,
0001
1000
0001
1000
,
0010
0100
0010
0100
,
0010
0000
0110
0000
,
1000
0000
0001
0000
,
1000
0000
0010
0000
,
0100
0000
0010
0000
,
0100
0000
0001
0000
,
1000
0000
1000
0000
,
0010
0000
0010
0000
,
1000
0000
1000
0000
,
0001
0000
0001
0000
,
0100
0100
0100
0100
,
0010
0010
0010
0010
,
1000
0001
0000
0000
,
1000
0010
0010
0000
,
0100
0001
0010
0100
,
1000
1000
0010
0010
,
0100
0001
0000
0000
,
1000
0010
0110
0000
,
0001
0000
0001
0000
,
0010
0010
0010
0000
,
0100
0000
0100
0000
,
1000
1000
1000
0000
,
0001
0010
0100
1000
,
0010
0100
0010
0000
,
1000
0100
0000
0000
,
0010
0001
0001
0000
,
1000
1000
1000
1000
,
1000
1000
1000
1000
,
0001
0001
0001
0001
,
0001
0001
0001
0001
,
0100
0100
0100
0100
,
0100
0100
0100
0100
,
0010
0010
0010
0010
,
1000
0000
1001
0000
,
0010
0100
0010
0100
,
0010
0100
0010
0100
,
0001
1000
0001
1000
,
0001
1000
0001
1000
,
0010
0100
0010
0100
,
0010
0100
0010
0100
,
0001
1000
0001
1000
,
1001
0000
0110
0000
,
1001
0000
0000
0000
;

//---------------dance-single - Copied from----------------
#NOTES:
     dance-single:
     Copied from:
     Beginner:
     2:
     0.099,0.171,0.000,0.000,0.000:
0000
0000
0000
0000
,
0000
0000
0000
0000
,
0000
0000
0000
0000
,
0000
0000
0000
0000
,
1000
0000
0000
0000
,
1000
0000
0000
0000
,
1000
0000
0000
0000
,
1000
0000
0000
0000
,
0001
0000
0000
0000
,
0001
0000
0000
0000
,
0001
0000
0000
0000
,
0001
0000
0000
0000
,
0100
0000
0000
0000
,
0100
0000
0000
0000
,
0100
0000
0000
0000
,
0100
0000
0000
0000
,
0010
0000
0000
0000
,
0010
0000
0000
0000
,
0010
0000
0000
0000
,
0010
0000
0000
0000
,
1000
0000
0000
0000
,
1000
0000
0000
0000
,
1000
0000
0000
0000
,
1000
0000
0000
0000
,
0001
0000
0000
0000
,
0010
0000
0000
0000
,
0001
0000
0000
0000
,
0010
0000
0000
0000
,
1000
0000
0000
0000
,
0100
0000
0000
0000
,
1000
0000
0000
0000
,
0100
0000
0000
0000
,
0010
0000
0000
0000
,
0000
0000
0000
0000
,
0001
0000
0000
0000
,
0000
0000
0000
0000
,
1000
0000
0000
0000
,
0000
0000
0000
0000
,
0100
0000
0000
0000
,
0000
0000
0000
0000
,
0010
0000
0000
0000
,
0000
0000
0000
0001
0000
0000
0000
0000
,
0010
0000
0000
0000
,
0000
0000
0100
0000
,
1000
0000
0000
0000
,
0000
0000
0000
0000
,
0010
0000
0000
0000
,
0001
0000
0000
0000
,
0100
0000
0000
0000
,
0100
0000
0000
0000
,
0100
0000
0000
0000
,
0100
0000
0000
0000
,
0010
0000
0000
0000
,
0010
0000
0000
0000
,
0010
0000
0000
0000
,
0010
0000
0000
0000
,
1000
0000
0000
0000
,
1000
0000
0000
0000
,
0001
0000
0000
0000
,
0001
0000
0000
0000
,
0100
0000
0000
0000
,
0100
0000
0000
0000
,
0010
0000
0000
0000
,
0010
0000
0000
0000
,
1000
0000
0000
0000
,
1000
0000
0000
0000
,
0100
0000
0000
0000
,
0100
0000
0000
0000
,
0010
0000
0000
0000
,
0010
0000
0000
0000
,
0001
0000
0000
0000
,
0001
0000
0000
0000
,
1000
0000
0010
0000
,
1000
0000
0010
0000
,
0100
0000
0001
0000
,
0100
0000
0001
0000
,
1000
0000
0010
0000
,
1000
0000
0010
0000
,
0100
0000
0001
0000
,
0100
0000
0001
0000
,
1000
0000
0000
0000
,
0000
1000
0000
0000
,
0010
0000
0000
0000
,
0000
0010
0000
0000
,
0100
0000
0000
0000
,
0000
0100
0000
0000
,
0001
0000
0000
0000
,
0001
0000
0001
0000
,
1000
0000
0000
0000
;
