#TITLE:Let The Beat Control Your Body;
#SUBTITLE:;
#ARTIST:2 UNLIMITED;
#TITLETRANSLIT:;
#SUBTITLETRANSLIT:;
#ARTISTTRANSLIT:;
#CREDIT:SupremeX;
#BANNER:Let The Beat Control Your Body-bn.png;
#BACKGROUND:Let The Beat Control Your Body-bg.png;
#LYRICSPATH:;
#CDTITLE:;
#MUSIC:Let The Beat Control Your Body.ogg;
#OFFSET:-0.139;
#SAMPLESTART:16.980;
#SAMPLELENGTH:12.000;
#SELECTABLE:YES;
#BPMS:0.000=142.060;
#STOPS:;
#BGCHANGES:;

//---------------dance-single - ----------------
#NOTES:
     dance-single:
     :
     Hard:
     7:
     0.469,0.460,0.467,0.000,0.000: // measure 1
0000
0000
0000
0000
,  // measure 2
0000
0000
0000
0000
,  // measure 3
0000
0000
0000
0000
,  // measure 4
0000
0000
0000
0000
,  // measure 5
1000
0100
1000
0000
0101
0000
1001
0000
,  // measure 6
0010
0100
0010
0000
1001
0000
1010
0000
,  // measure 7
0001
0010
0100
0000
1100
0000
0011
0000
,  // measure 8
1000
0100
0010
0001
1000
0100
1000
0000
,  // measure 9
0100
0000
0010
0001
0010
0100
0000
0100
,  // measure 10
1000
0010
1000
0001
0010
0100
1000
0000
,  // measure 11
0010
0000
0100
0000
0001
0000
1000
0100
,  // measure 12
0000
0101
0000
0010
1000
0100
0010
0001
,  // measure 13
0100
0000
0110
0000
0001
1000
0000
1001
,  // measure 14
0000
0110
0000
1001
0000
0010
0100
0001
,  // measure 15
1000
0000
0110
0000
0001
0000
0001
0100
,  // measure 16
0000
1001
0000
0010
0000
0010
0100
0001
,  // measure 17
0100
0000
0010
0000
0010
1000
0000
0100
,  // measure 18
0000
1001
0000
0101
0000
0010
0000
1001
,  // measure 19
0000
0000
1000
0100
0010
0000
0011
0000
,  // measure 20
1000
0000
1000
0000
0000
0010
0000
0010
,  // measure 21
0000
0100
0000
0100
0000
0001
0010
0100
,  // measure 22
1000
0000
1100
0000
0000
0001
0000
0001
,  // measure 23
0000
0100
0000
0010
0000
1000
0100
0010
,  // measure 24
0001
0000
0011
0000
0000
1000
0000
1000
,  // measure 25
0000
0001
0000
0001
0000
0100
0010
0100
,  // measure 26
0001
0000
1001
0000
0000
1000
0000
1000
,  // measure 27
0000
0010
0000
0110
0000
1001
0100
0100
,  // measure 28
0001
1000
0010
0000
0010
1000
0001
0000
,  // measure 29
0100
0001
0100
0010
1000
0001
1000
0000
,  // measure 30
0010
0100
0010
1000
0001
0100
0010
0000
,  // measure 31
1000
0100
0010
0001
1000
0100
1000
0000
,  // measure 32
0100
0010
0001
0010
0100
1000
0010
0100
,  // measure 33
0010
1000
0001
1000
0010
0100
0010
0000
,  // measure 34
0100
0000
0001
1000
0100
0010
0001
0000
,  // measure 35
0100
0010
1000
0001
0100
0010
1000
0000
,  // measure 36
1100
0000
0110
0000
0001
0010
0100
0000
,  // measure 37
1001
0000
0110
0000
1000
0001
0010
0000
,  // measure 38
0110
0000
1100
0000
0001
1000
0010
0000
,  // measure 39
0010
1000
0001
0100
0010
0100
0001
0000
,  // measure 40
1100
0000
1001
0000
0010
0100
0010
0000
,  // measure 41
1001
0000
0101
0000
0010
1000
0010
0000
,  // measure 42
0100
0001
0100
0010
1000
0100
0010
0000
,  // measure 43
0011
0110
1100
0001
,  // measure 44
0001
0000
0100
0000
0010
1000
0010
0000
,  // measure 45
0100
0001
0100
0000
0010
1000
0001
0000
,  // measure 46
0001
0000
0010
0000
0100
0000
1000
0100
,  // measure 47
0000
0110
0000
0001
0000
0001
0010
0100
,  // measure 48
1000
0000
0010
0000
0100
0001
0000
0101
,  // measure 49
0000
1010
0000
1001
0000
0100
0000
0000
,  // measure 50
0001
0000
0010
0000
0100
0000
1000
0100
,  // measure 51
0000
0110
0000
0001
0000
0001
1000
0100
,  // measure 52
1000
0000
0100
0000
0100
1000
0000
0001
,  // measure 53
0000
0101
0000
1010
0000
1001
0000
0110
,  // measure 54
0000
0001
1000
0100
0010
0000
0011
0000
,  // measure 55
0100
0000
1000
0000
0000
0010
0000
0100
,  // measure 56
0000
0010
0000
1000
0000
0001
0010
0001
,  // measure 57
0010
0000
1100
0000
0000
0001
0000
0100
,  // measure 58
0000
0010
0000
1000
0000
0100
1000
0100
,  // measure 59
1000
0000
0110
0000
0000
0001
0000
1000
,  // measure 60
0000
0100
0000
1000
0000
0001
0100
0010
,  // measure 61
1001
1001
0000
0000
;

//---------------dance-single - ----------------
#NOTES:
     dance-single:
     :
     Medium:
     5:
     0.362,0.373,0.257,0.000,0.000:
0000
0000
0000
0000
,
0000
0000
0000
0000
,
0000
0000
0000
0000
,
0000
0000
0000
0000
,
0010
0000
0100
0000
0001
1000
0001
0000
,
0100
0000
0100
0000
0010
1000
0001
0000
,
0100
0000
0100
0000
0010
1000
0001
0000
,
0100
0100
0001
0010
,
0100
1000
0010
1000
,
0001
0001
0001
0000
0100
0100
0100
0000
,
0010
0000
1000
0000
0010
0000
0100
0001
,
0000
0101
0000
0000
0000
0000
0000
0000
,
0010
0000
1000
0000
0010
1000
0000
0100
,
0000
1000
0000
0010
0000
0000
0000
0000
,
0000
0000
0100
0000
0001
0000
1000
0001
,
0000
1001
0000
0000
0000
0000
0000
0000
,
0100
0000
0010
0000
0100
0010
0000
1000
,
0000
0001
0000
0100
0000
0010
0000
1000
,
0000
0000
0001
0010
0100
0000
1000
0000
,
0010
0000
0110
0000
0000
0001
0000
0001
,
0000
1000
0000
1000
0000
0010
0100
0010
,
0100
0000
1001
0000
0000
0001
0000
0010
,
0000
0100
0000
1000
0000
0100
0010
0100
,
0010
0000
0101
0000
0000
1000
0000
0010
,
0000
0100
0000
0001
0000
0001
0010
0100
,
0100
0000
1100
0000
0000
0010
0000
0100
,
0000
0001
0000
1000
0000
0010
0100
0010
,
1000
1000
0001
0001
,
1000
0010
0100
0000
0001
0000
0001
0000
,
1000
0100
1000
0000
0010
0000
0010
0000
,
0100
0001
0100
0000
0010
0000
1000
0000
,
0010
0000
0100
0000
0001
0100
0001
0000
,
0010
0000
0100
0000
1000
0100
1000
0000
,
0100
0000
0010
0000
0001
0100
0001
0000
,
0010
0000
0100
0000
1000
0100
1000
0000
,
0010
0010
0101
1010
,
0001
0100
1010
0101
,
0010
0100
1010
0101
,
1000
0000
0010
0000
0100
0001
0100
0000
,
0010
1000
1001
1001
,
0010
0100
0110
0110
,
0001
1000
0101
1010
,
0100
0001
1000
0100
,
0010
0000
0010
0000
0001
0100
0001
0000
,
1000
0000
1000
0000
0010
0100
0010
0000
,
1000
0000
0001
0000
0100
0000
0001
0100
,
0000
1010
0000
0000
0000
0000
0000
0001
,
0001
0000
1000
0000
0100
1000
0000
0010
,
0000
0110
0000
1001
0000
0000
0000
0000
,
0000
0000
0100
0000
0010
0000
1000
0010
,
0000
0101
0000
0000
0000
0000
0000
0000
,
1000
0000
0010
0000
0100
0010
0000
1001
,
0000
1100
0000
0110
0000
0011
0000
0110
,
0000
0000
1000
0010
0100
0000
0001
0000
,
1000
0000
1000
0000
0000
0010
0000
0100
,
0000
0001
0000
1000
0000
0010
0100
0010
,
1000
0000
1000
0000
0000
0010
0000
0100
,
0000
0001
0000
1000
0000
0001
0100
0010
,
1000
0000
1000
0000
0000
0010
0000
0100
,
0000
0001
0000
1000
0000
0010
0100
0010
,
0100
0010
0000
0000
;

//---------------dance-single - ----------------
#NOTES:
     dance-single:
     :
     Easy:
     3:
     0.294,0.316,0.114,0.000,0.000:
0000
0000
0000
0000
,
0000
0000
0000
0000
,
0000
0000
0000
0000
,
0000
0000
0000
0000
,
1000
0001
0100
0100
,
0010
1000
0001
0001
,
1000
0010
0100
0100
,
0001
1000
0001
1000
,
0010
0010
1000
0000
,
0001
0100
0001
1000
,
0001
0100
0010
1000
,
1000
0001
0001
0100
,
0010
0000
1000
0000
0001
0000
0000
0100
,
0000
0100
0000
0100
0000
0000
0000
0000
,
0000
0001
1000
0010
,
0100
0001
1000
0001
,
0010
0000
0010
0000
0100
0000
0000
1000
,
0000
1000
0000
1000
0000
1000
0000
1000
,
0000
0010
0100
0001
,
1000
0000
1000
0000
0000
0010
0000
0010
,
0000
0100
0000
0100
0000
0000
0001
0000
,
1000
0000
1001
0000
0000
0010
0000
0100
,
0000
0010
0000
1000
0000
1000
0000
0000
,
1001
0000
1001
0000
0000
0010
0000
0100
,
0000
0001
0000
1000
0000
0000
0001
0000
,
1000
0000
1000
0000
0000
0010
0000
0100
,
0000
0001
0000
1000
0000
0000
0000
0000
,
0010
0010
0100
0100
,
0001
0001
1000
1000
,
0010
0100
0001
0001
,
1000
0010
0100
0001
,
1000
1000
0010
0010
,
0100
0100
0001
0001
,
1000
0010
0100
0100
,
0001
1000
0100
0010
,
0001
0001
0100
0100
,
0010
0010
1000
1000
,
0001
0100
0001
0001
,
1000
0010
0100
0100
,
0001
0010
0100
0100
,
1000
0010
0100
0100
,
0001
1000
0010
0010
,
1000
1000
0001
0001
,
0100
0010
1000
1000
,
0001
0001
1001
1001
,
0100
0000
0100
0000
0010
0000
0000
0010
,
0000
1000
0000
0000
0000
0000
0000
0000
,
0001
0000
0100
0000
0010
0100
0000
1000
,
0000
1000
0000
1000
0000
0000
0000
0000
,
0001
0000
0100
0000
0010
0000
0000
1000
,
0000
1000
0000
0000
0000
0000
0000
0000
,
0001
0000
0100
0000
0010
0000
0000
1000
,
0000
0001
0000
1000
0000
0001
0000
0100
,
0000
0010
0100
0110
,
0001
0000
0001
0000
0000
1000
0000
0010
,
0000
1000
0000
0001
0000
0000
0000
0000
,
0110
0000
0110
0000
0000
1000
0000
0010
,
0000
1000
0000
0001
0000
0001
0000
0000
,
0110
0000
0110
0000
0000
1000
0000
0001
,
0000
1000
0000
0010
0000
0000
0100
0000
,
1001
1001
0000
0000
;

//---------------dance-single - Copied from----------------
#NOTES:
     dance-single:
     Copied from:
     Beginner:
     1:
     0.099,0.138,0.010,0.000,0.000:
0000
0000
0000
0000
,
0000
0000
0000
0000
,
0000
0000
0000
0000
,
0000
0000
0000
0000
,
0010
0000
0000
0000
,
0010
0000
0000
0000
,
0010
0000
0000
0000
,
0100
0000
0000
0000
,
0100
0000
0000
0000
,
0100
0000
0000
0000
,
0001
0000
0000
0000
0000
0000
0000
0001
,
0000
0000
0000
0000
,
1000
0000
0000
0000
0000
0000
0000
1000
,
0000
0000
0000
0000
,
0001
0000
0000
0000
0000
0000
0000
0001
,
0000
0000
0000
0000
,
0100
0000
0000
0000
0000
0000
0000
0100
,
0000
0000
0000
0000
,
0000
0010
0010
0000
,
0000
0000
1000
0000
0000
0000
0000
1000
,
0000
0000
0000
0000
,
0001
0000
0000
0000
0000
0001
0000
0000
,
0000
0000
0000
0000
,
0100
0000
0000
0000
0000
0100
0000
0000
,
0000
0000
0000
0000
,
0010
0000
0000
0000
0000
0010
0000
0000
,
0000
0000
0000
0000
,
1000
0000
0100
0000
,
0010
0000
0001
0000
,
1000
0000
0100
0000
,
0010
0000
0001
0000
,
1000
0000
1000
0000
,
0010
0000
0010
0000
,
1000
0000
1000
0000
,
0010
0000
0010
0000
,
0100
0000
0100
0000
,
0100
0000
0100
0000
,
0100
0000
0100
0000
,
0000
0000
0000
0000
,
0001
0000
0001
0000
,
0001
0000
0001
0000
,
0001
0000
0001
0000
,
0000
0000
0000
0000
,
0100
0000
0000
0000
,
0010
0000
0000
0000
,
1000
0000
0100
0000
,
1000
0000
0000
0000
,
0001
0000
0010
0000
,
0001
0000
0000
0000
,
0000
1000
0000
0010
,
0000
1000
0000
0000
,
0001
0000
0001
0000
,
0001
0000
0000
0000
,
0000
0100
0000
0000
,
0010
0000
0000
0000
0000
0000
0000
0100
,
0000
0000
0000
0000
,
0010
0000
0000
0000
0000
0000
0000
1000
,
0000
0000
0000
0000
,
1001
0000
0000
0000
;
