#TITLE:LITTLE TWIN STARS;
#SUBTITLE:;
#ARTIST:ALEKY;
#TITLETRANSLIT:;
#SUBTITLETRANSLIT:;
#ARTISTTRANSLIT:;
#CREDIT:SupremeX;
#BANNER:LITTLE TWIN STARS-bn.png;
#BACKGROUND:LITTLE TWIN STARS-bg.png;
#LYRICSPATH:;
#CDTITLE:;
#MUSIC:LITTLE TWIN STARS.ogg;
#OFFSET:-0.031;
#SAMPLESTART:40.960;
#SAMPLELENGTH:12.000;
#SELECTABLE:YES;
#BPMS:0.000=142.060;
#STOPS:;
#BGCHANGES:;

//---------------dance-single - ----------------
#NOTES:
     dance-single:
     :
     Hard:
     7:
     0.443,0.456,0.331,0.110,0.000:
0000
0000
0000
0000
,
0000
0000
0000
0000
,
0000
0000
0000
0000
,
0000
0000
0000
0000
,
1010
0000
0101
0000
1000
0001
1000
0000
,
0010
0000
0110
0000
1000
0001
1000
0000
,
1100
0000
1100
0000
0110
0000
0001
1000
,
0010
0000
0010
1000
0001
0100
0001
0000
,
2002
0000
0000
3003
,
0010
1000
0000
1100
0000
0000
0010
0010
,
0001
0100
0000
0101
0000
0000
0000
0010
,
1000
1000
0000
1100
0000
0000
0000
0010
,
0001
0001
0000
0011
0000
0000
0000
0000
,
1000
0100
0000
0100
0000
1000
0100
0010
,
0001
1000
0000
1001
0000
0000
0000
0010
,
0100
0010
0000
1000
0000
0001
0000
1000
,
0010
1000
0010
0100
0001
0100
0001
0000
,
1000
0000
0000
0100
0100
0001
1000
1000
,
1000
0000
0000
0010
0000
1001
0000
0020
,
0000
0100
0000
0100
0000
0130
0000
0000
,
0010
0000
0010
0000
1000
1000
0000
0001
,
0020
0000
0030
0100
1000
0100
0000
0010
,
0000
0001
0001
1000
0000
0001
0100
0000
,
0100
0010
1000
0010
1000
0010
0100
0001
,
2000
0000
0000
3000
,
0010
0000
0100
0100
0000
1010
0000
0101
,
0000
0010
1000
0000
1000
0001
0000
0001
,
0000
0100
0010
0100
0010
1000
0001
0001
,
0000
0000
0100
0010
0000
0010
0100
0001
,
0000
0000
1000
0100
0000
1100
0000
0010
,
0000
0011
0100
0100
0000
1000
0010
1000
,
0001
0100
0010
1000
0001
0100
0010
1000
,
0001
0000
1000
1000
0000
0001
0100
0000
,
0100
0000
0001
0001
0000
1010
0000
0101
,
0000
0010
0010
0000
1000
0001
0000
0001
,
0000
1000
0100
1000
0001
1000
0100
0000
,
0100
0000
1000
1000
0000
0001
0100
0001
,
0000
0000
1000
0010
0000
0010
1000
0001
,
0100
0000
0100
0001
0000
1000
0000
0200
,
0000
1000
0000
1000
0000
1300
0000
0000
,
0001
0001
0000
0100
0000
1001
0000
0010
,
0010
0000
1000
0010
0100
0001
1000
0000
,
0110
1001
1010
0101
,
1000
0010
0100
0001
1000
0100
1000
0000
,
0100
0010
0100
0001
1000
0010
1000
0000
,
0101
0000
1010
0000
0010
1000
0010
0000
,
0100
0001
1000
0100
0010
0000
0011
0000
,
0001
0010
0100
1000
0010
1000
0001
0000
,
1000
0100
0010
0001
1000
0100
1000
0000
,
2002
0000
0000
3003
,
1100
0000
0001
0100
0000
0100
0010
1000
,
0010
0010
0000
2002
0000
3003
0000
0000
;

//---------------dance-single - ----------------
#NOTES:
     dance-single:
     :
     Medium:
     5:
     0.311,0.397,0.232,0.066,0.000:
0000
0000
0000
0000
,
0000
0000
0000
0000
,
0000
0000
0000
0000
,
0000
0000
0000
0000
,
0010
0000
0010
0000
1000
1000
1000
0000
,
0001
0000
0001
0000
0100
0100
0100
0000
,
0010
1000
0010
0100
,
0001
1000
0010
0100
,
0002
0000
0000
0003
,
1000
0000
0000
0010
0000
0000
1000
0000
,
0001
0001
0000
1000
0000
0000
0000
0000
,
0010
0000
0000
0110
0000
0000
0000
0000
,
1000
0000
0000
1001
0000
0000
0000
0000
,
0010
0100
0001
1000
,
0010
0000
0000
0110
0000
0000
0000
0000
,
0001
0000
0000
0001
0000
0001
0000
2000
,
0000
0000
0000
3000
,
0010
0100
0001
1000
,
0010
0000
0000
1000
0000
0001
0000
0200
,
0000
0000
0000
0000
0000
0300
0000
0000
,
0010
0000
1000
0000
0001
0001
0000
0000
,
1000
0010
0100
0001
,
1000
0000
0010
0000
0100
0000
0000
0001
,
1000
0000
0010
0100
0000
0001
1000
0001
,
1000
0000
0000
0000
,
0010
0100
0010
0100
,
0110
0001
1000
0010
,
1000
0010
0100
0101
,
0010
0010
1000
1000
,
0001
0000
0100
0100
0000
0020
0000
0000
,
0030
0000
1000
1000
0000
0001
0000
0100
,
0010
0010
0010
0010
,
1000
0000
0001
0100
0000
0010
1000
0000
,
0001
0000
0100
0010
0000
0110
0000
0110
,
0000
0000
0001
1000
,
0010
0100
0001
1000
,
0000
0010
0100
0001
,
1000
0010
1000
0001
,
0100
0000
0001
1000
0000
0010
0000
0100
,
0010
0100
0010
0100
0010
0100
0010
0000
,
0000
0000
0000
0000
,
1001
1001
0110
0110
,
1000
0001
1000
0001
,
1000
1000
0010
0010
,
0100
0001
0100
0000
0010
1000
0010
0000
,
1000
1000
0001
0001
,
0100
0010
1000
0001
,
1001
1001
0110
0110
,
1001
1001
0110
0110
,
2002
0000
0000
3003
,
0010
0100
0010
1000
,
1000
0000
0000
1001
0000
0000
0000
0000
;

//---------------dance-single - ----------------
#NOTES:
     dance-single:
     :
     Easy:
     3:
     0.219,0.221,0.066,0.110,0.000:
0000
0000
0000
0000
,
0000
0000
0000
0000
,
0000
0000
0000
0000
,
0000
0000
0000
0000
,
0010
0000
0100
0000
,
0001
1000
0001
0000
,
1000
0000
0010
0000
,
1000
0001
1000
0000
,
0220
0000
0000
0330
,
0001
0000
0000
0001
0000
0000
1000
0000
,
1000
0000
0000
0110
0000
0000
0000
0000
,
0001
0000
0000
0001
0000
0000
0000
0000
,
1000
0000
0000
1000
0000
0000
0000
0000
,
0001
0100
0010
1000
,
0001
0000
0000
1001
0000
0000
0000
0000
,
0010
0000
0000
0100
0000
0100
0000
0200
,
0000
0000
0000
0000
0000
0000
0000
0300
,
0001
0000
1000
0010
,
1000
0000
0000
0001
0000
0001
0000
0200
,
0000
0000
0000
0000
0000
0300
0000
0000
,
0010
1000
1000
0000
,
0001
1000
0010
0100
,
0001
1000
0010
1000
,
0001
0000
0000
2000
0000
0000
0000
0000
,
3000
0000
0000
0000
,
0001
0100
0010
1000
,
1000
0001
0100
0010
,
1000
0001
0001
0001
,
0000
1000
1000
0010
,
0100
0000
0001
0000
0002
0000
0000
0003
,
0000
1000
0010
0100
,
0020
0000
0000
0000
0000
0000
0000
0030
,
0000
1000
0001
1000
,
0010
0000
0000
0100
0000
0100
0000
0002
,
0000
0003
1000
0010
,
1000
0001
0001
1001
,
0000
1000
1000
0010
,
0100
0100
0010
1000
,
0001
1000
0010
0100
,
0002
0000
0000
0003
,
2000
0000
0000
3000
,
0010
0010
0010
0000
,
1000
0001
1000
0000
,
0010
0000
0100
0000
,
0001
0001
0001
0000
,
1000
1000
1000
0000
,
0100
0100
0100
0000
,
0010
0010
0010
0000
,
0001
0001
0001
0000
,
1001
0000
0000
0000
,
0110
0000
0000
0000
;

//---------------dance-single - Copied from ----------------
#NOTES:
     dance-single:
     Copied from:
     Beginner:
     1:
     0.071,0.081,0.000,0.011,0.000: // measure 1
0000
0000
0000
0000
,  // measure 2
0000
0000
0000
0000
,  // measure 3
0000
0000
0000
0000
,  // measure 4
0000
0000
0000
0000
,  // measure 5
0001
0000
0000
0000
,  // measure 6
1000
0000
0000
0000
,  // measure 7
0001
0000
0000
0000
,  // measure 8
1000
0000
0000
0000
,  // measure 9
0001
0000
0000
0000
,  // measure 10
0100
0000
0000
0000
,  // measure 11
0100
0000
0000
0000
,  // measure 12
0100
0000
0000
0000
,  // measure 13
0100
0000
0000
0000
,  // measure 14
0010
0000
0000
0000
,  // measure 15
0010
0000
0000
0000
,  // measure 16
0010
0000
0000
0000
,  // measure 17
0010
0000
0000
0000
,  // measure 18
1000
0000
0000
0000
,  // measure 19
1000
0000
0000
0000
,  // measure 20
1000
0000
0000
0000
,  // measure 21
0001
0000
0000
0000
,  // measure 22
0100
0000
0000
0000
,  // measure 23
0100
0000
0000
0000
,  // measure 24
0100
0000
0000
0000
,  // measure 25
0010
0000
0000
0000
,  // measure 26
1000
0000
0000
0000
,  // measure 27
0001
0000
0000
0000
,  // measure 28
0001
0000
0000
1000
,  // measure 29
0000
0000
0000
0000
,  // measure 30
0001
0000
0000
0000
,  // measure 31
0100
0000
0000
0000
,  // measure 32
0001
0000
0000
0000
,  // measure 33
0100
0000
0000
0000
,  // measure 34
0010
0000
0000
0000
0000
0000
0000
1000
,  // measure 35
0000
0000
0000
0000
,  // measure 36
0010
0000
0000
1000
,  // measure 37
0000
0000
0000
0000
,  // measure 38
0010
0000
0000
0000
,  // measure 39
0010
0000
0000
0000
,  // measure 40
0020
0000
0000
0000
0000
0000
0000
0030
,  // measure 41
0000
0000
0000
0000
,  // measure 42
1000
0000
0000
0000
,  // measure 43
0100
0000
0000
0000
,  // measure 44
1000
0000
0000
0000
,  // measure 45
0000
0000
0000
0000
,  // measure 46
0001
0000
0000
0000
,  // measure 47
0010
0000
0000
0000
,  // measure 48
0001
0000
0000
0000
,  // measure 49
0010
0000
0000
0000
,  // measure 50
0001
0000
0000
0000
;
