#TITLE:Keep On Moving;
#SUBTITLE:;
#ARTIST:Michelle Delamor;
#TITLETRANSLIT:;
#SUBTITLETRANSLIT:;
#ARTISTTRANSLIT:;
#CREDIT:SupremeX;
#BANNER:Keep On Moving-BN.png;
#BACKGROUND:Keep On Moving-bg.png;
#LYRICSPATH:;
#CDTITLE:;
#MUSIC:Keep On Moving.ogg;
#OFFSET:-0.360;
#SAMPLESTART:45.860;
#SAMPLELENGTH:12.000;
#SELECTABLE:YES;
#BPMS:0.000=102.020;
#STOPS:;
#BGCHANGES:0.000=Keep On Moving.avi=1.000=1=1=0,
99999=-nosongbg-=1.000=0=0=0 // don't automatically add -songbackground-
;

//---------------dance-single - ----------------
#NOTES:
     dance-single:
     :
     Hard:
     8:
     0.449,0.406,0.122,0.178,0.239: // measure 1
0000
0000
0000
0000
,  // measure 2
0000
0000
0000
0000
,  // measure 3
0000
1000
1000
1000
0100
0000
0010
0100
,  // measure 4
0001
0001
0001
0000
1100
0000
1001
0000
,  // measure 5
0100
0000
0010
0100
0000
0001
1000
0000
0100
0000
0010
0000
0000
0000
0001
0000
,  // measure 6
0020
0230
2300
3002
,  // measure 7
0003
0000
0100
0000
0010
0000
0100
0000
0001
0000
0001
0000
0000
0000
0010
0100
,  // measure 8
0000
0000
0000
0100
0000
0000
0001
0000
1000
0000
0100
0000
0010
0000
0001
0000
,  // measure 9
0110
0000
0000
1000
0100
0000
1000
0000
0100
0000
1000
0000
0000
0000
0010
0000
,  // measure 10
0200
0302
2003
3020
,  // measure 11
0030
0100
0001
1000
0100
0010
0001
0100
,  // measure 12
0100
0000
0000
0010
0100
0000
0001
0000
0001
0000
0010
0000
0100
0000
1000
0000
,  // measure 13
2000
0000
0000
3001
0000
0000
0110
0000
0000
0000
0001
0100
0000
0100
0000
0020
,  // measure 14
0000
1030
0000
1001
0000
0010
0100
0010
,  // measure 15
0200
0000
0000
0310
0100
0000
0001
0000
1000
0000
0100
0000
0010
0000
0001
0000
,  // measure 16
1000
0000
0000
1000
0001
0000
0010
0000
0100
0000
0100
0000
1000
0000
0010
0000
,  // measure 17
2000
0000
0000
3100
0000
0000
1001
0000
0000
0000
0001
0100
0000
0100
0000
0020
,  // measure 18
0000
0130
0000
0101
0000
1000
0100
0010
,  // measure 19
0002
0000
0000
0003
1000
0000
0100
0000
1000
0000
0001
0000
1000
0000
0100
0000
,  // measure 20
1100
0000
0000
0000
0000
0000
0001
0000
0010
0000
0001
0000
0010
0001
0010
0000
,  // measure 21
0000
0000
0100
1000
0000
0100
1000
0000
0000
0000
0100
0000
0010
0000
0001
0000
,  // measure 22
0010
0000
0100
0010
0000
0100
0010
0000
1000
0000
0001
0000
0100
0001
0100
0000
,  // measure 23
0010
0000
1000
0010
0000
1000
0001
0000
0100
0000
0010
0000
0100
0000
0000
0000
,  // measure 24
0001
0000
1000
0100
0000
1000
0100
0000
0010
0000
0001
0000
0010
0001
0010
0000
,  // measure 25
0100
0000
1000
0100
0000
1000
0100
0000
0010
0000
0001
0000
0010
0000
0100
0000
,  // measure 26
1000
0000
0010
0100
0000
0001
1000
0000
0100
0000
0010
0000
0001
0010
0001
0000
,  // measure 27
1000
0000
0100
1000
0000
0100
1000
0000
0001
0000
0100
0000
0001
0000
1000
0000
,  // measure 28
1000
0000
0010
0100
0000
0010
0100
0000
0001
0000
1000
0000
0010
1000
0010
0000
,  // measure 29
1000
0000
0001
0000
1000
0000
0010
0000
0100
0000
0001
1000
0001
0000
1000
0000
,  // measure 30
0010
0000
0100
0000
0001
0000
0000
0000
1000
0000
1000
0000
0001
0100
0001
0000
,  // measure 31
0000
1000
0001
0010
0100
0100
0100
1000
,  // measure 32
0100
0000
0010
0000
0001
0000
1000
0000
0100
0000
0010
0000
0001
0010
0001
0000
,  // measure 33
1000
0000
0010
0000
0010
0000
0010
0000
0100
0000
0001
0100
0001
0000
1000
0000
,  // measure 34
0100
0000
1000
0000
0001
0000
0000
0000
0001
0000
0100
0000
0010
0100
0010
0000
,  // measure 35
1000
0000
0001
0000
0010
0000
0100
0000
1000
0000
0100
1000
0100
0000
0010
0000
,  // measure 36
0001
0010
0100
1000
0110
0000
0110
0000
,  // measure 37
2002
0000
3003
0000
;

//---------------dance-single - ----------------
#NOTES:
     dance-single:
     :
     Medium:
     6:
     0.332,0.321,0.178,0.022,0.000:
0000
0000
0000
0000
,
0000
0000
0000
0000
,
0000
1000
1000
1000
1000
0000
0000
0010
,
0010
0010
0010
0000
0110
0000
0110
0000
,
0001
0000
0001
0000
1000
0010
1000
0000
,
0100
0010
0001
1000
,
0000
0001
0100
0001
0100
0000
0010
0000
,
1000
1000
0001
0001
,
0000
0100
0100
0010
0010
0000
0000
1000
,
0001
0001
1000
0001
,
0000
0100
0010
1000
0010
1000
0100
0000
,
0022
0000
0000
0033
0000
1000
0010
1000
,
0010
0000
0000
0101
0000
1000
0010
0100
,
0001
0100
0000
1001
0000
0010
0100
0010
,
0000
0000
1000
0100
0010
0000
0001
0010
,
0100
0000
1000
0010
1000
0010
0100
0001
,
0100
0000
0000
0110
0000
1000
0100
0010
,
0000
0000
0000
0011
0000
1000
0100
0010
,
0000
0000
0001
0010
0100
1000
0010
0100
,
0100
0000
1001
1001
,
0010
0100
0010
0100
0010
0010
0010
0010
,
1000
0001
1000
0001
0001
0001
0100
0010
,
0000
1000
0001
0010
0100
1000
1000
0000
,
0010
0100
0001
1000
0001
0001
0001
0001
,
0000
1000
0100
0010
0100
0010
0100
0010
,
0001
0010
0100
1000
0010
1000
0010
1000
,
0000
0001
0010
0100
1000
1000
1000
0000
,
0010
0100
0010
0100
0001
1000
0001
0001
,
0000
1000
1000
1000
0010
0000
0000
0100
,
0100
0100
0001
0000
1000
0010
0100
0100
,
0000
0001
0001
0001
0001
0000
0000
0100
,
0100
0100
0100
0000
1010
0000
0101
0000
,
0000
1000
0100
0010
0001
0000
1000
0000
,
0010
0100
0010
0000
1001
0000
1010
0000
,
0000
0001
0010
0100
1000
1000
0010
0000
,
0100
0001
0001
0000
1010
0000
0101
0000
,
1001
0000
0000
0000
;

//---------------dance-single - ----------------
#NOTES:
     dance-single:
     :
     Easy:
     3:
     0.204,0.241,0.122,0.045,0.000:
0000
0000
0000
0000
,
0000
0000
0000
0000
,
1000
0100
0010
0000
,
0001
0001
1000
1000
,
0010
0100
0001
0000
,
1000
0010
1000
0010
,
0000
0100
0100
0000
,
1001
0000
0000
0000
,
0010
1000
0001
0100
,
0010
0010
1000
1000
,
0001
0010
0100
1000
,
1010
0000
0000
0000
,
0002
0000
0003
0100
0000
0000
0000
0020
,
0000
0000
0030
1000
0000
0000
0000
0000
,
0001
1000
0010
0100
,
0001
1000
0010
0100
,
0002
0000
0003
1000
0000
0000
0000
0020
,
0000
0030
0000
0100
0000
0000
0000
0000
,
0001
1000
0010
0100
,
1001
0000
0110
0000
,
1000
0100
0010
0010
,
0001
0010
0100
0100
,
1000
0010
0100
0100
,
0001
1000
0010
0010
,
1000
0001
1000
1000
,
0001
0100
0001
0001
,
1000
0010
0100
0100
,
0001
1000
0010
0010
,
0100
0001
0001
0000
,
1000
1000
0010
0110
,
0000
0001
0001
0000
,
1000
0010
0100
1001
,
0000
0010
0010
0100
,
0001
1000
1010
1010
,
0001
0100
0010
1000
,
0001
1000
0101
0101
,
1001
0000
0000
0000
;

//---------------dance-single - Copied from----------------
#NOTES:
     dance-single:
     Copied from:
     Beginner:
     1:
     0.094,0.120,0.011,0.000,0.000:
0000
0000
0000
0000
,
0000
0000
0000
0000
,
0010
0000
0000
0000
,
0010
0000
0000
0000
,
0100
0000
0000
0000
,
0100
0000
0000
0000
,
0001
0000
0000
0000
,
0001
0000
0000
0000
,
1000
0000
0000
0000
,
1000
0000
0000
0000
,
0010
0000
0000
0000
,
0010
0000
0000
0000
,
0100
0000
0000
0100
0000
0000
0000
0100
,
0000
0000
0000
0100
0000
0000
0000
0000
,
0001
0000
0001
0000
,
0001
0000
0001
0000
,
1000
0000
0000
1000
0000
0000
0000
0000
,
1000
0000
0000
1000
0000
0000
0000
0000
,
0010
0000
0010
0000
,
0010
0000
0000
0000
,
0100
0000
0001
0000
,
0100
0000
0001
0000
,
1000
0000
0010
0000
,
1000
0000
0010
0000
,
0100
0000
0001
0000
,
0100
0000
0001
0000
,
1000
0000
0010
0000
,
1000
0000
0010
0000
,
0001
0000
0010
0000
,
0001
0000
0010
0000
,
1000
0000
0100
0000
,
1000
0000
0100
0000
,
0001
0000
1000
0000
,
0001
0000
1000
0000
,
0010
0000
0100
0000
,
0010
0000
0100
0000
,
1001
0000
0000
0000
;
