#TITLE:If The Rain Falls (Red Monster Hyper Mix);
#SUBTITLE:;
#ARTIST:Right On Time;
#TITLETRANSLIT:;
#SUBTITLETRANSLIT:;
#ARTISTTRANSLIT:;
#GENRE:;
#CREDIT:SupremeX;
#BANNER:If the Rain Falls-bn.png;
#BACKGROUND:If the Rain Falls-bg.png;
#LYRICSPATH:;
#CDTITLE:;
#MUSIC:If The Rain Falls (Red Monster Hyper Mix).ogg;
#OFFSET:-0.080258;
#SAMPLESTART:60.020000;
#SAMPLELENGTH:12.000000;
#SELECTABLE:YES;
#BPMS:0.000000=160.410004
;
#STOPS:
;
#BGCHANGES:;
#KEYSOUNDS:;
#ATTACKS:;

//---------------dance-single - ----------------
#NOTES:
     dance-single:
     :
     Hard:
     7:
     0.509736,0.544907,0.141853,0.109118,0.000000,327.000000,314.000000,13.000000,10.000000,0.000000,0.000000,0.509736,0.544907,0.141853,0.109118,0.000000,327.000000,314.000000,13.000000,10.000000,0.000000,0.000000:
0000
0000
0000
0000
,
0000
0000
0000
0000
,
0000
0000
0000
0000
,
0000
0000
0000
0000
,
1000
0100
2000
0000
0000
3000
0001
0000
,
0000
0000
1000
0001
1000
0000
0010
0000
,
0100
0000
0001
0000
0001
1000
0000
0100
,
0000
1100
0000
0010
0000
1001
0000
0110
,
0000
0000
0001
1000
0001
0000
1000
0010
,
0100
0000
0100
0001
1000
0000
1000
0001
,
0100
0000
0010
0100
0010
0100
1000
0100
,
0010
0001
1000
0100
0010
0100
1000
0100
,
0010
0000
1000
0001
1000
0001
0100
0010
,
0100
0010
1000
0100
1000
0100
0010
0001
,
0010
0100
0010
0100
1000
0100
0010
0100
,
1000
0001
0010
0100
1000
0001
0100
0001
,
1000
0000
0010
0100
0010
1000
0001
1000
,
0001
0010
0100
0010
0100
0010
1000
0001
,
1000
0001
0100
0010
0100
0010
1000
0001
,
0100
0001
1000
0010
1000
0100
0010
0001
,
1000
0000
0100
1000
0100
0000
0010
0001
,
0010
0000
0100
1000
0001
0000
1000
0001
,
1000
0000
0010
0100
0010
0000
0100
0001
,
0100
0000
0010
1000
0010
0100
1000
0100
,
0010
0000
0001
0000
1000
0010
0000
0010
,
0000
1000
0100
0010
0001
0010
0100
0010
,
0001
1000
0100
0000
1000
0000
1100
0000
,
0010
0011
1000
1001
,
0010
0000
1000
0100
0010
0100
1000
0100
,
0010
0100
0010
0001
0010
0100
0000
1000
,
0001
1000
0000
0010
0000
0100
0000
1010
,
0000
0010
0000
0101
0000
0010
0000
1001
,
0000
0100
0000
0100
0010
0010
0000
0000
,
1000
0000
1000
0100
0010
0100
0000
0000
,
0000
0000
1000
0001
0000
2000
0000
3000
,
0000
0100
0100
0000
0010
0002
0000
0003
,
0000
0000
0100
0000
0100
0020
0000
0130
,
0010
0010
0000
1000
0100
1000
0000
0100
,
1000
1000
0010
0010
,
0001
0000
0100
0100
0100
0000
0000
0000
,
0010
1000
0200
0000
0000
0000
2300
0000
,
0000
3000
0001
0001
0001
0000
0010
0000
,
0100
1000
0100
0000
0100
0010
0000
0010
,
0000
0000
2002
0000
0000
3003
0000
0000
,
0100
0010
2000
0000
0000
3000
0002
0000
,
0000
0003
0100
0001
0100
0000
0010
0000
,
0000
0000
1000
0000
0010
1000
0000
1000
,
0000
0110
0000
1001
0000
0100
0000
1010
,
0000
0001
0010
0100
1000
0100
0010
0100
,
1000
0001
1000
0010
0100
0001
1000
0010
,
1000
0100
0010
0001
1000
0100
1000
0100
,
0010
0100
0010
0001
0010
0001
1000
0100
,
1000
0000
0001
0010
0100
1000
0100
0010
,
0001
1000
0100
0010
0100
1000
0001
0010
,
0100
0010
0001
1000
0100
0010
0100
1000
,
0001
0010
0100
1000
0100
0010
0001
0010
,
0100
1000
0010
0000
1000
0000
0010
0000
,
0100
0001
0100
0001
,
1000
0001
1000
0001
;

//---------------dance-single - ----------------
#NOTES:
     dance-single:
     :
     Medium:
     5:
     0.374119,0.420240,0.054559,0.065471,0.000000,240.000000,235.000000,5.000000,6.000000,0.000000,0.000000,0.374119,0.420240,0.054559,0.065471,0.000000,240.000000,235.000000,5.000000,6.000000,0.000000,0.000000:
0000
0000
0000
0000
,
0000
0000
0000
0000
,
0000
0000
0000
0000
,
0000
0000
0000
0000
,
0000
0020
0000
0000
,
0030
0000
0100
0001
0100
0000
0010
0000
,
1000
0000
0001
0000
1000
0010
0000
1000
,
0000
0001
0000
0100
0000
0010
0000
0110
,
0000
0002
0000
0000
1000
0000
1000
0000
,
1000
0000
1000
0000
1000
0000
1000
0003
,
1000
0010
0100
0010
,
1000
0000
0001
0100
0001
0000
1000
0010
,
1000
0000
0001
0010
0100
0000
1000
0100
,
0010
0000
0001
0010
0100
0000
1000
0100
,
0010
0000
0001
0100
0010
0000
1000
0010
,
0100
0001
1000
0001
,
1000
0000
0010
0100
0010
0000
1000
0001
,
1000
0000
0010
0100
0010
0000
1000
0001
,
1000
0000
0001
0010
0100
0000
1000
0100
,
0010
0000
0001
0010
0100
1000
0000
0010
,
0100
0001
0001
1000
,
1000
0010
0010
0100
,
0100
0001
0001
1000
,
1000
0010
0100
0010
,
0100
0001
1000
0010
,
1000
0001
0100
0010
,
1000
1000
1000
1000
,
0010
0010
0010
0010
,
0010
0100
0001
1000
,
0001
1001
0010
0100
,
0010
0000
0200
0000
0000
0300
0000
0000
,
0001
0001
1000
1000
,
0010
0100
0000
0001
1000
0001
0000
0000
,
0000
0000
1000
0000
0010
0010
0000
0000
,
0000
0000
1000
0000
0001
0100
0000
0000
,
0010
0000
1000
0000
0010
0010
0000
0000
,
0100
0000
0001
0000
1000
1000
0000
0010
,
0100
0010
0000
0100
0001
0100
0000
0000
,
1000
0010
0100
0001
,
1000
0010
1010
0000
,
0100
0002
0000
2003
,
0000
3000
0020
0000
0000
0000
0030
0000
,
1000
0010
1000
0000
0001
0100
0000
0010
,
0000
1010
1010
0000
,
0001
0010
0100
0000
0000
0000
1000
0000
,
0000
0000
0010
0100
0010
0000
1000
0000
,
0001
0000
0100
0000
0010
1000
0000
1000
,
0000
0001
0000
0100
0000
0010
0000
1000
,
0000
0001
1000
0010
,
0100
0010
1000
0010
,
0100
0001
1000
0010
,
1000
0000
0001
0100
0001
0000
1000
0010
,
1000
0000
0001
0010
0100
0000
1000
0100
,
0010
0000
0001
0100
0001
0000
1000
0010
,
1000
0001
0100
0010
,
1000
0001
0001
1000
,
1000
0010
0100
0010
,
0100
0010
1000
0010
,
0100
0001
1000
0010
,
0100
0001
0000
0000
;

//---------------dance-single - ----------------
#NOTES:
     dance-single:
     :
     Easy:
     3:
     0.257206,0.290936,0.000000,0.109118,0.000000,165.000000,165.000000,0.000000,10.000000,0.000000,0.000000,0.257206,0.290936,0.000000,0.109118,0.000000,165.000000,165.000000,0.000000,10.000000,0.000000,0.000000:
0000
0000
0000
0000
,
0000
0000
0000
0000
,
0000
0000
0000
0000
,
0000
0000
0000
0000
,
0000
0020
0000
0000
,
0000
0000
0030
0000
,
0000
2000
0000
0000
,
0000
0000
0000
0000
0000
0000
0000
3000
,
0000
0001
0001
0100
,
0100
0010
0010
1000
,
1000
0001
1000
0010
,
1000
0001
0100
0001
,
0000
1000
1000
1000
,
1000
0010
0010
0010
,
0010
0100
0100
0100
,
0100
0001
1000
0001
,
1000
0010
0010
0010
,
0010
0100
0100
0100
,
0100
0001
0001
0001
,
0001
1000
0001
1000
,
0001
0100
0100
0010
,
0010
1000
1000
0001
,
0001
1000
1000
0010
,
0010
0100
0100
0100
,
0100
0001
0000
1000
,
0000
0001
0000
1000
,
0000
0001
1000
0001
,
1000
0001
1000
0001
,
1000
0010
0000
0100
,
0000
0010
0000
0100
,
0000
0010
0100
0010
,
0100
0010
0100
0010
,
0000
0000
2000
0000
0000
0000
0000
3000
,
0000
0002
0000
0003
,
0000
0000
0200
0000
0000
0000
0000
0300
,
0000
0020
0000
0030
,
0000
2000
0000
3000
,
0000
0002
0000
0003
,
0000
0200
0000
0300
,
0000
0020
0000
0030
,
0000
1000
0000
0001
,
0000
1000
0001
1000
,
0010
0100
0000
0100
,
0000
0100
0000
0100
,
0000
0001
1000
0001
,
1000
0010
0010
0000
,
0000
0100
0001
1000
,
0010
0100
0010
1000
,
0001
1000
1000
0010
,
0010
0100
0100
0001
,
0001
1000
0010
1000
,
0010
0100
0100
0001
,
0001
1000
0010
0100
,
0010
1000
0001
1000
,
0001
0100
0010
0100
,
0010
1000
1000
1000
,
1000
0001
0001
0001
,
0001
0100
0100
0100
,
0100
0010
0010
0010
,
0010
0010
0000
0000
;

//---------------dance-single - Copied from----------------
#NOTES:
     dance-single:
     Copied from:
     Beginner:
     2:
     0.121589,0.158903,0.000000,0.076383,0.000000,78.000000,78.000000,0.000000,7.000000,0.000000,0.000000,0.121589,0.158903,0.000000,0.076383,0.000000,78.000000,78.000000,0.000000,7.000000,0.000000,0.000000:
0000
0000
0000
0000
,
0000
0000
0000
0000
,
0000
0000
0000
0000
,
0000
0000
0000
0000
,
0000
0020
0000
0000
,
0000
0000
0030
0000
,
0000
0200
0000
0000
,
0000
0000
0000
0300
0000
0000
0000
0000
,
0000
0001
0000
0001
,
0000
0001
0000
0001
,
0000
1000
0000
1000
,
0000
1000
0000
1000
,
0000
0010
0000
0010
,
0000
0010
0000
0010
,
0000
0010
0000
0010
,
0000
0010
0000
0010
,
0000
0100
0000
0100
,
0000
0100
0000
0100
,
0000
0100
0000
0100
,
0000
0100
0000
0000
,
0000
0001
0000
0000
,
0000
1000
0000
0000
,
0000
0001
0000
1000
,
0000
0001
0000
0001
,
0000
1000
0000
1000
,
0000
1000
0000
1000
,
0000
1000
0000
0000
,
0000
0000
0000
0000
,
0000
0010
0000
0010
,
0000
0010
0000
0010
,
0000
0010
0000
0000
,
0000
0000
0000
0000
,
0100
0000
0100
0000
,
0000
0100
0000
0100
,
0000
0001
0000
0001
,
0000
0001
0000
0001
,
0000
0100
0000
0100
,
0000
0100
0000
0100
,
0000
0010
0000
0010
,
0000
0010
0000
0010
,
0000
2000
0000
0000
,
0000
0000
3000
0000
,
0000
0002
0000
0000
,
0000
0000
0000
0000
0000
0003
0000
0000
,
0000
0200
0000
0000
,
0000
0000
0300
0000
,
0000
0020
0000
0000
,
0000
0000
0000
0030
,
0000
1000
0000
1000
,
0000
0001
0000
0001
,
0000
1000
0000
1000
,
0000
0001
0000
0001
,
0000
1000
0000
1000
,
0000
0001
0000
0001
,
0000
1000
0000
1000
,
0000
0001
0000
0001
,
0000
0200
0000
0000
,
0000
0000
0000
0000
,
0000
0300
0000
0000
;
