#TITLE:Idealistic;
#SUBTITLE:;
#ARTIST:Digitalism;
#TITLETRANSLIT:;
#SUBTITLETRANSLIT:;
#ARTISTTRANSLIT:;
#CREDIT:SupremeX;
#BANNER:Idealistic-bn.png;
#BACKGROUND:Idealistic-bg.png;
#LYRICSPATH:;
#CDTITLE:;
#MUSIC:Idealistic.ogg;
#OFFSET:-0.256;
#SAMPLESTART:16.300;
#SAMPLELENGTH:12.000;
#SELECTABLE:YES;
#BPMS:0.000=129.000;
#STOPS:153.000=1.510
;
#BGCHANGES:;

//---------------dance-single - ----------------
#NOTES:
     dance-single:
     :
     Hard:
     7:
     0.502,0.509,0.181,0.072,0.384: // measure 1
0000
0000
0000
0000
,  // measure 2
0000
0000
0000
0000
,  // measure 3
0000
0000
0000
0000
,  // measure 4
0000
0000
0000
0000
,  // measure 5
0000
0000
0000
0000
0000
1000
0000
0001
,  // measure 6
0000
1000
0100
1000
0000
0001
0000
0100
,  // measure 7
0000
0001
1000
0010
0000
0100
0000
0001
,  // measure 8
0000
0100
0010
0100
0000
0001
0010
0100
,  // measure 9
0000
0000
1000
0000
0100
0000
0010
0000
0000
0000
0001
0000
0000
0000
1000
0100
,  // measure 10
0000
1000
0000
0000
0000
0000
0100
1000
0100
0000
0000
0000
0000
0000
0010
0001
,  // measure 11
0000
0010
0000
0000
0000
0000
0010
0001
0010
0000
0000
0000
0000
0000
0001
1000
,  // measure 12
0000
0001
0000
0000
0000
0000
0100
0010
0100
0000
0000
0000
0000
0000
0001
0100
,  // measure 13
0000
0001
0000
0000
0000
0000
0100
0010
0100
0010
0100
0000
0000
0000
0001
1000
,  // measure 14
0000
0001
0000
0000
0000
0000
1000
0100
1000
0000
0000
0000
0000
0000
0100
1000
,  // measure 15
0000
0100
0000
0000
0000
0000
0010
0001
0010
0000
0000
0000
0000
0000
0001
0010
,  // measure 16
0000
0001
0000
0000
0000
0000
0100
0010
0100
0000
0000
0000
0000
0000
0001
1000
,  // measure 17
0000
0100
0000
0000
0000
0000
0010
1000
0010
1000
0010
0000
0100
0000
0001
0000
,  // measure 18
0100
0000
0001
0000
0010
0000
0100
1000
0100
0000
1000
0000
0100
0000
1000
0000
,  // measure 19
0100
0000
0010
0000
0001
0000
0010
0001
0010
0000
0001
0000
1000
0000
0100
0000
,  // measure 20
0010
0000
0100
0000
1000
0000
0100
0010
0100
0000
0010
0000
0001
0000
0010
0000
,  // measure 21
0100
0000
0010
0000
0001
0000
1000
0100
1000
0100
1000
0000
0001
0000
0100
0000
,  // measure 22
0001
0000
0100
0000
0001
0000
0010
0100
0010
0000
0100
0000
1000
0000
0010
0000
,  // measure 23
0100
0000
0010
0000
1000
0000
0010
0100
0010
0000
0100
0000
0001
0000
1000
0000
,  // measure 24
0001
0000
1000
0000
0010
0000
0100
0010
0100
0000
0010
0000
1000
0000
0001
0000
,  // measure 25
0100
0000
0001
0000
1000
0000
0010
0100
0010
0100
0001
0000
0100
0000
0010
0000
,  // measure 26
1000
0000
0001
0000
1000
0000
0100
0010
0100
0000
0010
0000
0001
0000
0010
0000
,  // measure 27
0100
0000
1000
0000
0100
0000
1000
0100
1000
0000
0100
0000
0010
0000
0001
0000
,  // measure 28
1000
0000
0100
0000
1000
0000
0100
1000
0100
0000
0010
0000
0001
0000
0010
0000
,  // measure 29
0001
0000
0010
0000
0100
0000
1000
0100
1000
0100
1000
0000
0001
0000
0100
0000
,  // measure 30
0010
0000
1000
0000
0002
0000
0000
1003
0000
0000
0000
0000
0001
0000
0010
0000
,  // measure 31
0100
0000
1000
0000
0200
0000
0000
1300
0000
0000
0000
0000
0010
0000
0100
0000
,  // measure 32
0001
0000
0100
0000
0020
0000
0000
0130
0000
0000
0000
0000
0001
0000
0010
0000
,  // measure 33
0001
0010
0100
0010
0100
1000
0000
1100
,  // measure 34
0000
0010
0001
0010
0001
2000
0000
3100
,  // measure 35
0000
0100
1000
0100
1000
0200
0000
1300
,  // measure 36
0000
0000
0010
0000
0100
0000
0010
0000
0000
0000
1000
0000
0000
0010
0100
0000
,  // measure 37
0010
0000
0100
0000
0100
0000
0002
0000
0000
0000
0103
0000
0000
0010
0000
1000
,  // measure 38
0001
0000
0100
0000
0010
0000
0100
0000
0010
0000
1000
0000
0000
0100
0000
1000
,  // measure 39
0100
0000
0010
0000
0100
0000
0010
0001
0010
0001
0010
0000
0100
0000
1000
0000
,  // measure 40
0100
0010
0000
0000
0100
0000
0010
0100
0000
0000
0001
0000
0000
0000
1000
0000
,  // measure 41
0100
1000
0000
0000
0100
0000
0010
0100
0000
0000
0001
0000
0010
0000
0100
0000
,  // measure 42
0010
0100
0000
0000
1000
0000
0100
1000
0000
0000
0100
0000
0010
0000
0001
0000
,  // measure 43
0010
0011
0000
1100
0000
0010
0010
0001
,  // measure 44
0010
0001
0000
0000
0100
0000
0100
0010
0000
0000
0100
0000
0000
0000
0001
0000
,  // measure 45
0001
1000
0000
0000
0100
0000
1000
0100
0000
0000
0010
0000
0001
0000
1000
0000
,  // measure 46
0100
1000
0000
0000
0100
0000
0010
0000
0100
0000
0010
0000
0010
0000
0001
0000
,  // measure 47
0010
0000
0100
0000
1000
0000
1100
0000
0000
0000
0010
0000
0000
0001
0000
0001
,  // measure 48
0000
0000
0000
0000
0110
0000
0000
0110
0000
0000
0000
0000
0000
1000
0000
1000
,  // measure 49
0000
0000
0000
0000
0101
0000
0000
0101
0000
0000
0010
0000
0000
1000
0000
1000
,  // measure 50
0000
0000
0000
0000
0110
0000
0000
0110
0000
0000
0001
0000
0000
1000
0000
1000
,  // measure 51
0000
0000
0101
0000
0000
0000
0101
0000
0000
0000
1000
0000
0000
0001
0000
0001
,  // measure 52
0000
0000
0000
0000
1010
0000
0000
1010
0000
0000
0000
0000
0000
0100
0000
0100
,  // measure 53
0000
0000
0000
0000
1001
0000
0000
1001
0000
0100
0000
0000
0000
0010
0000
0010
,  // measure 54
0000
0000
0000
0000
0101
0000
0000
1010
0000
0000
0001
0000
0000
1000
0000
1000
,  // measure 55
0000
0011
0000
1100
0000
0001
0010
0100
,  // measure 56
1000
0100
2000
3000
0000
0100
1000
0001
,  // measure 57
1000
0010
0200
0300
0000
0000
0000
0000
;

//---------------dance-single - ----------------
#NOTES:
     dance-single:
     :
     Medium:
     5:
     0.307,0.331,0.226,0.000,0.000:
0000
0000
0000
0000
,
0000
0000
0000
0000
,
0000
0000
0000
0000
,
0000
0000
0000
0000
,
0000
0000
0000
0000
0000
0000
0000
1000
,
0000
0000
0000
0010
0000
0000
0000
1000
,
0000
0000
0000
0001
0000
0000
0000
0100
,
0000
0000
0000
0001
0000
1000
0000
0010
,
0000
0100
0000
0001
0000
1000
0000
0110
,
0000
0000
0000
0001
0000
1000
0000
0110
,
0000
0000
0000
0001
0000
1000
0000
1100
,
0000
0000
0000
0001
0000
0100
0000
0010
,
0000
1000
0010
0100
0000
0001
0000
0101
,
0000
0010
0000
1010
0000
0100
0000
0101
,
0000
0010
0000
1000
0010
1000
0000
0001
,
0000
0101
0000
0010
0000
1010
0000
1000
,
0000
0010
0000
0100
0001
0100
0000
0010
,
0000
0010
0000
1000
0000
1000
0000
0001
,
0000
0001
0000
0100
0000
0100
0000
0010
,
0000
0010
0000
1000
0000
1000
0000
0001
,
0000
0100
0010
1000
0000
0010
0000
0010
,
0000
0100
0000
0100
0000
0001
0000
0001
,
0000
1000
0000
1000
0000
0010
0000
0010
,
0000
0100
0000
0100
0000
0001
0000
0001
,
0000
1000
0010
1000
0010
0100
0000
0001
,
0000
1000
0010
0100
0000
0001
0000
1000
,
0000
0010
0100
0010
0000
1000
0000
0001
,
0000
0100
0000
0010
1000
0010
0000
0100
,
0000
0001
0000
1000
1000
1000
0000
0010
,
0000
0100
0000
0100
0000
0001
0000
1000
,
0000
0010
0000
0010
0000
1000
0000
0001
,
0000
0100
0000
0100
0000
0010
0000
1000
,
0000
0001
0000
1001
0000
0000
0000
1000
,
0000
0010
0000
0100
0000
0001
0000
0000
,
0000
1000
0000
0010
0000
0100
0000
0000
,
0000
0001
0000
1001
0000
0000
0000
0000
,
0000
1000
0000
1001
0000
0010
0000
0100
,
0000
0010
0000
1000
0001
0100
0000
0000
,
0000
0010
0000
0000
0000
1000
0000
0001
,
0000
1000
0000
0010
0000
0100
0000
0001
,
1000
0001
0000
0100
0000
0010
0000
1000
,
0000
0001
0000
0100
0000
0010
0000
1000
,
0000
1001
0000
0110
0000
0001
0000
0100
,
0010
0100
0000
0001
0000
1000
0000
0010
,
0000
0100
0000
0001
0000
1000
0000
0010
,
1000
0010
0000
0100
0000
0001
0000
1000
,
0000
0110
0000
1001
0000
0010
0000
0100
,
0000
0001
1000
0001
0000
0100
0000
0010
,
0000
1000
0001
0100
0000
0010
0000
1000
,
0000
0001
1000
0010
0000
0100
0000
0010
,
0000
1010
0000
0101
0000
1000
0000
0001
,
0100
0010
0000
1000
0000
0010
0000
0100
,
0001
1000
0000
0110
0000
0001
1000
0010
,
0000
0100
0000
0101
0000
0010
1000
0010
,
0000
0101
0000
1010
0000
0001
0000
0110
,
0000
1000
0000
0110
0000
0001
0000
1001
,
0000
1000
0000
1010
0000
0000
0000
0000
;

//---------------dance-single - ----------------
#NOTES:
     dance-single:
     :
     Easy:
     3:
     0.176,0.229,0.045,0.027,0.000:
0000
0000
0000
0000
,
0000
0000
0000
0000
,
0000
0000
0000
0000
,
0000
0000
0000
0000
,
0000
0000
0000
0000
0000
0000
0000
1000
,
0000
0000
0000
0010
0000
0000
0000
1000
,
0000
0000
0000
0001
0000
0000
0000
0100
,
0000
0000
0000
0001
0000
0000
0000
1000
,
0000
0000
0000
0010
0000
0000
0000
1000
,
0000
1000
0000
0000
0000
0000
0000
0001
,
0000
0001
0000
0000
0000
0000
0000
0100
,
0000
0100
0000
0000
0000
0010
0000
0000
,
0000
0010
0000
0000
0000
0000
0000
1000
,
0000
1000
0000
0000
0000
0000
0000
0001
,
0000
0001
0000
0000
0000
0000
0000
1000
,
0000
1000
0000
0000
0000
0010
0000
0000
,
0000
0100
0000
0000
0000
0001
0000
1000
,
0000
0000
0000
0000
0000
0000
0000
0001
,
0000
1000
0000
0000
0000
0000
0000
0001
,
0000
1000
0000
0000
0000
0000
0000
0010
,
0000
0100
0000
0010
0000
0000
0000
1000
,
0000
0100
0000
0000
0000
0000
0000
0010
,
0000
0001
0000
0000
0000
0000
0000
1000
,
0000
0100
0000
0000
0000
0000
0000
0010
,
0000
0001
0000
0000
0000
1000
0000
0010
,
0000
1000
0000
1000
0000
0000
0000
0001
,
0000
0100
0000
0001
0000
0001
0000
1000
,
0000
0010
0000
1000
0000
0000
0001
0000
,
0000
0100
0000
0000
0000
0001
0000
1000
,
0000
0010
0000
0010
0000
0000
0000
0100
,
0000
0001
0000
0001
0000
0000
0000
1000
,
0000
0010
0000
0100
0000
0000
0000
0001
,
0000
1000
0000
1000
0000
0010
0000
0000
,
0000
0200
0000
0000
0300
0000
0000
0000
,
0000
0002
0000
0000
0003
0000
0000
0000
,
0000
1000
0000
1000
0000
0000
0000
0000
,
0000
0010
0000
0010
0000
0000
0000
0000
,
0000
2000
0000
0000
0000
3000
0000
0000
,
0000
0001
0000
0000
0000
0000
0000
1000
,
0000
0010
0000
1000
0000
0000
0000
0001
,
0000
0100
0000
0001
0000
0000
0000
1000
,
0000
0010
0000
1000
0000
0000
0000
0000
,
0000
0000
0000
0000
0000
0100
0000
0010
,
0000
0100
0000
0000
0000
0000
0000
0010
,
0000
0100
0000
0010
0000
0000
0000
0100
,
0000
0010
0000
0100
0000
0000
0000
0000
,
0000
1001
0000
0000
0000
1000
0000
0010
,
0000
0100
0000
0100
0000
0001
0000
1000
,
0000
0010
0000
0010
0000
1000
0000
0001
,
0000
0100
0000
0100
0000
0010
0000
1000
,
0000
1001
0000
1001
0000
0010
0000
0100
,
0000
0000
0000
0010
0000
0000
0000
1000
,
0000
0000
0000
0001
0000
0000
0000
0100
,
0000
0000
0000
0010
0000
1000
0000
0001
,
0000
0110
0000
1100
0000
0001
0000
0010
,
0000
0100
0000
1000
0000
0000
0000
0001
,
0000
0000
0000
1000
0000
0000
0000
0000
;

//---------------dance-single - Copied from----------------
#NOTES:
     dance-single:
     Copied from:
     Beginner:
     1:
     0.074,0.076,0.000,0.000,0.000:
0000
0000
0000
0000
,
0000
0000
0000
0000
,
0000
0000
0000
0000
,
0000
0000
0000
0000
,
0000
0000
0000
0000
0000
0000
0000
0001
,
0000
0000
0000
0000
0000
0000
0000
0001
,
0000
0000
0000
0000
0000
0000
0000
0001
,
0000
0000
0000
0000
0000
0000
0000
0001
,
0000
0000
0000
0000
0000
0000
0000
1000
,
0000
0000
0000
0000
0000
0000
0000
1000
,
0000
0000
0000
0000
0000
0000
0000
1000
,
0000
0000
0000
0000
0000
0000
0000
1000
,
0000
0000
0000
0000
0000
0000
0000
0010
,
0000
0000
0000
0000
0000
0000
0000
0100
,
0000
0000
0000
0000
0000
0000
0000
0010
,
0000
0000
0000
0000
0000
0000
0000
0100
,
0000
0000
0000
0000
0000
0000
0000
0001
,
0000
0000
0000
0000
0000
0000
0000
0001
,
0000
0000
0000
0000
0000
0000
0000
0001
,
0000
0000
0000
0000
0000
0000
0000
0001
,
0000
0000
0000
0000
0000
0000
0000
1000
,
0000
0000
0000
0000
0000
0000
0000
1000
,
0000
0000
0000
0000
0000
0000
0000
1000
,
0000
0000
0000
0000
0000
0000
0000
1000
,
0000
0000
0000
0000
0000
0000
0000
0010
,
0000
0000
0000
0000
0000
0000
0000
0100
,
0000
0000
0000
0000
0000
0000
0000
0010
,
0000
0000
0000
0000
0000
0000
0000
0100
,
0000
0000
0000
0000
0000
0001
0000
0000
,
0000
0000
0000
0000
0000
0000
0000
0001
,
0000
0000
0000
0000
0000
0000
0000
0001
,
0000
0000
0000
0000
0000
0000
0000
0001
,
0000
0000
0000
0000
0000
1000
0000
0000
,
0000
0000
0000
0000
0000
1000
0000
0000
,
0000
0000
0000
0000
0000
0010
0000
0000
,
0000
0000
0000
0010
0000
0000
0000
0000
,
0000
0100
0000
0000
0000
0000
0000
0000
,
0000
0100
0000
0000
0000
0000
0000
0000
,
0000
0001
0000
0000
0000
0000
0000
1000
,
0000
0000
0000
0000
0000
0000
0000
0010
,
0000
0000
0000
0000
0000
0000
0000
1000
,
0000
0000
0000
0000
0000
0000
0000
0010
,
0000
0000
0000
0000
0000
0000
0000
0100
,
0000
0000
0000
0000
0000
0000
0000
0001
,
0000
0000
0000
0000
0000
0000
0000
0100
,
0000
0000
0000
0000
0000
0001
0000
0000
,
0000
0000
0000
0000
0000
1000
0000
0000
,
0000
0000
0000
0000
0000
0100
0000
0000
,
0000
0000
0000
0000
0000
1000
0000
0000
,
0000
0000
0000
0000
0000
0100
0000
0000
,
0000
0000
0000
0000
0000
0010
0000
0000
,
0000
0000
0000
0001
0000
0000
0000
0010
,
0000
0000
0000
0001
0000
0000
0000
0010
,
0000
0000
0000
0001
0000
0000
0000
0000
,
0000
0000
0000
0000
0000
0100
0000
0000
,
0000
1000
0000
0000
0000
0000
0000
0100
,
0000
0000
0000
1000
0000
0000
0000
0000
;
