#TITLE:Hesperides;
#SUBTITLE:;
#ARTIST:xi;
#TITLETRANSLIT:;
#SUBTITLETRANSLIT:;
#ARTISTTRANSLIT:;
#CREDIT:DigiMindAxel;
#BANNER:Hesperides.png;
#BACKGROUND:Hesperides-bg.png;
#LYRICSPATH:;
#CDTITLE:CROSSxBEATS.png;
#MUSIC:Hesperides.ogg;
#OFFSET:-5.756;
#SAMPLESTART:14.120;
#SAMPLELENGTH:12.000;
#SELECTABLE:YES;
#BPMS:0.000=200.000;
#STOPS:;
#BGCHANGES:0.000=Hesperides.avi=1.000=1=1=0,
99999=-nosongbg-=1.000=0=0=0 // don't automatically add -songbackground-
;

//---------------dance-single - ----------------
#NOTES:
     dance-single:
     :
     Easy:
     4:
     0.353,0.383,0.157,0.279,0.000:
1000
0000
0000
0001
0000
0000
1000
0000
,
0000
0001
0000
0000
1000
0000
0000
0000
,
0010
0000
0000
1000
0000
0000
0100
0000
,
0000
0010
0000
0000
0001
0000
1000
0000
,
0002
0000
0000
0000
,
2000
0000
0000
0000
,
3003
0000
0000
0000
,
1001
0000
1000
0000
,
0001
0100
0001
1000
,
0100
0000
0010
0000
,
0001
0100
0010
0100
,
0010
0000
1000
0000
,
0001
0000
0100
0001
,
0100
0010
0100
0010
,
1000
0000
0001
0000
,
1000
0100
1000
0100
,
0010
0000
0001
0100
,
0010
0000
0100
0001
,
0010
0000
0001
1000
,
0001
1001
1000
0100
,
1000
0001
0020
0000
,
0030
0001
1000
0100
,
1000
0001
0100
0010
,
2000
0000
0000
0000
,
0002
0000
0000
3003
,
1002
0000
0000
0000
,
0000
0000
0000
0000
,
0203
0000
0320
0000
,
0000
0000
1030
0000
,
2002
0000
0000
3003
,
2002
0000
0000
3003
,
1001
0000
0001
0000
,
1000
0001
1000
0001
,
1000
0000
0000
0001
0000
0010
0000
0001
,
0000
1000
0100
0010
,
0001
0000
0000
1000
0000
0000
0001
0000
,
0000
0100
0010
0100
,
0001
0000
0000
1000
0000
0000
0001
0000
,
0100
0010
1000
0100
,
0010
0000
0000
0010
0000
0000
0010
0000
,
0000
0010
0000
0000
0010
0000
0001
0000
,
2000
0000
0000
0000
,
3002
0000
0203
0000
,
0302
0000
2003
0000
,
3200
0000
2300
0000
,
3002
0000
2003
0000
,
3002
0000
0203
0000
,
0301
0010
0100
1000
,
0001
0100
0010
0100
,
0001
1000
0100
0010
,
0100
1000
0100
0010
,
0100
1000
0001
0100
,
0001
1000
0001
0100
,
0001
1000
0100
0000
,
1000
0001
0100
0001
,
1000
0100
0010
0001
,
1000
0000
0100
0000
0010
0000
0000
0020
,
0000
0000
0000
0000
,
0031
1001
0000
1000
,
1001
0000
0000
0000
,
0001
1001
0000
1000
,
1001
0000
0000
0000
,
0001
1001
0000
0000
,
1001
0000
0000
1000
0000
0000
0001
0000
,
0200
0000
0000
0000
,
0320
0000
0000
0000
,
0130
0001
1000
0001
,
1000
0000
0100
1000
,
0010
0000
0100
0001
,
0010
0000
0001
0010
,
0100
0000
0000
1000
0000
0000
0000
1001
,
0000
1000
0001
1000
,
0100
0010
0001
0010
,
0001
0100
0010
0100
,
0001
0000
0000
1000
0000
0100
0000
1000
,
0000
0001
0100
0010
,
0100
0001
0010
0100
,
1000
0001
0100
0010
,
0000
1001
1000
0001
,
0010
0100
0220
0000
,
0330
1001
0001
1000
,
0001
0100
0010
0100
,
0002
0000
0000
0000
,
2003
0000
3001
1001
,
1000
0000
0000
0100
0000
0000
0010
0000
,
0000
0001
0000
0000
1000
0000
1000
0000
,
0000
2002
0000
0000
,
0000
0000
0000
0000
,
3003
0000
0000
0000
;

//---------------dance-single - ----------------
#NOTES:
     dance-single:
     :
     Medium:
     7:
     0.510,0.613,0.209,0.383,0.009:
2001
0000
0000
0010
0000
0000
0001
0000
,
0000
0010
0000
0000
3001
0000
1000
0000
,
0002
0000
0000
0100
0000
0000
1000
0000
,
0000
0100
0000
0000
1003
0000
0100
0000
,
0020
0000
0000
0000
,
0200
0000
0000
0000
,
0330
0000
0000
0000
,
1001
0000
1000
0001
0000
0100
0000
0020
,
0000
0000
1030
0000
0010
0100
0000
1001
,
0000
0000
1000
0010
1000
0001
0000
1001
,
0000
0001
0010
0100
,
1000
0001
0100
0001
0000
0010
0100
1000
,
0000
0000
0001
1000
0000
0100
0000
0010
,
0000
0000
0002
0000
1000
0000
1003
0020
,
0000
0000
0130
0010
0100
0000
1001
0000
,
0001
0100
0001
1000
0000
0100
0000
0010
,
0000
0000
0000
0000
0001
0100
0000
0110
,
0000
0000
1000
0000
0001
1000
0000
1001
,
0000
1000
0010
0100
,
0001
0000
1000
0010
1000
0010
0100
0001
,
0000
0000
0000
0000
0010
0000
0000
0000
0100
0000
0000
0100
0000
0000
0100
0000
,
0000
0000
1001
0000
1000
0100
1000
0002
,
0000
0103
0010
1000
,
0200
0000
0000
0000
,
2300
0000
0000
0000
0001
3001
0000
0000
,
0101
0000
0000
0100
0000
0100
0000
0100
,
0000
0000
0001
0000
0010
0000
0100
0020
,
0000
0000
0000
0032
0000
0000
0000
0000
,
0000
0000
1003
0100
,
1000
0000
0001
1000
0000
0000
0000
0000
,
0100
0010
0001
1000
,
0002
0000
0000
1000
1003
0000
0001
1000
,
0001
0010
0100
1000
,
0001
0100
0001
1000
0000
1000
0000
1000
,
0000
0000
0100
0000
1000
0100
1000
0001
,
0000
0000
1000
0100
0000
0010
0001
0100
,
0000
0000
0001
1000
0001
0000
0010
0000
,
0100
0000
1000
0010
0000
0100
0001
0010
,
0100
1000
0100
0010
,
0001
1000
0000
0001
1000
0000
0100
0010
,
0000
0100
0010
0000
0001
0000
0001
0000
,
0200
0000
0000
0000
,
0320
0000
1030
0001
,
2000
0000
3200
0000
,
0320
0001
0031
0000
,
1002
0000
0203
0000
,
0320
0000
2030
0001
,
3001
0000
0110
0000
,
1001
0000
0000
0000
0001
0000
0000
0000
1000
0000
0000
1000
0000
0000
1000
0000
,
0010
0100
0001
0000
1000
0001
1000
0001
,
1000
0010
0100
0000
0001
1000
0001
1000
,
0001
0010
0100
0000
0010
0001
0100
0000
,
0010
1000
0200
0000
0320
0000
0031
0000
,
2001
0000
3200
0000
0320
0000
0030
0001
,
2000
3020
0230
0301
,
1001
0000
1000
0010
1000
0010
0100
0000
,
0010
0100
0010
0100
0002
0000
0000
2003
,
0000
0010
0010
3010
,
1000
1000
0001
0000
0000
0000
1000
1000
,
0001
0000
0000
0000
,
1000
1000
0001
0000
0000
0000
1000
1000
,
0001
0000
0000
2000
0000
0000
0000
0000
,
3001
0001
1000
0000
0010
0010
0100
0000
,
1002
0000
0000
0203
0000
0000
0310
0000
,
2002
0000
0000
0003
,
0200
0000
0000
3300
,
1001
0000
0001
1000
0000
1000
0000
1000
,
0000
0000
0100
0000
0010
0001
0000
1001
,
0000
0000
1000
0010
1000
0010
0100
0001
,
0000
0010
0100
1000
,
0001
0010
0001
1000
0000
0010
0100
0001
,
0000
0000
0100
0010
0000
1000
0000
0002
,
0000
0000
0010
0000
0010
0000
0013
0100
,
1000
0000
0001
0010
0100
0000
0010
0001
,
1000
0010
1000
0001
0000
0001
0000
0001
,
0000
0000
0010
0000
0100
1000
0000
1001
,
0000
0000
0001
0010
0001
0100
0000
0110
,
0000
0010
0100
0001
,
0000
0000
1000
0100
1000
0100
0010
0001
,
0000
0000
0100
0000
0110
0000
0000
1001
,
0000
0000
0001
0010
0001
0010
0100
1000
,
0000
0000
0010
0100
0010
0100
0001
0000
,
2002
0000
0000
3000
,
0203
0000
0000
0000
0010
0010
0310
0000
,
1000
0000
0010
1000
0000
0010
1000
0000
,
0100
0010
0000
0100
0010
0000
0010
0000
,
0000
2002
0000
0000
,
0000
0000
0000
0000
,
3003
0000
0000
0000
;

//---------------dance-single - ----------------
#NOTES:
     dance-single:
     :
     Hard:
     10:
     0.728,0.804,0.540,0.244,0.087: // measure 1
1001
0000
1000
0010
0000
0010
0100
0000
,  // measure 2
0100
0001
0000
0001
1000
0010
0100
0001
,  // measure 3
0010
0100
0010
0100
1000
0010
0100
0001
,  // measure 4
0010
0100
0010
0100
1000
0010
0100
0001
,  // measure 5
2000
0000
0000
0000
,  // measure 6
0002
0000
0000
3003
,  // measure 7
2002
0000
0000
3003
,  // measure 8
1000
0100
1000
0001
0000
0101
0000
0110
,  // measure 9
0000
0010
1000
0100
1000
0001
0000
1001
,  // measure 10
0000
1000
0010
0100
0010
1000
0001
0011
,  // measure 11
0000
0000
0010
0100
1000
0010
0100
0000
,  // measure 12
0001
1000
0100
1100
0000
1000
0010
0110
,  // measure 13
0000
0000
0010
0110
0000
0101
0000
2001
,  // measure 14
0000
3001
0100
1000
0100
0001
0100
0020
,  // measure 15
0000
1030
0001
0100
0010
1000
0100
0010
,  // measure 16
0001
0100
0001
1000
0000
1100
0000
0110
,  // measure 17
0000
0010
0100
0001
0010
0100
0000
1100
,  // measure 18
0000
1000
0010
0100
0001
0010
0100
1100
,  // measure 19
0000
0000
0100
1000
0001
0100
0001
1000
,  // measure 20
0100
0000
1000
0010
0100
0001
1000
1001
,  // measure 21
0000
0000
0000
0000
1001
0000
0000
0000
0010
0000
0000
0010
0000
0000
0110
0000
,  // measure 22
0000
0000
1100
0000
0100
1000
0010
0110
,  // measure 23
0000
0100
0001
1000
0010
0001
0010
1000
,  // measure 24
0002
0000
0000
0000
,  // measure 25
2003
0000
0000
0000
3010
0110
0000
0000
,  // measure 26
2001
0000
0000
0100
0000
0001
0000
3100
,  // measure 27
0000
0000
0010
0000
0001
0100
0001
2000
,  // measure 28
0000
0000
3100
0020
0000
0000
0000
0000
,  // measure 29
0000
0031
1000
0000
0010
0000
0100
0000
,  // measure 30
0102
0000
0100
0100
0000
0000
1003
0010
,  // measure 31
0100
0001
0010
0100
,  // measure 32
2010
0000
0000
0001
3001
0000
1000
0010
,  // measure 33
1000
0001
0010
0100
0010
0001
1000
0000
,  // measure 34
0010
0100
0001
1001
0000
1100
0000
1001
,  // measure 35
0000
0001
1000
0100
1000
0001
0100
0110
,  // measure 36
0000
0010
0100
0001
1000
0100
0010
0100
,  // measure 37
0000
1000
0010
0001
0010
1000
0001
0100
,  // measure 38
0001
1000
0100
0010
0000
0001
1000
0010
,  // measure 39
0001
0010
1000
0100
0010
0100
1000
0010
,  // measure 40
0100
0101
0000
0100
0101
0000
1000
1001
,  // measure 41
0000
1000
1001
0000
0110
0000
0110
0000
,  // measure 42
1001
0010
0100
1000
,  // measure 43
0001
0100
0001
0000
1000
0001
1000
0000
,  // measure 44
0100
1000
0010
0100
,  // measure 45
0001
0100
0001
0000
1000
0100
0010
0001
,  // measure 46
0200
0000
0000
0010
0320
0000
0000
1000
,  // measure 47
2030
0000
0000
0001
3002
0000
1000
0000
,  // measure 48
1003
0010
0110
0100
,  // measure 49
0101
0000
0000
0000
0010
0000
0000
0000
0100
0000
0000
1000
0000
0000
0001
0000
,  // measure 50
1000
0100
0001
0100
1000
0010
0100
0010
,  // measure 51
1000
1000
0001
0001
0010
0100
1000
0100
,  // measure 52
0010
0001
0010
0000
0001
0000
0000
0000
0100
0010
0100
0000
0010
0000
0000
0000
,  // measure 53
1000
0100
1000
0000
0100
0000
0010
0000
0001
0100
0001
0000
1000
0001
1000
0000
,  // measure 54
0001
0000
0000
0001
0100
0000
0000
0100
0020
0000
0000
0000
1030
0000
0001
0010
,  // measure 55
0001
0000
0000
0001
1000
0000
0000
1000
0100
0000
0000
0100
0020
0000
0000
0000
,  // measure 56
0031
0000
1000
0000
0010
0000
0100
0010
0100
0000
0010
0000
1000
0000
0001
1000
,  // measure 57
0001
0000
1000
0000
0001
0000
0100
0000
0010
0000
0000
0010
0000
0000
0010
0000
,  // measure 58
1000
0100
0001
0100
1000
0010
0100
0001
,  // measure 59
1001
1000
0010
0100
0001
0000
1001
1000
,  // measure 60
0010
0100
0001
1000
0100
0010
0100
0000
,  // measure 61
1001
0001
0100
0010
1000
0000
1001
0001
,  // measure 62
0100
0010
1000
0001
0010
0100
0010
0000
,  // measure 63
1001
1000
0010
0000
0110
0100
0001
0000
,  // measure 64
1001
0000
0000
1000
0000
0000
0100
0000
0000
0010
0000
0000
0001
0000
0100
0000
,  // measure 65
0220
0000
0000
0030
,  // measure 66
0002
0000
0000
0303
,  // measure 67
0001
1000
0100
1000
0001
0100
1000
0100
,  // measure 68
0000
0001
1000
0010
0100
0010
0000
1001
,  // measure 69
0000
1000
0010
0001
0010
1000
0001
0101
,  // measure 70
0000
0000
0100
0010
1000
0100
0010
0001
,  // measure 71
1000
0010
1000
1001
0000
0001
0010
0110
,  // measure 72
0000
0000
0100
0101
0000
0110
0000
1001
,  // measure 73
0000
0001
0100
1000
0100
0001
0100
0010
,  // measure 74
1000
0100
0010
1000
0010
0100
1000
0001
,  // measure 75
0100
0010
1000
0001
0010
0001
0100
0010
,  // measure 76
0000
0100
0010
1000
0100
0010
0000
1001
,  // measure 77
0000
0001
0010
1000
0010
0001
1000
1010
,  // measure 78
0000
0000
1000
0100
1000
0010
0100
0001
,  // measure 79
1000
0000
0001
0100
0010
1000
0100
2000
,  // measure 80
0000
0000
3001
0000
0010
0000
0000
0000
0100
0000
0000
0100
0000
0000
0110
0000
,  // measure 81
0000
0000
1000
0001
0010
0001
1000
0020
,  // measure 82
0000
0000
0130
0000
0001
0000
0010
0000
1000
0000
0000
0010
0000
0000
0001
0000
,  // measure 83
0200
0000
0000
0000
,  // measure 84
0302
0000
0000
0000
1000
1000
1003
0000
,  // measure 85
0101
0000
0100
0110
0000
0100
0110
0000
,  // measure 86
1000
1100
0000
1000
1100
0000
1001
0000
,  // measure 87
0000
0220
0000
0000
,  // measure 88
0000
0000
0000
0000
,  // measure 89
0330
0000
0000
0000
;

//---------------dance-single - ----------------
#NOTES:
     dance-single:
     :
     Challenge:
     12:
     1.000,1.000,0.653,0.209,0.858:
1000
0010
1000
0000
0010
0000
0100
0010
0100
0000
0010
0000
1000
0010
1000
0000
,
0010
0000
0100
0010
0100
0000
0001
1000
0001
1000
0001
0010
0001
0010
0001
0000
,
0010
0000
0100
1000
0100
0000
0010
0000
0001
0100
0001
0000
0010
0000
0100
1000
,
0100
0000
0010
0000
0001
0100
0001
0000
1000
0100
1000
0000
0100
0010
0100
0000
,
2002
0000
0000
0003
,
0020
0000
0000
3030
,
2002
0000
0000
3003
,
0001
0100
0001
0100
0010
0000
0100
0001
0000
0000
1000
0100
0000
0000
0010
0100
,
0000
1000
0001
0100
0001
0101
0000
1001
,
0000
0000
1000
0100
0010
0100
1000
0000
0010
0000
0110
0000
0100
0000
1001
0000
,
0000
0000
0000
0000
0001
0000
1000
0000
0001
0010
0000
0000
0100
0010
0000
0000
,
0001
0000
0010
0100
1000
0000
1100
0000
0000
0000
0100
0010
0001
0000
0011
0000
,
0000
0100
1000
1001
0000
1001
0000
1001
,
0000
0000
0001
0000
0010
0000
1000
0000
0010
0000
0001
0000
0100
0010
1000
0000
,
0100
0000
0010
0100
0010
0000
0001
0000
1000
0000
0010
1000
0010
0000
1000
0001
,
1000
0000
0001
0100
0001
0000
0010
0100
0000
0000
1000
0010
0000
0000
1000
0001
,
0000
0100
0010
0100
0001
0101
0000
1001
,
0000
0000
1000
0010
0100
0010
1000
0000
0010
0000
0110
0000
0100
0000
1001
0000
,
0000
0000
0000
0000
0001
0100
0000
0000
0010
1000
0000
0000
0100
0010
0000
0000
,
0001
0000
0100
0000
0010
1000
0000
1000
0100
0000
0010
0001
0100
0010
1000
0000
,
0000
0000
0000
0000
1001
0000
0000
0000
1100
0000
0000
0011
0000
0000
1001
0000
,
0000
0000
0000
0000
0101
0000
0000
0000
0100
0000
0010
0000
1000
0100
0010
0000
,
0100
0000
1000
0000
0001
0100
0001
0000
0100
0010
0100
0000
0010
1000
0010
0000
,
2002
0000
0000
0003
,
0200
0000
0000
3300
1100
1001
0000
0000
,
0001
0100
0001
2000
0000
3200
0000
0320
,
0000
0030
0100
1000
0010
0001
0010
2000
,
0000
0000
3100
0020
0000
0000
0000
0000
,
0030
0001
0100
0001
1000
0100
0010
0000
,
0102
0000
1000
2003
0000
0000
3100
0010
,
0001
0100
0010
0100
0001
0010
0100
1000
,
1002
0000
0000
0000
0000
0000
1003
0100
2000
0000
0000
0000
3010
0000
0100
0000
,
0001
0000
1000
0000
0001
0000
1000
0000
0100
0000
0010
0100
0010
0000
0001
1000
,
0001
0000
0010
0000
0100
1000
0010
0100
0000
0000
0010
0001
0000
0000
0010
0100
,
0000
0000
1000
0010
1000
0000
0100
0000
0010
0000
0001
1000
0010
0000
1010
0000
,
0000
0000
1000
0000
0100
0010
0001
0000
1000
0000
0001
0010
0100
0000
0010
0000
,
0000
0001
1000
0100
0001
0100
1000
0001
,
1000
0000
0010
0100
0001
0000
0100
0000
0000
0000
0100
0000
0010
0000
1000
0000
,
0100
0010
0100
0000
0010
0001
0010
0000
0001
1000
0001
0000
1000
0100
1000
0000
,
1001
1001
0000
1010
1010
0000
0101
0101
,
0000
0000
0110
0000
0110
0000
0000
0000
1000
0001
0000
0000
0010
0100
0000
0000
,
1000
0000
0100
0000
0010
0000
0001
0000
1000
0010
1000
0000
0001
0100
0001
0000
,
1000
0000
0100
0000
0010
0000
0100
0000
1000
0010
1000
0000
0010
0100
0010
0000
,
1000
0000
0001
0000
1000
0000
0010
0100
0001
0000
1000
0000
0001
0000
0100
0010
,
1000
0000
0001
0000
1000
0000
0100
0000
0010
0001
0010
0001
0100
0010
1000
0100
,
1000
0000
0100
0000
0010
0100
0010
0100
0010
0000
0001
0000
0100
0010
0100
0010
,
0100
0000
0001
0000
1000
0100
1000
0100
1000
0000
0100
0000
0010
0000
0001
0000
,
1000
0010
1000
0000
0001
0000
0010
0100
0010
0000
0001
0000
0100
0000
0010
0100
,
0010
0000
0100
0000
0001
0000
1000
0100
1000
0000
0000
1100
0000
0000
0011
0000
,
0001
1000
0001
0000
0010
0100
1000
0000
0001
0010
0100
0000
1000
0001
1000
0001
,
0100
0000
0100
0000
0010
1000
0100
0000
0010
0000
0010
0000
0001
0000
0001
0000
,
1000
0000
0010
0000
0100
0000
0001
0000
1000
0100
1000
0100
0010
0000
0010
0000
,
0001
0100
0001
0100
0010
0000
0010
0000
1000
0100
0010
0001
0010
0100
1000
0000
,
0010
0000
0100
0001
0100
0000
0010
0100
0010
0000
1000
0100
1000
0100
0010
0001
,
0100
0000
0010
0100
0010
0000
0100
0001
0100
0000
0001
1000
0001
0010
0100
1000
,
0010
0000
0100
0000
0001
0000
1000
0100
0010
0000
0100
0000
1000
0000
0001
0100
,
0010
0000
0100
0010
0100
0000
0001
1000
0001
0000
0000
1001
0000
0000
1010
0000
,
0010
0000
0100
0000
0001
0010
0100
1000
0001
0010
0100
1000
0001
0100
0010
0000
,
1010
0000
1010
0000
0100
0001
0100
0001
1000
0100
1000
0000
1001
0000
1001
0000
,
0100
1000
0100
1000
0001
0100
0001
0100
0001
1000
0001
1000
0100
0010
0100
0000
,
1100
0000
1100
0000
0010
0001
0010
0001
0100
0010
0100
0000
1001
0000
1001
0000
,
0100
0001
0100
0001
1000
0100
1000
0010
0100
0010
0100
0001
0010
0100
0010
0000
,
0011
0000
0011
0000
0001
1000
0100
0000
1100
0000
1100
0000
0010
0001
1000
0000
,
1001
0000
1001
0000
0100
0010
0001
1000
0100
1000
0001
0010
0100
0010
0001
0100
,
0002
0000
0000
0000
,
0020
0000
0000
0033
,
0001
0000
1000
0100
0010
0000
0001
0100
0001
0000
0100
0010
0100
0000
0010
1000
,
0010
1000
0100
0010
0001
0101
0000
0110
,
0000
0000
0010
1000
0100
0010
0001
0000
0101
0000
0100
0000
0110
0000
1001
0000
,
0000
0000
0000
0000
1100
0000
1000
0000
0100
0010
0001
0000
0010
0100
1000
0000
,
0001
0000
0100
0001
0100
0010
1000
0000
0000
0000
0100
0010
0001
0010
0100
0000
,
0000
1000
0001
0101
0000
0101
0000
1001
,
0000
0000
1000
0000
0010
0000
0001
0000
0010
0000
1000
0000
0001
0000
1000
0010
,
0100
0000
0001
0100
0001
0000
0010
0100
1000
0001
0010
0100
1000
0100
0010
0001
,
1000
0000
0100
0000
1000
0000
0001
0010
0100
0000
1000
0100
0010
0000
0101
0000
,
0000
0000
0001
0000
1000
0000
0100
0000
0010
0100
1000
0000
0000
0000
1100
0000
,
0000
0000
0010
0001
0100
0010
0100
0000
1010
0000
0010
0000
0110
0000
1001
0000
,
0000
0000
0000
0000
0001
0000
0010
0100
1000
0000
0100
0010
0001
0000
1000
0000
,
0010
0000
0000
0000
0100
0001
0000
0001
1000
0000
0100
0010
0001
0010
0200
0000
,
0000
0000
1300
0010
0100
0000
0000
0000
0101
0000
0000
1010
0000
0000
1001
0000
,
0000
0000
0000
0000
0001
0000
0100
0000
0001
0000
0010
0100
1000
0100
0010
0000
,
0001
0100
0001
0100
0010
1000
0010
1000
0100
0010
0001
1000
0100
0010
0001
1000
,
0002
0000
0000
0000
0000
0000
0000
0000
0000
0000
0000
0000
0000
0000
0013
0100
,
2000
0000
0000
0000
0100
3100
1100
0000
,
1001
0000
0010
0100
1000
0000
1100
0000
0010
0001
0100
0000
0101
0000
0010
1000
,
0001
0000
1001
0000
0010
0100
1000
0000
0100
1000
0010
0100
0001
0010
0001
0000
,
1000
2002
0000
0000
,
0000
0000
0000
0000
,
3003
0000
0000
0000
;

//---------------dance-single - ----------------
#NOTES:
     dance-single:
     :
     Beginner:
     2:
     0.180,0.268,0.131,0.000,0.000:
1000
0000
0000
0100
,
0000
0000
0000
0000
,
0010
0000
0000
0001
,
0000
0000
1000
0000
,
0001
0000
0000
0000
,
0001
0000
0000
0000
,
1001
0000
0000
0000
,
1000
0000
0100
0000
,
1000
0000
0001
0000
,
1000
0000
0100
0000
,
1000
0000
0001
0000
,
0010
0000
0100
0000
,
0010
0000
0001
0000
,
0100
0000
0100
0000
,
0100
0000
0000
0000
,
0001
0000
1000
0000
,
0100
0000
1000
0000
,
0001
0000
1000
0000
,
0100
0000
0000
0000
,
0010
0000
0001
0000
,
1000
0000
1001
0000
,
0000
0001
0000
0000
,
0100
0000
0001
0000
,
1000
0000
0000
0000
,
0001
0000
1001
0000
,
1000
0000
0000
0000
,
0000
0000
0000
0000
,
0000
0000
0000
0000
,
0000
0000
0000
0000
,
0001
0000
0000
0000
,
1000
0000
0000
0000
,
0001
0000
0001
0000
,
1000
0000
1000
0000
,
0001
0000
0000
0000
,
0100
0000
0000
0000
,
0010
0000
0000
0000
,
0100
0000
0000
0000
,
0001
0000
0000
0000
,
1000
0000
0001
0000
,
1000
0000
0000
1001
,
0000
0000
0001
0000
,
0100
0000
0000
0000
,
0100
0000
0000
0000
,
0010
0000
0000
0000
,
0010
0000
0000
0000
,
1000
0000
0000
0000
,
0100
0000
0000
0000
,
0010
0000
0000
0000
,
0001
0000
0000
0000
,
1000
0000
1000
0000
,
0001
0000
0001
0000
,
0010
0000
0100
0000
,
0010
0000
0100
0000
,
1000
0000
0001
0000
,
1000
0000
0001
0000
,
0100
0000
0010
0000
,
0100
0000
0010
0000
,
0000
0000
0000
0000
,
1001
0000
0000
1001
,
0000
0000
0000
0000
,
1001
0000
0000
1001
,
0000
0000
0000
0000
,
1001
0000
1001
0000
,
1001
0000
0000
0000
,
0001
0000
0000
0000
,
0010
0000
0000
0000
,
0100
0000
1000
0000
,
0100
0000
0010
0000
,
0100
0000
0010
0000
,
0001
0000
1000
0000
,
0001
0000
0001
0000
,
0100
0000
0100
0000
,
0010
0000
0100
0000
,
0010
0000
1000
0000
,
0001
0000
0001
0000
,
1000
0000
1000
0000
,
0100
0000
0010
0000
,
0100
0000
0010
0000
,
0000
0001
0000
0000
,
1000
0000
1001
0000
,
0000
0001
0000
0000
,
0010
0000
0001
0000
,
0100
0000
0000
0000
,
0100
0000
0000
1001
,
0001
0000
0000
1000
0000
0000
0001
0000
,
0000
1000
0000
0000
0001
0000
0000
0000
,
0000
1001
0000
0000
,
0000
0000
0000
0000
,
1001
0000
0000
0000
;
